Регистрация / Смена пароля

💬 Мини-чат

moonson: Alex302, ну, сообственно туда всем нашим врагам и дорога. Жалко только враг Жан-Поля застрял на 16 % и ни туда, и ни сюда 😄
Alex302: moonson, труп вашего врага растащило вороньё)
  • Spartanec1308
  • alexyak
  • COOLGRAND
  • garant3v
Отправка сообщений доступно только зарегистрированным/авторизованным пользователям.
Онлайн (за 10 мин.): 4

Астерикс и Обеликс: Квадрология / Astérix & Obélix: Quadrilogy (1999-2012) BDRip 1080p [HEVC] 10 bit от Mr. Fox

HEVC
10 bit
Обложка Астерикс и Обеликс: Квадрология / Astérix & Obélix: Quadrilogy (1999-2012) BDRip 1080p [HEVC] 10 bit от Mr. Fox Год: 1999-2012
Страна: Франция, Германия, Испания, Италия, Бельгия
Жанр: Фэнтези, Комедия, Приключения, Семейный

1. Астерикс и Обеликс против Цезаря / Astérix & Obélix contre César (1999) BDRip 1080p [HEVC] 10 bit от Mr. Fox
HEVC
10 bit
Обложка Астерикс и Обеликс против Цезаря / Astérix & Obélix contre César (1999) BDRip 1080p [HEVC] 10 bit от Mr. Fox Год: 1999
Страна: Франция, Италия, Германия
Студия: AMLF, Bavaria Entertainment, Canal+
Жанр: Фэнтези, Комедия, Приключения, Семейный
Продолжительность: 01:45:32

Режиссер: Клод Зиди
В ролях: Кристиан Клавье, Жерар Депардье, Роберто Бениньи, Мишель Галабрю, Клод Пьеплю, Даниэль Прево, Пьер Палмаде, Летиция Каста, Ариель Домбаль, Сим

Описание: В 50-м году до нашей эры римский император Юлий Цезарь покорил Галлию. Только жители одной маленькой деревеньки отказались платить налоги римлянам. Ведь у них есть волшебный напиток, позволяющий сразиться со всей Римской империей…

КиноПоиск
7.29 66058
IMDb
6
38393


Видео: 1916x822, 10.7 Mbps
Аудио1: AC3, 6 ch, 448 Kbps -
Русский, Дублированный
Аудио2: AC3, 6 ch, 448 Kbps -
Французский, Оригинал
Субтитры: Русские, английские

Как за пару секунд удалить ненужные аудиодорожки и субтитры (Внимание! После удаления вы не сможете поддержать раздачу)

Медиаинфо
Общее
Уникальный идентификатор : 139184223280895694742505677638500773259 (0x68B5E805EAE8AD129A01EB941E4A6D8B)
Полное имя : R:\Asterix\1. Astérix & Obélix contre César (1999) BDRip 1080p [HEVC].mkv
Формат : Matroska
Версия формата : Version 4 / Version 2
Размер файла : 8,52 Гбайт
Продолжительность : 1 ч. 45 м.
Общий поток : 11,6 Мбит/сек
Название фильма : Astérix et Obélix contre César (1999)
Дата кодирования : UTC 2019-09-20 18:14:10
Программа кодирования : mkvmerge v37.0.0 ('Leave It') 64-bit
Библиотека кодирования : libebml v1.3.9 + libmatroska v1.5.2
Обложка : Yes
Attachments : cover.jpg

Видео
Идентификатор : 1
Формат : HEVC
Формат/Информация : High Efficiency Video Coding
Профиль формата : Main 10@L4.1@High
Идентификатор кодека : V_MPEGH/ISO/HEVC
Продолжительность : 1 ч. 45 м.
Битрейт : 10,7 Мбит/сек
Ширина : 1916 пикселей
Высота : 822 пикселя
Соотношение сторон : 2,35:1
Режим частоты кадров : Постоянный
Частота кадров : 25,000 кадров/сек
Цветовое пространство : YUV
Субдискретизация насыщенности : 4:2:0
Битовая глубина : 10 бит
Бит/(Пиксели*Кадры) : 0.271
Размер потока : 7,86 Гбайт (92%)
Библиотека кодирования : x265 3.1.2+1-76650bab70f9:[Windows][MSVC 1922][64 bit] 10bit
Настройки программы : cpuid=1111039 / frame-threads=3 / numa-pools=12 / wpp / no-pmode / no-pme / no-psnr / no-ssim / log-level=2 / input-csp=1 / input-res=1916x822 / interlace=0 / total-frames=151768 / level-idc=41 / high-tier=1 / uhd-bd=0 / ref=5 / no-allow-non-conformance / no-repeat-headers / annexb / no-aud / no-hrd / info / hash=0 / no-temporal-layers / open-gop / min-keyint=24 / keyint=240 / gop-lookahead=0 / bframes=10 / b-adapt=2 / b-pyramid / bframe-bias=0 / rc-lookahead=60 / lookahead-slices=4 / scenecut=40 / radl=0 / no-splice / no-intra-refresh / ctu=32 / min-cu-size=8 / rect / amp / max-tu-size=32 / tu-inter-depth=4 / tu-intra-depth=4 / limit-tu=1 / rdoq-level=2 / dynamic-rd=0.00 / no-ssim-rd / signhide / no-tskip / nr-intra=0 / nr-inter=0 / no-constrained-intra / no-strong-intra-smoothing / max-merge=4 / limit-refs=2 / limit-modes / me=3 / subme=7 / merange=57 / temporal-mvp / weightp / weightb / no-analyze-src-pics / deblock=-3:-3 / no-sao / no-sao-non-deblock / rd=6 / no-early-skip / no-rskip / no-fast-intra / no-tskip-fast / no-cu-lossless / no-b-intra / no-splitrd-skip / rdpenalty=0 / psy-rd=2.00 / psy-rdoq=1.00 / no-rd-refine / no-lossless / cbqpoffs=0 / crqpoffs=0 / rc=crf / crf=19.8 / qcomp=0.75 / qpstep=4 / stats-write=0 / stats-read=0 / vbv-maxrate=50000 / vbv-bufsize=50000 / vbv-init=0.9 / crf-max=0.0 / crf-min=0.0 / ipratio=1.40 / pbratio=1.30 / aq-mode=1 / aq-strength=1.00 / no-cutree / zone-count=0 / no-strict-cbr / qg-size=32 / no-rc-grain / qpmax=69 / qpmin=0 / no-const-vbv / sar=1 / overscan=0 / videoformat=5 / range=0 / colorprim=1 / transfer=1 / colormatrix=1 / chromaloc=0 / display-window=0cll=0,0 / min-luma=0 / max-luma=1023 / log2-max-poc-lsb=8 / vui-timing-info / vui-hrd-info / slices=1 / no-opt-qp-pps / no-opt-ref-list-length-pps / no-multi-pass-opt-rps / scenecut-bias=0.05 / no-opt-cu-delta-qp / no-aq-motion / no-hdr / no-hdr-opt / no-dhdr10-opt / no-idr-recovery-sei / analysis-reuse-level=5 / scale-factor=0 / refine-intra=0 / refine-inter=0 / refine-mv=0 / refine-ctu-distortion=0 / no-limit-sao / ctu-info=0 / no-lowpass-dct / refine-analysis-type=0 / copy-pic=1 / max-ausize-factor=1.0 / no-dynamic-refine / no-single-sei / no-hevc-aq / no-svt / no-field / qp-adaptation-range=1.00
Default : Да
Forced : Нет
Цветовой диапазон : Limited
Основные цвета : BT.709
Характеристики трансфера : BT.709
Коэффициенты матрицы : BT.709

Аудио #1
Идентификатор : 2
Формат : AC-3
Формат/Информация : Audio Coding 3
Идентификатор кодека : A_AC3
Продолжительность : 1 ч. 45 м.
Вид битрейта : Постоянный
Битрейт : 448 Кбит/сек
Каналы : 6 каналов
Расположение каналов : Front: L C R, Side: L R, LFE
Частота : 48,0 КГц
Частота кадров : 31,250 кадров/сек (1536 SPF)
Битовая глубина : 16 бит
Метод сжатия : С потерями
Размер потока : 338 Мбайт (4%)
Язык : Russian
ServiceKind/String : Complete Main
Default : Да
Forced : Нет

Аудио #2
Идентификатор : 3
Формат : AC-3
Формат/Информация : Audio Coding 3
Идентификатор кодека : A_AC3
Продолжительность : 1 ч. 45 м.
Вид битрейта : Постоянный
Битрейт : 448 Кбит/сек
Каналы : 6 каналов
Расположение каналов : Front: L C R, Side: L R, LFE
Частота : 48,0 КГц
Частота кадров : 31,250 кадров/сек (1536 SPF)
Битовая глубина : 16 бит
Метод сжатия : С потерями
Размер потока : 338 Мбайт (4%)
Язык : French
ServiceKind/String : Complete Main
Default : Нет
Forced : Нет

Текст #1
Идентификатор : 4
Формат : UTF-8
Идентификатор кодека : S_TEXT/UTF8
Идентификатор кодека/Информация : UTF-8 Plain Text
Продолжительность : 1 ч. 40 м.
Битрейт : 100 бит/сек
ElementCount : 1423
Размер потока : 73,8 Кбайт (0%)
Язык : Russian
Default : Нет
Forced : Нет

Текст #2
Идентификатор : 5
Формат : UTF-8
Идентификатор кодека : S_TEXT/UTF8
Идентификатор кодека/Информация : UTF-8 Plain Text
Продолжительность : 1 ч. 39 м.
Битрейт : 61 бит/сек
ElementCount : 1227
Размер потока : 45,3 Кбайт (0%)
Язык : English
Default : Нет
Forced : Нет
Cкриншот1 Астерикс и Обеликс против Цезаря / Astérix & Obélix contre César (1999) BDRip 1080p [HEVC] 10 bit от Mr. Fox
Загружается...
Cкриншот2 Астерикс и Обеликс против Цезаря / Astérix & Obélix contre César (1999) BDRip 1080p [HEVC] 10 bit от Mr. Fox
Загружается...
Cкриншот3 Астерикс и Обеликс против Цезаря / Astérix & Obélix contre César (1999) BDRip 1080p [HEVC] 10 bit от Mr. Fox
Загружается...
Cкриншот4 Астерикс и Обеликс против Цезаря / Astérix & Obélix contre César (1999) BDRip 1080p [HEVC] 10 bit от Mr. Fox
Загружается...
Сэмпл
2. Астерикс и Обеликс: Миссия Клеопатра / Astérix & Obélix: Mission Cléopâtre (2002) BDRip 1080p [HEVC] 10 bit от Mr. Fox
HEVC
10 bit
Обложка Астерикс и Обеликс: Миссия Клеопатра / Astérix & Obélix: Mission Cléopâtre (2002) BDRip 1080p [HEVC] 10 bit от Mr. Fox Год: 2002
Страна: Франция, Германия
Студия: Canal+, Centre National de la Cinématographie (CNC), Chez Wam
Жанр: Фэнтези, Комедия, Приключения
Продолжительность: 01:48:01

Режиссер: Ален Шаба
В ролях: Жерар Депардье, Кристиан Клавье, Жамель Деббуз, Моника Беллуччи, Ален Шаба, Клод Риш, Жерар Дармон, Эдуард Баэр, Дьедонне, Мусс Диуф

Описание: Великая Клеопатра заключила пари с римским императором Юлием Цезарем о том, что ее подданные смогут всего за три месяца построить грандиозный золотой дворец. Этой опасной чести был удостоен архитектор Нумеробис, которого — в случае неудачи — должны растерзать крокодилы. Нумеробис вызывает на помощь своего старого друга — друида Панорамикса с зельем, дарующим сверхъестественную силу. А веселые, находчивые Астерикс и Обеликс сопровождают старца в Египет, чтобы помешать проискам Цезаря, не желающего проигрывать Клеопатре.

КиноПоиск
7.258 79507
IMDb
6.6
47504


Видео: 1920x816, 9579 Kbps
Аудио1: AC3, 6 ch, 384 Kbps -
Русский, Дублированный
Аудио2: AC3, 6 ch, 448 Kbps -
Французский, Оригинал
Субтитры: Русские, английские

Как за пару секунд удалить ненужные аудиодорожки и субтитры (Внимание! После удаления вы не сможете поддержать раздачу)

Медиаинфо
Общее
Уникальный идентификатор : 147084699376094567668327186134085001186 (0x6EA77B9180F7D4FB41E670E1ACE1DFE2)
Полное имя : R:\Asterix\2. Astérix & Obélix Mission Cléopâtre (2002) BDRip 1080p [HEVC].mkv
Формат : Matroska
Версия формата : Version 4 / Version 2
Размер файла : 7,86 Гбайт
Продолжительность : 1 ч. 48 м.
Общий поток : 10,4 Мбит/сек
Название фильма : Astérix & Obélix: Mission Cléopâtre (2002)
Дата кодирования : UTC 2019-09-22 07:47:01
Программа кодирования : mkvmerge v37.0.0 ('Leave It') 64-bit
Библиотека кодирования : libebml v1.3.9 + libmatroska v1.5.2
Обложка : Yes
Attachments : cover.jpg

Видео
Идентификатор : 1
Формат : HEVC
Формат/Информация : High Efficiency Video Coding
Профиль формата : Main 10@L4.1@High
Идентификатор кодека : V_MPEGH/ISO/HEVC
Продолжительность : 1 ч. 48 м.
Битрейт : 9579 Кбит/сек
Ширина : 1920 пикселей
Высота : 816 пикселей
Соотношение сторон : 2,35:1
Режим частоты кадров : Постоянный
Частота кадров : 24,000 кадра/сек
Цветовое пространство : YUV
Субдискретизация насыщенности : 4:2:0
Битовая глубина : 10 бит
Бит/(Пиксели*Кадры) : 0.255
Размер потока : 7,23 Гбайт (92%)
Библиотека кодирования : x265 3.1.2+1-76650bab70f9:[Windows][MSVC 1922][64 bit] 10bit
Настройки программы : cpuid=1111039 / frame-threads=3 / numa-pools=12 / wpp / no-pmode / no-pme / no-psnr / no-ssim / log-level=2 / input-csp=1 / input-res=1920x816 / interlace=0 / total-frames=147223 / level-idc=41 / high-tier=1 / uhd-bd=0 / ref=5 / no-allow-non-conformance / no-repeat-headers / annexb / no-aud / no-hrd / info / hash=0 / no-temporal-layers / open-gop / min-keyint=23 / keyint=240 / gop-lookahead=0 / bframes=12 / b-adapt=2 / b-pyramid / bframe-bias=0 / rc-lookahead=60 / lookahead-slices=4 / scenecut=40 / radl=0 / no-splice / no-intra-refresh / ctu=32 / min-cu-size=8 / rect / amp / max-tu-size=32 / tu-inter-depth=4 / tu-intra-depth=4 / limit-tu=1 / rdoq-level=2 / dynamic-rd=0.00 / no-ssim-rd / signhide / no-tskip / nr-intra=0 / nr-inter=0 / no-constrained-intra / no-strong-intra-smoothing / max-merge=4 / limit-refs=2 / limit-modes / me=3 / subme=7 / merange=57 / temporal-mvp / weightp / weightb / no-analyze-src-pics / deblock=-3:-3 / no-sao / no-sao-non-deblock / rd=6 / no-early-skip / no-rskip / no-fast-intra / no-tskip-fast / no-cu-lossless / no-b-intra / no-splitrd-skip / rdpenalty=0 / psy-rd=2.00 / psy-rdoq=1.00 / no-rd-refine / no-lossless / cbqpoffs=0 / crqpoffs=0 / rc=crf / crf=20.0 / qcomp=0.70 / qpstep=4 / stats-write=0 / stats-read=0 / vbv-maxrate=50000 / vbv-bufsize=50000 / vbv-init=0.9 / crf-max=0.0 / crf-min=0.0 / ipratio=1.40 / pbratio=1.30 / aq-mode=1 / aq-strength=1.00 / no-cutree / zone-count=0 / no-strict-cbr / qg-size=32 / no-rc-grain / qpmax=69 / qpmin=0 / no-const-vbv / sar=1 / overscan=0 / videoformat=5 / range=0 / colorprim=1 / transfer=1 / colormatrix=1 / chromaloc=0 / display-window=0cll=0,0 / min-luma=0 / max-luma=1023 / log2-max-poc-lsb=8 / vui-timing-info / vui-hrd-info / slices=1 / no-opt-qp-pps / no-opt-ref-list-length-pps / no-multi-pass-opt-rps / scenecut-bias=0.05 / no-opt-cu-delta-qp / no-aq-motion / no-hdr / no-hdr-opt / no-dhdr10-opt / no-idr-recovery-sei / analysis-reuse-level=5 / scale-factor=0 / refine-intra=0 / refine-inter=0 / refine-mv=0 / refine-ctu-distortion=0 / no-limit-sao / ctu-info=0 / no-lowpass-dct / refine-analysis-type=0 / copy-pic=1 / max-ausize-factor=1.0 / no-dynamic-refine / no-single-sei / no-hevc-aq / no-svt / no-field / qp-adaptation-range=1.00
Default : Да
Forced : Нет
Цветовой диапазон : Limited
Основные цвета : BT.709
Характеристики трансфера : BT.709
Коэффициенты матрицы : BT.709

Аудио #1
Идентификатор : 2
Формат : AC-3
Формат/Информация : Audio Coding 3
Идентификатор кодека : A_AC3
Продолжительность : 1 ч. 48 м.
Вид битрейта : Постоянный
Битрейт : 384 Кбит/сек
Каналы : 6 каналов
Расположение каналов : Front: L C R, Side: L R, LFE
Частота : 48,0 КГц
Частота кадров : 31,250 кадров/сек (1536 SPF)
Битовая глубина : 16 бит
Метод сжатия : С потерями
Размер потока : 297 Мбайт (4%)
Заголовок : Dub
Язык : Russian
ServiceKind/String : Complete Main
Default : Да
Forced : Нет

Аудио #2
Идентификатор : 3
Формат : AC-3
Формат/Информация : Audio Coding 3
Идентификатор кодека : A_AC3
Продолжительность : 1 ч. 48 м.
Вид битрейта : Постоянный
Битрейт : 448 Кбит/сек
Каналы : 6 каналов
Расположение каналов : Front: L C R, Side: L R, LFE
Частота : 48,0 КГц
Частота кадров : 31,250 кадров/сек (1536 SPF)
Битовая глубина : 16 бит
Метод сжатия : С потерями
Размер потока : 346 Мбайт (4%)
Заголовок : Original
Язык : French
ServiceKind/String : Complete Main
Default : Нет
Forced : Нет

Текст #1
Идентификатор : 4
Формат : UTF-8
Идентификатор кодека : S_TEXT/UTF8
Идентификатор кодека/Информация : UTF-8 Plain Text
Продолжительность : 1 ч. 41 м.
Битрейт : 93 бит/сек
ElementCount : 1336
Размер потока : 69,7 Кбайт (0%)
Заголовок : Full
Язык : Russian
Default : Нет
Forced : Нет

Текст #2
Идентификатор : 5
Формат : UTF-8
Идентификатор кодека : S_TEXT/UTF8
Идентификатор кодека/Информация : UTF-8 Plain Text
Продолжительность : 1 ч. 45 м.
Битрейт : 53 бит/сек
ElementCount : 1291
Размер потока : 41,4 Кбайт (0%)
Заголовок : Eng
Язык : English
Default : Нет
Forced : Нет

Меню
00:00:00.000 : fr:1
00:04:27.375 : fr:2
00:09:58.291 : fr:3
00:13:53.666 : fr:4
00:19:14.125 : fr:5
00:24:49.375 : fr:6
00:31:04.083 : fr:7
00:35:07.625 : fr:8
00:38:57.833 : fr:9
00:42:57.083 : fr:10
00:46:00.625 : fr:11
00:51:45.458 : fr:12
00:58:06.375 : fr:13
01:02:52.750 : fr:14
01:08:53.458 : fr:15
01:13:41.291 : fr:16
01:18:28.791 : fr:17
01:23:42.416 : fr:18
01:30:48.833 : fr:19
01:36:48.500 : fr:20
01:40:47.125 : fr:21
01:42:14.458 : fr:22
Cкриншот1 Астерикс и Обеликс: Миссия Клеопатра / Astérix & Obélix: Mission Cléopâtre (2002) BDRip 1080p [HEVC] 10 bit от Mr. Fox
Загружается...
Cкриншот2 Астерикс и Обеликс: Миссия Клеопатра / Astérix & Obélix: Mission Cléopâtre (2002) BDRip 1080p [HEVC] 10 bit от Mr. Fox
Загружается...
Cкриншот3 Астерикс и Обеликс: Миссия Клеопатра / Astérix & Obélix: Mission Cléopâtre (2002) BDRip 1080p [HEVC] 10 bit от Mr. Fox
Загружается...
Cкриншот4 Астерикс и Обеликс: Миссия Клеопатра / Astérix & Obélix: Mission Cléopâtre (2002) BDRip 1080p [HEVC] 10 bit от Mr. Fox
Загружается...
Сэмпл
3. Астерикс на Олимпийских играх / Astérix aux jeux olympiques (2008) BDRip 1080p [HEVC] 10 bit от Mr. Fox
HEVC
10 bit
Обложка Астерикс на Олимпийских играх / Astérix aux jeux olympiques (2008) BDRip 1080p [HEVC] 10 bit от Mr. Fox Год: 2008
Страна: Франция, Германия, Испания, Италия, Бельгия
Студия: Pathé Renn Productions, La Petite Reine, TF1 Films Production
Жанр: Фэнтези, Комедия, Приключения, Семейный
Продолжительность: 01:57:13

Режиссер: Фредерик Форестье, Тома Лангманн
В ролях: Жерар Депардье, Кловис Корнийяк, Бенуа Пульворд, Ален Делон, Ванесса Эсслер, Франк Дюбоск, Хосе Гарсия, Стефан Руссо, Жан-Пьер Кассель, Эли Семун

Описание: Уже несколько месяцев сердце Полюбвикса бьется только ради греческой принцессы Ирины. Но, увы, он не единственный претендент на ее руку. Большая политика предназначила Ирину в жены Бруту, сыну Юлия Цезаря. Чтобы оттянуть нежеланный брак и дать шанс Полюбвиксу Ирина объявляет, что выйдет замуж за победителя Олимпийских Игр. Итак, Полюбвикс приступает к тренировкам под руководством тех, кто быстрее, выше, сильнее, и, разумеется, умнее всех — Астерикса и Обеликса. А хитрый Брут — к разработке коварного плана.

КиноПоиск
6.196 47216
IMDb
5.2
26773


Видео: 1920x816, 8096 Kbps
Аудио1: AC3, 6 ch, 448 Kbps -
Русский, Дублированный
Аудио2: AC3, 6 ch, 448 Kbps -
Французский, Оригинал
Субтитры: Русские, английские

Как за пару секунд удалить ненужные аудиодорожки и субтитры (Внимание! После удаления вы не сможете поддержать раздачу)

Медиаинфо
Общее
Уникальный идентификатор : 142658371649050992112008314983698914470 (0x6B5300C3248F79F8864AFDA7436FDCA6)
Полное имя : R:\Asterix\3. Astérix aux Jeux Olympiques (2008) BDRip 1080p [HEVC].mkv
Формат : Matroska
Версия формата : Version 4 / Version 2
Размер файла : 7,37 Гбайт
Продолжительность : 1 ч. 57 м.
Общий поток : 8995 Кбит/сек
Название фильма : Astérix aux Jeux Olympiques (2008)
Дата кодирования : UTC 2019-09-23 17:04:34
Программа кодирования : mkvmerge v37.0.0 ('Leave It') 64-bit
Библиотека кодирования : libebml v1.3.9 + libmatroska v1.5.2
Обложка : Yes
Attachments : cover.jpg

Видео
Идентификатор : 1
Формат : HEVC
Формат/Информация : High Efficiency Video Coding
Профиль формата : Main 10@L4.1@High
Идентификатор кодека : V_MPEGH/ISO/HEVC
Продолжительность : 1 ч. 57 м.
Битрейт : 8096 Кбит/сек
Ширина : 1920 пикселей
Высота : 816 пикселей
Соотношение сторон : 2,35:1
Режим частоты кадров : Постоянный
Частота кадров : 24,000 кадра/сек
Цветовое пространство : YUV
Субдискретизация насыщенности : 4:2:0
Битовая глубина : 10 бит
Бит/(Пиксели*Кадры) : 0.215
Размер потока : 6,63 Гбайт (90%)
Библиотека кодирования : x265 3.1.2+1-76650bab70f9:[Windows][MSVC 1922][64 bit] 10bit
Настройки программы : cpuid=1111039 / frame-threads=3 / numa-pools=12 / wpp / no-pmode / no-pme / no-psnr / no-ssim / log-level=2 / input-csp=1 / input-res=1920x816 / interlace=0 / total-frames=164712 / level-idc=41 / high-tier=1 / uhd-bd=0 / ref=5 / no-allow-non-conformance / no-repeat-headers / annexb / no-aud / no-hrd / info / hash=0 / no-temporal-layers / open-gop / min-keyint=23 / keyint=240 / gop-lookahead=0 / bframes=10 / b-adapt=2 / b-pyramid / bframe-bias=0 / rc-lookahead=60 / lookahead-slices=4 / scenecut=40 / radl=0 / no-splice / no-intra-refresh / ctu=32 / min-cu-size=8 / rect / amp / max-tu-size=32 / tu-inter-depth=4 / tu-intra-depth=4 / limit-tu=1 / rdoq-level=2 / dynamic-rd=0.00 / no-ssim-rd / signhide / no-tskip / nr-intra=0 / nr-inter=0 / no-constrained-intra / no-strong-intra-smoothing / max-merge=4 / limit-refs=2 / limit-modes / me=3 / subme=7 / merange=57 / temporal-mvp / weightp / weightb / no-analyze-src-pics / deblock=-3:-3 / no-sao / no-sao-non-deblock / rd=6 / no-early-skip / no-rskip / no-fast-intra / no-tskip-fast / no-cu-lossless / no-b-intra / no-splitrd-skip / rdpenalty=0 / psy-rd=2.00 / psy-rdoq=1.00 / no-rd-refine / no-lossless / cbqpoffs=0 / crqpoffs=0 / rc=crf / crf=20.0 / qcomp=0.75 / qpstep=4 / stats-write=0 / stats-read=0 / vbv-maxrate=50000 / vbv-bufsize=50000 / vbv-init=0.9 / crf-max=0.0 / crf-min=0.0 / ipratio=1.40 / pbratio=1.30 / aq-mode=1 / aq-strength=1.00 / no-cutree / zone-count=0 / no-strict-cbr / qg-size=32 / no-rc-grain / qpmax=69 / qpmin=0 / no-const-vbv / sar=1 / overscan=0 / videoformat=5 / range=0 / colorprim=1 / transfer=1 / colormatrix=1 / chromaloc=0 / display-window=0cll=0,0 / min-luma=0 / max-luma=1023 / log2-max-poc-lsb=8 / vui-timing-info / vui-hrd-info / slices=1 / no-opt-qp-pps / no-opt-ref-list-length-pps / no-multi-pass-opt-rps / scenecut-bias=0.05 / no-opt-cu-delta-qp / no-aq-motion / no-hdr / no-hdr-opt / no-dhdr10-opt / no-idr-recovery-sei / analysis-reuse-level=5 / scale-factor=0 / refine-intra=0 / refine-inter=0 / refine-mv=0 / refine-ctu-distortion=0 / no-limit-sao / ctu-info=0 / no-lowpass-dct / refine-analysis-type=0 / copy-pic=1 / max-ausize-factor=1.0 / no-dynamic-refine / no-single-sei / no-hevc-aq / no-svt / no-field / qp-adaptation-range=1.00
Default : Да
Forced : Нет
Цветовой диапазон : Limited
Основные цвета : BT.709
Характеристики трансфера : BT.709
Коэффициенты матрицы : BT.709

Аудио #1
Идентификатор : 2
Формат : AC-3
Формат/Информация : Audio Coding 3
Идентификатор кодека : A_AC3
Продолжительность : 1 ч. 57 м.
Вид битрейта : Постоянный
Битрейт : 448 Кбит/сек
Каналы : 6 каналов
Расположение каналов : Front: L C R, Side: L R, LFE
Частота : 48,0 КГц
Частота кадров : 31,250 кадров/сек (1536 SPF)
Битовая глубина : 16 бит
Метод сжатия : С потерями
Размер потока : 375 Мбайт (5%)
Язык : Russian
ServiceKind/String : Complete Main
Default : Да
Forced : Нет

Аудио #2
Идентификатор : 3
Формат : AC-3
Формат/Информация : Audio Coding 3
Идентификатор кодека : A_AC3
Продолжительность : 1 ч. 57 м.
Вид битрейта : Постоянный
Битрейт : 448 Кбит/сек
Каналы : 6 каналов
Расположение каналов : Front: L C R, Side: L R, LFE
Частота : 48,0 КГц
Частота кадров : 31,250 кадров/сек (1536 SPF)
Битовая глубина : 16 бит
Метод сжатия : С потерями
Размер потока : 375 Мбайт (5%)
Язык : French
ServiceKind/String : Complete Main
Default : Нет
Forced : Нет

Текст #1
Идентификатор : 4
Формат : UTF-8
Идентификатор кодека : S_TEXT/UTF8
Идентификатор кодека/Информация : UTF-8 Plain Text
Продолжительность : 1 ч. 54 м.
Битрейт : 86 бит/сек
ElementCount : 1234
Размер потока : 72,0 Кбайт (0%)
Язык : Russian
Default : Нет
Forced : Нет

Текст #2
Идентификатор : 5
Формат : UTF-8
Идентификатор кодека : S_TEXT/UTF8
Идентификатор кодека/Информация : UTF-8 Plain Text
Продолжительность : 1 ч. 54 м.
Битрейт : 48 бит/сек
ElementCount : 1504
Размер потока : 40,9 Кбайт (0%)
Язык : English
Default : Нет
Forced : Нет
Cкриншот1 Астерикс на Олимпийских играх / Astérix aux jeux olympiques (2008) BDRip 1080p [HEVC] 10 bit от Mr. Fox
Загружается...
Cкриншот2 Астерикс на Олимпийских играх / Astérix aux jeux olympiques (2008) BDRip 1080p [HEVC] 10 bit от Mr. Fox
Загружается...
Cкриншот3 Астерикс на Олимпийских играх / Astérix aux jeux olympiques (2008) BDRip 1080p [HEVC] 10 bit от Mr. Fox
Загружается...
Cкриншот4 Астерикс на Олимпийских играх / Astérix aux jeux olympiques (2008) BDRip 1080p [HEVC] 10 bit от Mr. Fox
Загружается...
Сэмпл
4. Астерикс и Обеликс в Британии / Astérix & Obélix: Au service de sa Majesté (2012) BDRip 1080p [HEVC] 10 bit от Mr. Fox
HEVC
10 bit
Обложка Астерикс и Обеликс в Британии / Astérix & Obélix: Au service de sa Majesté (2012) BDRip 1080p [HEVC] 10 bit от Mr. Fox Год: 2012
Страна: Франция, Венгрия, Италия, Испания
Студия: Fidélité Films, Wild Bunch, Cinetotal
Жанр: Комедия, Приключения, Семейный
Продолжительность: 01:50:06

Режиссер: Лоран Тирар
В ролях: Жерар Депардье, Эдуард Баэр, Гийом Гальенн, Венсан Лакост, Валери Лемерсье, Фабрис Лукини, Катрин Денёв, Шарлотта Ле Бон, Були Ланнерс, Дэни Бун

Описание: Пятидесятый год до нашей эры. Юлий Цезарь рвется к новым завоеваниям. Во главе своих прославленных легионов он собирается захватить остров, который находится на самом краю света — таинственную страну, именуемую Британией. Войско Цезаря одерживает быструю и безоговорочную победу. Ну… почти безоговорочную: одна крошечная деревушка продолжает яростно обороняться, однако силы на исходе, и королева бриттов Корделия отправляет своего самого надежного офицера Красовакса за подмогой в Галлию, где находится такая же маленькая деревушка, известная своим упорным сопротивлением римлянам. Между тем, у Астерикса с Обеликсом и так забот хватает. Вождь поручил им сделать настоящего мужчину из Гадорикса, своего надоедливого племянника, недавно приехавшего из Лютеции, а выполнить это крайне непросто. Когда к галлам приезжает Красовакс, те снабжают его бочонком своего знаменитого волшебного зелья, а Астерикс и Обеликс отправляются вместе с ним в Британию. Гадорикса они тоже берут с собой, ведь путешествие — отличный способ пополнить образование молодого человека. Но, к сожалению, все идет не так, как задумывалось…

КиноПоиск
5.635 23765
IMDb
5.3
12986


Видео: 1880x800, 8712 Kbps
Аудио1: AC3, 6 ch, 640 Kbps -
Русский, Дублированный
Аудио2: AC3, 6 ch, 640 Kbps -
Французский, Оригинал
Субтитры: Русские

Как за пару секунд удалить ненужные аудиодорожки и субтитры (Внимание! После удаления вы не сможете поддержать раздачу)

Медиаинфо
Общее
Уникальный идентификатор : 111287783849041964472569609407543277503 (0x53B93F5E83DF78DD7E75B4BFE13677BF)
Полное имя : R:\Asterix\4. Asterix et Obelix Au service de Sa Majeste (2012) BDRip 1080p [HEVC].mkv
Формат : Matroska
Версия формата : Version 4 / Version 2
Размер файла : 7,69 Гбайт
Продолжительность : 1 ч. 50 м.
Общий поток : 9996 Кбит/сек
Название фильма : Asterix et Obelix: Au service de Sa Majeste (2012)
Дата кодирования : UTC 2019-09-25 03:59:27
Программа кодирования : mkvmerge v37.0.0 ('Leave It') 64-bit
Библиотека кодирования : libebml v1.3.9 + libmatroska v1.5.2
Обложка : Yes
Attachments : cover.jpg

Видео
Идентификатор : 1
Формат : HEVC
Формат/Информация : High Efficiency Video Coding
Профиль формата : Main 10@L4.1@High
Идентификатор кодека : V_MPEGH/ISO/HEVC
Продолжительность : 1 ч. 50 м.
Битрейт : 8712 Кбит/сек
Ширина : 1880 пикселей
Высота : 800 пикселей
Соотношение сторон : 2,35:1
Режим частоты кадров : Постоянный
Частота кадров : 23,976 (23976/1000) кадра/сек
Частота кадров в оригинале : 23,976 (24000/1001) кадра/сек
Цветовое пространство : YUV
Субдискретизация насыщенности : 4:2:0
Битовая глубина : 10 бит
Бит/(Пиксели*Кадры) : 0.242
Размер потока : 6,70 Гбайт (87%)
Библиотека кодирования : x265 3.1.2+1-76650bab70f9:[Windows][MSVC 1922][64 bit] 10bit
Настройки программы : cpuid=1111039 / frame-threads=3 / numa-pools=12 / wpp / no-pmode / no-pme / no-psnr / no-ssim / log-level=2 / input-csp=1 / input-res=1880x800 / interlace=0 / total-frames=152431 / level-idc=41 / high-tier=1 / uhd-bd=0 / ref=5 / no-allow-non-conformance / no-repeat-headers / annexb / no-aud / no-hrd / info / hash=0 / no-temporal-layers / open-gop / min-keyint=23 / keyint=240 / gop-lookahead=0 / bframes=10 / b-adapt=2 / b-pyramid / bframe-bias=0 / rc-lookahead=60 / lookahead-slices=4 / scenecut=40 / radl=0 / no-splice / no-intra-refresh / ctu=32 / min-cu-size=8 / rect / amp / max-tu-size=32 / tu-inter-depth=4 / tu-intra-depth=4 / limit-tu=1 / rdoq-level=2 / dynamic-rd=0.00 / no-ssim-rd / signhide / no-tskip / nr-intra=0 / nr-inter=0 / no-constrained-intra / no-strong-intra-smoothing / max-merge=4 / limit-refs=2 / limit-modes / me=3 / subme=7 / merange=57 / temporal-mvp / weightp / weightb / no-analyze-src-pics / deblock=-3:-3 / no-sao / no-sao-non-deblock / rd=6 / no-early-skip / no-rskip / no-fast-intra / no-tskip-fast / no-cu-lossless / no-b-intra / no-splitrd-skip / rdpenalty=0 / psy-rd=2.00 / psy-rdoq=1.00 / no-rd-refine / no-lossless / cbqpoffs=0 / crqpoffs=0 / rc=crf / crf=19.8 / qcomp=0.75 / qpstep=4 / stats-write=0 / stats-read=0 / vbv-maxrate=50000 / vbv-bufsize=50000 / vbv-init=0.9 / crf-max=0.0 / crf-min=0.0 / ipratio=1.40 / pbratio=1.30 / aq-mode=1 / aq-strength=1.00 / no-cutree / zone-count=0 / no-strict-cbr / qg-size=32 / no-rc-grain / qpmax=69 / qpmin=0 / no-const-vbv / sar=1 / overscan=0 / videoformat=5 / range=0 / colorprim=1 / transfer=1 / colormatrix=1 / chromaloc=0 / display-window=0cll=0,0 / min-luma=0 / max-luma=1023 / log2-max-poc-lsb=8 / vui-timing-info / vui-hrd-info / slices=1 / no-opt-qp-pps / no-opt-ref-list-length-pps / no-multi-pass-opt-rps / scenecut-bias=0.05 / no-opt-cu-delta-qp / no-aq-motion / no-hdr / no-hdr-opt / no-dhdr10-opt / no-idr-recovery-sei / analysis-reuse-level=5 / scale-factor=0 / refine-intra=0 / refine-inter=0 / refine-mv=0 / refine-ctu-distortion=0 / no-limit-sao / ctu-info=0 / no-lowpass-dct / refine-analysis-type=0 / copy-pic=1 / max-ausize-factor=1.0 / no-dynamic-refine / no-single-sei / no-hevc-aq / no-svt / no-field / qp-adaptation-range=1.00
Default : Да
Forced : Нет
Цветовой диапазон : Limited
Основные цвета : BT.709
Характеристики трансфера : BT.709
Коэффициенты матрицы : BT.709

Аудио #1
Идентификатор : 2
Формат : AC-3
Формат/Информация : Audio Coding 3
Идентификатор кодека : A_AC3
Продолжительность : 1 ч. 50 м.
Вид битрейта : Постоянный
Битрейт : 640 Кбит/сек
Каналы : 6 каналов
Расположение каналов : Front: L C R, Side: L R, LFE
Частота : 48,0 КГц
Частота кадров : 31,250 кадров/сек (1536 SPF)
Битовая глубина : 16 бит
Метод сжатия : С потерями
Размер потока : 504 Мбайт (6%)
Заголовок : AC3 / 5.1 ch / 640 kbps / Русский дубляж BD RUS
Язык : Russian
ServiceKind/String : Complete Main
Default : Да
Forced : Нет

Аудио #2
Идентификатор : 3
Формат : AC-3
Формат/Информация : Audio Coding 3
Идентификатор кодека : A_AC3
Продолжительность : 1 ч. 50 м.
Вид битрейта : Постоянный
Битрейт : 640 Кбит/сек
Каналы : 6 каналов
Расположение каналов : Front: L C R, Side: L R, LFE
Частота : 48,0 КГц
Частота кадров : 31,250 кадров/сек (1536 SPF)
Битовая глубина : 16 бит
Метод сжатия : С потерями
Размер потока : 504 Мбайт (6%)
Заголовок : AC3 / 5.1 ch / 640 kbps / Французский original BD RUS
Язык : French
ServiceKind/String : Complete Main
Default : Нет
Forced : Нет

Текст
Идентификатор : 4
Формат : UTF-8
Идентификатор кодека : S_TEXT/UTF8
Идентификатор кодека/Информация : UTF-8 Plain Text
Продолжительность : 1 ч. 42 м.
Битрейт : 113 бит/сек
ElementCount : 1192
Размер потока : 85,0 Кбайт (0%)
Заголовок : Полные (Full)
Язык : Russian
Default : Нет
Forced : Нет

Меню
00:00:00.000 : :Chapter 01
00:06:00.777 : :Chapter 02
00:15:09.199 : :Chapter 03
00:22:58.168 : :Chapter 04
00:29:16.588 : :Chapter 05
00:36:26.559 : :Chapter 06
00:42:32.299 : :Chapter 07
00:49:52.823 : :Chapter 08
00:54:20.924 : :Chapter 09
01:02:13.938 : :Chapter 10
01:09:40.634 : :Chapter 11
01:18:59.317 : :Chapter 12
01:24:40.784 : :Chapter 13
01:29:14.223 : :Chapter 14
01:37:28.843 : :Chapter 15
01:42:58.755 : :Chapter 16
Cкриншот1 Астерикс и Обеликс в Британии / Astérix & Obélix: Au service de sa Majesté (2012) BDRip 1080p [HEVC] 10 bit от Mr. Fox
Загружается...
Cкриншот2 Астерикс и Обеликс в Британии / Astérix & Obélix: Au service de sa Majesté (2012) BDRip 1080p [HEVC] 10 bit от Mr. Fox
Загружается...
Cкриншот3 Астерикс и Обеликс в Британии / Astérix & Obélix: Au service de sa Majesté (2012) BDRip 1080p [HEVC] 10 bit от Mr. Fox
Загружается...
Cкриншот4 Астерикс и Обеликс в Британии / Astérix & Obélix: Au service de sa Majesté (2012) BDRip 1080p [HEVC] 10 bit от Mr. Fox
Загружается...
Сэмпл

Торрент🧲 Магнет

Кнопки "Позвать в чате" и "Спасибо" доступны только зарегистрированным/авторизованным пользователям!

Файлы: 4
  • Asterix
    • 1. Astérix & Obélix contre César (1999) BDRip 1080p [HEVC].mkv   8.52 ГБ
    • 2. Astérix & Obélix Mission Cléopâtre (2002) BDRip 1080p [HEVC].mkv   7.86 ГБ
    • 3. Astérix aux Jeux Olympiques (2008) BDRip 1080p [HEVC].mkv   7.37 ГБ
    • 4. Asterix et Obelix Au service de Sa Majeste (2012) BDRip 1080p [HEVC].mkv   7.69 ГБ
Поблагодарили: 13
375509, cnn, curly2, denisptp4, F2002, fitaurari, joker63, netfigni, NoMaD, normallhuman, OldGamer, SaN161NeK, svibog123
Admin
09200 (4)  31.43 ГБ

Добавление нового комментария

Добавление комментариев доступно только зарегистрированным/авторизованным пользователям.