Регистрация / Смена пароля

💬 Мини-чат

moonson: Alex302, ну, сообственно туда всем нашим врагам и дорога. Жалко только враг Жан-Поля застрял на 16 % и ни туда, и ни сюда 😄
Alex302: moonson, труп вашего врага растащило вороньё)
  • Spartanec1308
  • COOLGRAND
  • garant3v
Отправка сообщений доступно только зарегистрированным/авторизованным пользователям.
Онлайн (за 10 мин.): 3

Посейдон / Poseidon (2006) BDRip 1080p [HEVC] 10 bit от Cthulhu

HEVC
10 bit
Обложка Посейдон / Poseidon (2006) BDRip 1080p [HEVC] 10 bit от Cthulhu Год: 2006
Страна: США
Студия: Warner Brothers, Irwin Allen Productions, Radiant Productions
Жанр: Боевик, Триллер, Драма, Приключения
Продолжительность: 01:38:14

Режиссер: Вольфганг Петерсен
В ролях: Джош Лукас, Курт Рассел, Джасинда Бэррет, Ричард Дрейфусс, Эмми Россам, Миа Маэстро, Майк Фогель, Кевин Диллон, Фредди Родригес, Джимми Беннетт

Описание: Под ударом спонтанно возникшей в Атлантическом океане волны-убийцы роскошный круизный лайнер за несколько секунд переворачивается и начинает идти ко дну. Несколько чудом уцелевших пассажиров вынуждены объединить усилия ради спасения своих жизней. Корабль быстро заполняется водой, и они должны преодолеть разногласия и принимать спасительные решения на своём отчаянном пути к поверхности...

КиноПоиск
6.544 35075
IMDb
5.7
95748


Видео: 1920x794, 7320 Kbps
Аудио1: AC3, 6 ch, 448 Kbps -
Русский, Дублированный
Аудио2: AC3, 6 ch, 448 Kbps -
Русский, Многоголосый
Аудио3: AC3, 2 ch, 192 Kbps -
Русский, Многоголосый (НТВ)
Аудио4: AC3, 6 ch, 448 Kbps -
Русский, Двухголосый (Гланц и Королева)
Аудио5: AC3, 6 ch, 448 Kbps -
Русский, Двухголосый
Аудио6: AC3, 6 ch, 640 Kbps -
Русский, Одноголосый (Немахов)
Аудио7: AC3, 6 ch, 640 Kbps -
Английский, Оригинал
Субтитры: Русские, английские

Как за пару секунд удалить ненужные аудиодорожки и субтитры (Внимание! После удаления вы не сможете поддержать раздачу)

Медиаинфо
x265 [info]: frame I: 1306, Avg QP:18.20 kb/s: 15639.08
x265 [info]: frame P: 30275, Avg QP:19.51 kb/s: 12079.34
x265 [info]: frame B: 109753, Avg QP:21.58 kb/s: 5907.03
x265 [info]: consecutive B-frames: 9.1% 4.7% 7.1% 33.6% 14.3% 23.1% 4.6% 2.5% 0.4% 0.3% 0.1% 0.0% 0.0% 0.0% 0.0% 0.0% 0.1%

General
Unique ID : 89065848624328581214015692524749376367 (0x4301755F85635A62FBAD837E9A08CB6F)
Complete name : H:\HEVC4\Посейдон - Poseidon (2006) BDRip-HEVC 1080p - KORSAR.mkv
Format : Matroska
Format version : Version 4 / Version 2
File size : 7.27 GiB
Duration : 1 h 38 min
Overall bit rate : 10.6 Mb/s
Movie name : Poseidon (2006)_rip_by_Cthulhu
Encoded date : UTC 2019-09-25 17:02:51
Writing application : mkvmerge v37.0.0 ('Leave It') 64-bit
Writing library : libebml v1.3.9 + libmatroska v1.5.2
Cover : Yes
Attachments : cover6.jpg

Video
ID : 1
Format : HEVC
Format/Info : High Efficiency Video Coding
Format profile : Main 10@L4.1@High
Codec ID : V_MPEGH/ISO/HEVC
Duration : 1 h 38 min
Bit rate : 7 320 kb/s
Width : 1 920 pixels
Height : 794 pixels
Display aspect ratio : 2.40:1
Frame rate mode : Constant
Frame rate : 23.976 (24000/1001) FPS
Color space : YUV
Chroma subsampling : 4:2:0
Bit depth : 10 bits
Bits/(Pixel*Frame) : 0.200
Stream size : 5.02 GiB (69%)
Writing library : x265 3.1.2+1-76650bab70f9:[Windows][MSVC 1922][64 bit] 10bit
Encoding settings : cpuid=1111039 / frame-threads=4 / numa-pools=16 / wpp / no-pmode / no-pme / no-psnr / no-ssim / log-level=2 / input-csp=1 / input-res=1920x794 / interlace=0 / total-frames=141334 / level-idc=41 / high-tier=1 / uhd-bd=0 / ref=5 / no-allow-non-conformance / no-repeat-headers / annexb / no-aud / no-hrd / info / hash=0 / no-temporal-layers / open-gop / min-keyint=23 / keyint=240 / gop-lookahead=0 / bframes=16 / b-adapt=2 / b-pyramid / bframe-bias=0 / rc-lookahead=60 / lookahead-slices=1 / scenecut=40 / radl=0 / no-splice / no-intra-refresh / ctu=32 / min-cu-size=8 / rect / amp / max-tu-size=32 / tu-inter-depth=4 / tu-intra-depth=4 / limit-tu=1 / rdoq-level=2 / dynamic-rd=0.00 / no-ssim-rd / signhide / no-tskip / nr-intra=0 / nr-inter=0 / no-constrained-intra / no-strong-intra-smoothing / max-merge=5 / limit-refs=3 / limit-modes / me=3 / subme=7 / merange=57 / temporal-mvp / weightp / weightb / no-analyze-src-pics / deblock=-1:-1 / no-sao / no-sao-non-deblock / rd=6 / no-early-skip / rskip / no-fast-intra / no-tskip-fast / no-cu-lossless / no-b-intra / no-splitrd-skip / rdpenalty=0 / psy-rd=2.00 / psy-rdoq=1.00 / no-rd-refine / no-lossless / cbqpoffs=0 / crqpoffs=0 / rc=crf / crf=19.5 / qcomp=0.70 / qpstep=4 / stats-write=0 / stats-read=0 / vbv-maxrate=50000 / vbv-bufsize=50000 / vbv-init=0.9 / crf-max=0.0 / crf-min=0.0 / ipratio=1.40 / pbratio=1.30 / aq-mode=1 / aq-strength=1.00 / no-cutree / zone-count=0 / no-strict-cbr / qg-size=32 / no-rc-grain / qpmax=69 / qpmin=0 / no-const-vbv / sar=1 / overscan=0 / videoformat=5 / range=0 / colorprim=1 / transfer=1 / colormatrix=1 / chromaloc=0 / display-window=0cll=0,0 / min-luma=0 / max-luma=1023 / log2-max-poc-lsb=8 / vui-timing-info / vui-hrd-info / slices=1 / no-opt-qp-pps / no-opt-ref-list-length-pps / no-multi-pass-opt-rps / scenecut-bias=0.05 / no-opt-cu-delta-qp / no-aq-motion / no-hdr / no-hdr-opt / no-dhdr10-opt / no-idr-recovery-sei / analysis-reuse-level=5 / scale-factor=0 / refine-intra=0 / refine-inter=0 / refine-mv=0 / refine-ctu-distortion=0 / no-limit-sao / ctu-info=0 / no-lowpass-dct / refine-analysis-type=0 / copy-pic=1 / max-ausize-factor=1.0 / no-dynamic-refine / no-single-sei / hevc-aq / no-svt / no-field / qp-adaptation-range=2.00
Language : English
Default : Yes
Forced : No
Color range : Limited
Color primaries : BT.709
Transfer characteristics : BT.709
Matrix coefficients : BT.709

Audio #1
ID : 2
Format : AC-3
Format/Info : Audio Coding 3
Commercial name : Dolby Digital
Codec ID : A_AC3
Duration : 1 h 38 min
Bit rate mode : Constant
Bit rate : 448 kb/s
Channel(s) : 6 channels
Channel layout : L R C LFE Ls Rs
Sampling rate : 48.0 kHz
Frame rate : 31.250 FPS (1536 SPF)
Bit depth : 16 bits
Compression mode : Lossy
Stream size : 315 MiB (4%)
Title : DUB
Language : Russian
Service kind : Complete Main
Default : Yes
Forced : No

Audio #2
ID : 3
Format : AC-3
Format/Info : Audio Coding 3
Commercial name : Dolby Digital
Codec ID : A_AC3
Duration : 1 h 38 min
Bit rate mode : Constant
Bit rate : 448 kb/s
Channel(s) : 6 channels
Channel layout : L R C LFE Ls Rs
Sampling rate : 48.0 kHz
Frame rate : 31.250 FPS (1536 SPF)
Bit depth : 16 bits
Compression mode : Lossy
Stream size : 315 MiB (4%)
Title : MVO
Language : Russian
Service kind : Complete Main
Default : No
Forced : No

Audio #3
ID : 4
Format : AC-3
Format/Info : Audio Coding 3
Commercial name : Dolby Digital
Codec ID : A_AC3
Duration : 1 h 38 min
Bit rate mode : Constant
Bit rate : 192 kb/s
Channel(s) : 2 channels
Channel layout : L R
Sampling rate : 48.0 kHz
Frame rate : 31.250 FPS (1536 SPF)
Bit depth : 16 bits
Compression mode : Lossy
Stream size : 135 MiB (2%)
Title : MVO НТВ
Language : Russian
Service kind : Complete Main
Default : No
Forced : No

Audio #4
ID : 5
Format : AC-3
Format/Info : Audio Coding 3
Commercial name : Dolby Digital
Codec ID : A_AC3
Duration : 1 h 38 min
Bit rate mode : Constant
Bit rate : 448 kb/s
Channel(s) : 6 channels
Channel layout : L R C LFE Ls Rs
Sampling rate : 48.0 kHz
Frame rate : 31.250 FPS (1536 SPF)
Bit depth : 16 bits
Compression mode : Lossy
Stream size : 315 MiB (4%)
Title : DVO Гланц и Королева
Language : Russian
Service kind : Complete Main
Default : No
Forced : No

Audio #5
ID : 6
Format : AC-3
Format/Info : Audio Coding 3
Commercial name : Dolby Digital
Codec ID : A_AC3
Duration : 1 h 38 min
Bit rate mode : Constant
Bit rate : 448 kb/s
Channel(s) : 6 channels
Channel layout : L R C LFE Ls Rs
Sampling rate : 48.0 kHz
Frame rate : 31.250 FPS (1536 SPF)
Bit depth : 16 bits
Compression mode : Lossy
Stream size : 315 MiB (4%)
Title : DVO
Language : Russian
Service kind : Complete Main
Default : No
Forced : No

Audio #6
ID : 7
Format : AC-3
Format/Info : Audio Coding 3
Commercial name : Dolby Digital
Codec ID : A_AC3
Duration : 1 h 38 min
Bit rate mode : Constant
Bit rate : 640 kb/s
Channel(s) : 6 channels
Channel layout : L R C LFE Ls Rs
Sampling rate : 48.0 kHz
Frame rate : 31.250 FPS (1536 SPF)
Bit depth : 16 bits
Compression mode : Lossy
Stream size : 450 MiB (6%)
Title : AVO Немахов
Language : Russian
Service kind : Complete Main
Default : No
Forced : No

Audio #7
ID : 8
Format : AC-3
Format/Info : Audio Coding 3
Commercial name : Dolby Digital
Codec ID : A_AC3
Duration : 1 h 38 min
Bit rate mode : Constant
Bit rate : 640 kb/s
Channel(s) : 6 channels
Channel layout : L R C LFE Ls Rs
Sampling rate : 48.0 kHz
Frame rate : 31.250 FPS (1536 SPF)
Bit depth : 16 bits
Compression mode : Lossy
Stream size : 450 MiB (6%)
Title : Original
Language : English
Service kind : Complete Main
Default : No
Forced : No

Text #1
ID : 9
Format : UTF-8
Codec ID : S_TEXT/UTF8
Codec ID/Info : UTF-8 Plain Text
Duration : 1 h 37 min
Bit rate : 61 b/s
Count of elements : 839
Stream size : 43.7 KiB (0%)
Title : Rus
Language : Russian
Default : No
Forced : No

Text #2
ID : 10
Format : UTF-8
Codec ID : S_TEXT/UTF8
Codec ID/Info : UTF-8 Plain Text
Duration : 1 h 24 min
Bit rate : 41 b/s
Count of elements : 831
Stream size : 26.0 KiB (0%)
Title : Eng
Language : English
Default : No
Forced : No

Menu
00:00:00.000 : en:
00:03:35.340 : en:
00:07:20.857 : en:
00:12:16.777 : en:
00:15:22.463 : en:
00:19:56.570 : en:
00:24:27.466 : en:
00:28:09.771 : en:
00:34:07.420 : en:
00:38:14.000 : en:
00:43:04.748 : en:
00:46:24.490 : en:
00:48:18.812 : en:
00:55:12.309 : en:
00:59:44.831 : en:
01:04:44.046 : en:
01:08:43.869 : en:
01:12:24.673 : en:
01:15:43.247 : en:
01:20:08.220 : en:
01:23:56.906 : en:
01:29:09.343 : en:
01:38:14.555 : en:
Cкриншот1 Посейдон / Poseidon (2006) BDRip 1080p [HEVC] 10 bit от Cthulhu
Загружается...
Cкриншот2 Посейдон / Poseidon (2006) BDRip 1080p [HEVC] 10 bit от Cthulhu
Загружается...
Cкриншот3 Посейдон / Poseidon (2006) BDRip 1080p [HEVC] 10 bit от Cthulhu
Загружается...
Cкриншот4 Посейдон / Poseidon (2006) BDRip 1080p [HEVC] 10 bit от Cthulhu
Загружается...
Сэмпл Торрент🧲 Магнет

Кнопки "Позвать в чате" и "Спасибо" доступны только зарегистрированным/авторизованным пользователям!

Файлы: 1
  • Посейдон - Poseidon (2006) BDRip-HEVC 1080p - KORSAR.mkv   7.27 ГБ
Поблагодарили: 10
375509, 7654321, bitum, inoy, Makiavelli, MIGRANT, NoMaD, SergF, stas67, SYNC80001
Cthulhu
0251007.27 ГБ

Добавление нового комментария

Добавление комментариев доступно только зарегистрированным/авторизованным пользователям.