Обложка Дэдпул 2 / Deadpool 2 (2018) [Театральная версия] BDRip 1080p [HEVC] 10 bit от M@kSIMusОбложка Идеальная западня / Welcome Home (2018) BDRip 1080p [HEVC] 10 bit от D҉O҉N҉A҉T҉҉1K҉Обложка Скиф (2018) BDRip 1080p [HEVC] 10 bit от МичманОбложка Люди в черном: Интернэшнл / Men in Black International (2019) BDRip 1080p [HEVC] 10 bit от Mr. FoxОбложка Великий уравнитель 2 / The Equalizer 2 (2018) BDRip 1080p [HEVC] 10 bit от HANNIBALОбложка Коллекторы / The Debt Collector (2018) BDRip 1080p [HEVC] 10 bit от M@kSIMusОбложка Клаустрофобы / Escape Room (2019) BDRip 1080p [HEVC] 10 bit от M@kSIMusОбложка Вдовы / Widows (2018) BDRip 1080p [HEVC] 10 bit от HANNIBALОбложка Снегоуборщик / Cold Pursuit (2019) BDRip 1080p [HEVC] 10 bit от HANNIBALОбложка Не оставляй следов / Leave No Trace (2018) BDRip 1080p [HEVC] 10 bit от Cthulhu

Авторизация

Смена пароля

captcha

Регистрация

captcha

🔍 Поиск

Мини-чат

(19:28)dixen18: Доброго вечера всем) Скажите а по странам тут нельзя сортировку делать да?
(19:36)OldGamer: dixen18, нет
(20:03)dixen18: OldGamer, ну ничего страшного)
(22:08)PRO-USTAS: привет админ такая идея а можно сделать сортировку по пользевателям типа фильмы только от Mr. Fox и тогдалия
(23:41)Kaban: PRO-USTAS, можно ввести в поиске вместо фильма логин аплоадера и в результате вам выдаст все его раздачи
(10:13)Temir_Nator: Всем привет)) А бывают раздачи в OPEN MATE формате?))) Если есть возможность, делайте и OPEN MATE)))
(10:29)OldGamer: Бывают
(11:22)Kaban: OldGamer, но редко)
(12:32)Temir_Nator: Жаль :(
(14:18)Ярослав: День добрый всем. Александра (Финальная версия) поможет кто раздать?
(14:18)Ярослав: https://hevc-club.video/video-1388/
(14:24)OldGamer: Может Джокер попозже заглянет, его релиз
(20:05)GrandConvoy: Раздайте, пожалуйста, Хищник 2 / Predator 2 (1990) BDRip 1080p [HEVC] 10 bit от HANNIBAL
(23:24)joker63: Ярослав, Перекачай торрент файл по новому,я обновил раздачу постою на ней немного.Ночью не стою.
(19:06)Ярослав: GrandConvoy, Встал на раздачу.
(19:50)GrandConvoy: Раздайте, пожалуйста, Хищник 2 / Predator 2 (1990) BDRip 1080p [HEVC] 10 bit от HANNIBAL
(19:51)GrandConvoy: ЯрославЯрослав, Что то не скачивается(
(19:51)GrandConvoy: Привет
(19:51)GrandConvoy: У меня на NAS торент стоит уже второй день( Загрузки нет(
  • OldGamer
  • DjBadan
  • ivs5
  • Kaban
  • Арман
Онлайн: 5
Отправка сообщений доступно только зарегистрированным/авторизованным пользователям.

Аладдин / Aladdin (2019) BDRip 1080p [HEVC] 10 bit от Mr. Fox

HEVC
10 bit
Обложка Аладдин / Aladdin (2019) BDRip 1080p [HEVC] 10 bit от Mr. Fox Год: 2019
Страна: США
Студия: Walt Disney Pictures, Lin Pictures, Rideback
Жанр: Мюзикл, Фэнтези, Мелодрама, Приключения
Продолжительность: 02:07:59

Режиссер: Гай Ричи
В ролях: Мена Массуд, Наоми Скотт, Уилл Смит, Марван Кензари, Навид Негабан, Назим Педрад, Билли Магнуссен, Джордан А. Нэш, Талия Блэр, Обри Лин

Описание: Молодой воришка по имени Аладдин хочет стать принцем, чтобы жениться на принцессе Жасмин. Тем временем визирь Аграбы Джафар намеревается захватить власть над Аграбой, а для этого он стремится заполучить волшебную лампу, хранящуюся в пещере чудес, доступ к которой разрешен лишь тому, кого называют «алмаз неограненный», и этим человеком является не кто иной, как сам Аладдин.


7.29664230
7.1
157246


Формат: MKV
Видео: 1920x804, 6471 Kbps
Аудио1: AC3, 6 ch, 384 Kbps -
Русский, Дублированный (iTunes)

Аудио2: AC3, 2 ch, 192 Kbps -
Украинский, Дублированный

Аудио3: AC3, 6 ch, 640 Kbps -
Английский, Оригинал

Субтитры: Русские (форсированные, полные), английские (полные, SDH)

Как за пару секунд удалить ненужные аудиодорожки и субтитры (Внимание! После удаления вы не сможете поддержать раздачу)

Медиаинфо
x265 [info]: frame I: Avg QP:17.26
x265 [info]: frame P: Avg QP:18.55
x265 [info]: frame B: Avg QP:20.38
x265 [info]: consecutive B-frames: 9.6% 4.1% 6.7% 33.3% 10.9% 19.3% 5.0% 6.2% 2.1% 1.5% 0.7% 0.5%

Avg QP:19.97

Общее
Уникальный идентификатор : 57445409370160759361829687231027439664 (0x2B37955A2F41033C97B2AFE050756830)
Полное имя : H:InstallUploadAladdin (2019) BDRip 1080p [HEVC].mkv
Формат : Matroska
Версия формата : Version 4
Размер файла : 6,87 Гбайт
Продолжительность : 2 ч. 7 м.
Общий поток : 7690 Кбит/сек
Название фильма : Aladdin (2019)
Дата кодирования : UTC 2019-09-01 04:37:28
Программа кодирования : mkvmerge v36.0.0 ('Is That Jazz?') 64-bit
Библиотека кодирования : libebml v1.3.9 + libmatroska v1.5.2
Обложка : Yes
Attachments : cover.jpg

Видео
Идентификатор : 1
Формат : HEVC
Формат/Информация : High Efficiency Video Coding
Профиль формата : Main 10@L4.1@High
Идентификатор кодека : V_MPEGH/ISO/HEVC
Продолжительность : 2 ч. 7 м.
Битрейт : 6471 Кбит/сек
Ширина : 1920 пикселей
Высота : 804 пикселя
Соотношение сторон : 2,40:1
Режим частоты кадров : Постоянный
Частота кадров : 23,976 (23976/1000) кадра/сек
Частота кадров в оригинале : 23,976 (24000/1001) кадра/сек
Цветовое пространство : YUV
Субдискретизация насыщенности : 4:2:0
Битовая глубина : 10 бит
Бит/(Пиксели*Кадры) : 0.175
Размер потока : 5,78 Гбайт (84%)
Библиотека кодирования : x265 3.0_Au+4-dcbec33bfb0f:[Windows][MSVC 1916][64 bit] 10bit
Настройки программы : cpuid=1111039 / frame-threads=3 / numa-pools=12 / wpp / no-pmode / no-pme / no-psnr / no-ssim / log-level=2 / input-csp=1 / input-res=1920x804 / interlace=0 / total-frames=174429 / level-idc=41 / high-tier=1 / uhd-bd=0 / ref=5 / no-allow-non-conformance / no-repeat-headers / annexb / no-aud / no-hrd / info / hash=0 / no-temporal-layers / open-gop / min-keyint=23 / keyint=240 / gop-lookahead=0 / bframes=11 / b-adapt=2 / b-pyramid / bframe-bias=0 / rc-lookahead=60 / lookahead-slices=4 / scenecut=40 / radl=0 / no-splice / no-intra-refresh / ctu=32 / min-cu-size=8 / rect / amp / max-tu-size=32 / tu-inter-depth=4 / tu-intra-depth=4 / limit-tu=1 / rdoq-level=2 / dynamic-rd=0.00 / no-ssim-rd / signhide / no-tskip / nr-intra=0 / nr-inter=0 / no-constrained-intra / no-strong-intra-smoothing / max-merge=4 / limit-refs=2 / limit-modes / me=3 / subme=7 / merange=57 / temporal-mvp / weightp / weightb / no-analyze-src-pics / deblock=-3:-3 / no-sao / no-sao-non-deblock / rd=6 / no-early-skip / no-rskip / no-fast-intra / no-tskip-fast / no-cu-lossless / no-b-intra / no-splitrd-skip / rdpenalty=0 / psy-rd=2.00 / psy-rdoq=1.00 / no-rd-refine / no-lossless / cbqpoffs=0 / crqpoffs=0 / rc=crf / crf=20.0 / qcomp=0.70 / qpstep=4 / stats-write=0 / stats-read=0 / vbv-maxrate=50000 / vbv-bufsize=50000 / vbv-init=0.9 / crf-max=0.0 / crf-min=0.0 / ipratio=1.40 / pbratio=1.30 / aq-mode=1 / aq-strength=1.00 / no-cutree / zone-count=0 / no-strict-cbr / qg-size=32 / no-rc-grain / qpmax=69 / qpmin=0 / no-const-vbv / sar=1 / overscan=0 / videoformat=5 / range=0 / colorprim=2 / transfer=2 / colormatrix=2 / chromaloc=0 / display-window=0 / max-cll=0,0 / min-luma=0 / max-luma=1023 / log2-max-poc-lsb=8 / vui-timing-info / vui-hrd-info / slices=1 / no-opt-qp-pps / no-opt-ref-list-length-pps / no-multi-pass-opt-rps / scenecut-bias=0.05 / no-opt-cu-delta-qp / no-aq-motion / no-hdr / no-hdr-opt / no-dhdr10-opt / no-idr-recovery-sei / analysis-reuse-level=5 / scale-factor=0 / refine-intra=0 / refine-inter=0 / refine-mv=0 / refine-ctu-distortion=0 / no-limit-sao / ctu-info=0 / no-lowpass-dct / refine-analysis-type=0 / copy-pic=1 / max-ausize-factor=1.0 / no-dynamic-refine / no-single-sei / no-hevc-aq / qp-adaptation-range=1.00
Default : Да
Forced : Нет

Аудио #1
Идентификатор : 2
Формат : AC-3
Формат/Информация : Audio Coding 3
Коммерческое название : Dolby Digital
Идентификатор кодека : A_AC3
Продолжительность : 2 ч. 7 м.
Вид битрейта : Постоянный
Битрейт : 384 Кбит/сек
Каналы : 6 каналов
Channel layout : L R C LFE Ls Rs
Частота : 48,0 КГц
Частота кадров : 31,250 кадров/сек (1536 SPF)
Битовая глубина : 16 бит
Метод сжатия : С потерями
Размер потока : 352 Мбайт (5%)
Заголовок : Dubbing (iTunes)
Язык : Russian
ServiceKind : Complete Main
Default : Да
Forced : Да

Аудио #2
Идентификатор : 3
Формат : AC-3
Формат/Информация : Audio Coding 3
Коммерческое название : Dolby Digital
Идентификатор кодека : A_AC3
Продолжительность : 2 ч. 7 м.
Вид битрейта : Постоянный
Битрейт : 192 Кбит/сек
Каналы : 2 канала
Channel layout : L R
Частота : 48,0 КГц
Частота кадров : 31,250 кадров/сек (1536 SPF)
Битовая глубина : 16 бит
Метод сжатия : С потерями
Задержка видео : 1 с. 0 мс.
Размер потока : 176 Мбайт (2%)
Язык : Ukrainian
ServiceKind : Complete Main
Default : Нет
Forced : Нет

Аудио #3
Идентификатор : 4
Формат : AC-3
Формат/Информация : Audio Coding 3
Коммерческое название : Dolby Digital
Идентификатор кодека : A_AC3
Продолжительность : 2 ч. 7 м.
Вид битрейта : Постоянный
Битрейт : 640 Кбит/сек
Каналы : 6 каналов
Channel layout : L R C LFE Ls Rs
Частота : 48,0 КГц
Частота кадров : 31,250 кадров/сек (1536 SPF)
Битовая глубина : 16 бит
Метод сжатия : С потерями
Размер потока : 586 Мбайт (8%)
Заголовок : Original
Язык : English
ServiceKind : Complete Main
Default : Нет
Forced : Нет

Текст #1
Идентификатор : 5
Формат : UTF-8
Идентификатор кодека : S_TEXT/UTF8
Идентификатор кодека/Информация : UTF-8 Plain Text
Продолжительность : 1 ч. 59 м.
Битрейт : 14 бит/сек
ElementCount : 291
Размер потока : 12,4 Кбайт (0%)
Заголовок : Forced (HDrezka Studio)
Язык : Russian
Default : Нет
Forced : Нет

Текст #2
Идентификатор : 6
Формат : UTF-8
Идентификатор кодека : S_TEXT/UTF8
Идентификатор кодека/Информация : UTF-8 Plain Text
Продолжительность : 2 ч. 0 м.
Битрейт : 87 бит/сек
ElementCount : 1787
Размер потока : 76,7 Кбайт (0%)
Язык : Russian
Default : Нет
Forced : Нет

Текст #3
Идентификатор : 7
Формат : UTF-8
Идентификатор кодека : S_TEXT/UTF8
Идентификатор кодека/Информация : UTF-8 Plain Text
Продолжительность : 1 ч. 58 м.
Битрейт : 50 бит/сек
ElementCount : 1682
Размер потока : 43,4 Кбайт (0%)
Язык : English
Default : Нет
Forced : Нет

Текст #4
Идентификатор : 8
Формат : UTF-8
Идентификатор кодека : S_TEXT/UTF8
Идентификатор кодека/Информация : UTF-8 Plain Text
Продолжительность : 2 ч. 7 м.
Битрейт : 74 бит/сек
ElementCount : 2433
Размер потока : 69,5 Кбайт (0%)
Заголовок : SDH
Язык : English
Default : Нет
Forced : Нет

Меню
00:00:00.000 : en:Chapter 01
00:04:49.372 : en:Chapter 02
00:13:04.659 : en:Chapter 03
00:18:55.760 : en:Chapter 04
00:26:18.410 : en:Chapter 05
00:30:26.324 : en:Chapter 06
00:39:51.889 : en:Chapter 07
00:54:50.162 : en:Chapter 08
01:02:18.652 : en:Chapter 09
01:09:19.489 : en:Chapter 11
01:21:53.033 : en:Chapter 12
01:33:51.417 : en:Chapter 13
01:38:48.381 : en:Chapter 14
01:45:19.396 : en:Chapter 15
01:53:07.030 : en:Chapter 16
01:59:38.463 : en:Chapter 17
Cкриншот1 Аладдин / Aladdin (2019) BDRip 1080p [HEVC] 10 bit от Mr. Fox
Загружается...
Cкриншот2 Аладдин / Aladdin (2019) BDRip 1080p [HEVC] 10 bit от Mr. Fox
Загружается...
Cкриншот3 Аладдин / Aladdin (2019) BDRip 1080p [HEVC] 10 bit от Mr. Fox
Загружается...
Cкриншот4 Аладдин / Aladdin (2019) BDRip 1080p [HEVC] 10 bit от Mr. Fox
Загружается...

ТоррентМагнет

Кнопки "Позвать в чате", "Спасибо" и "Пожертвование" доступны только зарегистрированным/авторизованным пользователям!

Поблагодарили: 6
375509, CityHunter, iha777, Kaban, podvoh7, sergeich
19.09.2019  21:23:38
0
143
1
0
6.87 ГБ

Добавление нового комментария

Добавление комментариев доступно только зарегистрированным/авторизованным пользователям.