Регистрация / Смена пароля

💬 Мини-чат

moonson: Alex302, ну, сообственно туда всем нашим врагам и дорога. Жалко только враг Жан-Поля застрял на 16 % и ни туда, и ни сюда 😄
Alex302: moonson, труп вашего врага растащило вороньё)
  • kuzmichc
Отправка сообщений доступно только зарегистрированным/авторизованным пользователям.
Онлайн (за 10 мин.): 1

Покемон. Детектив Пикачу / Pokémon Detective Pikachu (2019) BDRip 1080p [HEVC] 10 bit от HANNIBAL

HEVC
10 bit
Обложка Покемон. Детектив Пикачу / Pokémon Detective Pikachu (2019) BDRip 1080p [HEVC] 10 bit от HANNIBAL Год: 2019
Страна: США, Япония
Студия: Legendary Pictures, The Pokemon Company, Toho Company
Жанр: Фантастика, Фэнтези, Детектив, Приключения
Продолжительность: 01:44:29

Режиссер: Роб Леттерман
В ролях: Райан Рейнольдс, Джастис Смит, Кэтрин Ньютон, Билл Найи, Кэн Ватанабэ, Крис Гир, Сьюки Уотерхаус, Джозетт Саймон, Алехандро Де Меса, Рита Ора

Описание: История начинается с таинственного исчезновения частного детектива экстра- класса Гарри Гудмана, расследовать которое предстоит его 21-летнему сыну Тиму. Помощь в расследовании ему окажет бывший партнер отца, детектив Пикачу - уморительный, остроумный и обаятельный сыщик, который является загадкой даже для себя самого. Обнаружив, что они каким-то фантастическим образом способны общаться друг с другом, Тим и Пикачу объединяют усилия в захватывающем расследовании этой запутанной истории. В погоне за уликами по неоновым улицам Райм Сити - современного разросшегося мегаполиса, где люди и покемоны живут бок о бок в гиперреалистичном мире игрового экшна, - они встречают самых разнообразных покемонов и раскрывают ужасный заговор, который способен разрушить это мирное сосуществование и стать угрозой для всей вселенной покемонов.

КиноПоиск
6.528 89751
IMDb
6.6
125760


Видео: 1920x804, ~12.6 Mb/s
Аудио1: AC3, 6 ch, 448 Kbps -
Русский, Дублированный (Лицензия)
Аудио2: AC3, 6 ch, 448 Kbps -
Английский, Оригинал
Субтитры: Русские

Как за пару секунд удалить ненужные аудиодорожки и субтитры (Внимание! После удаления вы не сможете поддержать раздачу)

Медиаинфо
General
Unique ID : 89281559815776408848120352640365087381 (0x432B00C18877B5E741F5E9CE62FDCA95)
Complete name : E:[HEVC]Pokémon Detective Pikachu (2019) BDRip-HEVC 1080p 10bit.mkv
Format : Matroska
Format version : Version 4
File size : 9.85 GiB
Duration : 1 h 44 min
Overall bit rate : 13.5 Mb/s
Movie name : Покемон Детектив Пикачу
Deion : Великий детектив Гарри Гудман пропал при невыясненных обстоятельствах, и его сын Тим (Джастис Смит) отправился в путешествие, чтобы узнать, что же произошло с его отцом. В расследовании Тиму поможет бывший партнёр-покемон Гарри, детектив Пикачу (Райан Рейнольдс), безумно остроумный и милый суперсыщик. Оказывается, что они с Тимом прекрасно подходят друг другу, ведь мальчик — единственный человек, который может говорить с Пикачу. Вместе они отправляются в захватывающее приключение, чтобы раскрыть запутанную тайну исчезновения отца Тима. Собирая улики по залитым неоном улицам Райм-сити — огромного современного мегаполиса, где люди и покемоны живут рука об руку в гиперреалистичном мире на стыке компьютерной графики и реальности, — герои встречают огромное количество различных покемонов и раскрывают шокирующий заговор, который может уничтожить сложившийся в городе мирный союз и всю вселенную покемонов!
Encoded date : UTC 2019-08-17 10:57:32
Writing application : mkvmerge v35.0.0 ('All The Love In The World') 64-bit
Writing library : libebml v1.3.9 + libmatroska v1.5.2 / Lavf57.71.100
Attachments : poster.jpg
DATE : 2019-05-16
ENCODING_INFO : MPEGTS > MKV / H264 > X265 CRF 20.0 Medium
GENRE : Боевики и приключения
HD_VIDEO : 1
ITUNEXTC : ru-movie|12+|200|
Language : und
MEDIA_TYPE : 9
ORIGINAL_TITLE : Pokémon Detective Pikachu
SYNOPSIS : Великий детектив Гарри Гудман пропал при невыясненных обстоятельствах, и его сын Тим (Джастис Смит) отправился в путешествие, чтобы узнать, что же произошло с его отцом. В расследовании Тиму поможет бывший партнёр-покемон Гарри, детектив Пикачу (Райан Рейнольдс), безумно остроумный и милый суперсыщик. Оказывается, что они с Тимом прекрасно подходят друг другу, ведь мальчик — единственный человек, который может говорить с Пикачу. Вместе они отправляются в захватывающее приключение, чтобы раскрыть запутанную тайну исчезновения отца Тима. Собирая улики по залитым неоном улицам Райм-сити — огромного современного мегаполиса, где люди и покемоны живут рука об руку в гиперреалистичном мире на стыке компьютерной графики и реальности, — герои встречают огромное количество различных покемонов и раскрывают шокирующий заговор, который может уничтожить сложившийся в городе мирный союз и всю вселенную покемонов!

Video
ID : 1
Format : HEVC
Format/Info : High Efficiency Video Coding
Format profile : Main 10@L4.1@High
Codec ID : V_MPEGH/ISO/HEVC
Duration : 1 h 44 min
Bit rate : 12.6 Mb/s
Width : 1 920 pixels
Height : 804 pixels
Display aspect ratio : 2.40:1
Frame rate mode : Constant
Frame rate : 23.976 (24000/1001) FPS
Color space : YUV
Chroma subsampling : 4:2:0
Bit depth : 10 bits
Bits/(Pixel*Frame) : 0.340
Stream size : 9.19 GiB (93%)
Writing library : x265 3.1+7-147fb92c5ed5:[Windows][clang 8.0.0][64 bit] 10bit
Encoding settings : cpuid=1111039 / frame-threads=13 / wpp / no-pmode / no-pme / no-psnr / no-ssim / log-level=3 / input-csp=1 / input-res=1920x804 / interlace=0 / total-frames=0 / level-idc=41 / high-tier=1 / uhd-bd=0 / ref=5 / allow-non-conformance / no-repeat-headers / annexb / no-aud / no-hrd / info / hash=0 / no-temporal-layers / open-gop / min-keyint=23 / keyint=240 / gop-lookahead=0 / bframes=8 / b-adapt=2 / b-pyramid / bframe-bias=0 / rc-lookahead=60 / lookahead-slices=4 / scenecut=40 / radl=0 / no-splice / no-intra-refresh / ctu=64 / min-cu-size=8 / rect / amp / max-tu-size=32 / tu-inter-depth=4 / tu-intra-depth=4 / limit-tu=0 / rdoq-level=2 / dynamic-rd=0.00 / no-ssim-rd / signhide / no-tskip / nr-intra=0 / nr-inter=0 / no-constrained-intra / no-strong-intra-smoothing / max-merge=5 / limit-refs=2 / limit-modes / me=3 / subme=7 / merange=57 / temporal-mvp / no-hme / weightp / weightb / no-analyze-src-pics / deblock=-3:-3 / no-sao / no-sao-non-deblock / rd=6 / early-skip / no-rskip / no-fast-intra / no-tskip-fast / no-cu-lossless / b-intra / no-splitrd-skip / rdpenalty=0 / psy-rd=2.00 / psy-rdoq=1.00 / no-rd-refine / no-lossless / cbqpoffs=0 / crqpoffs=0 / rc=crf / crf=20.0 / qcomp=0.60 / qpstep=4 / stats-write=0 / stats-read=0 / vbv-maxrate=50000 / vbv-bufsize=50000 / vbv-init=0.9 / crf-max=30.0 / crf-min=0.0 / ipratio=1.40 / pbratio=1.30 / aq-mode=2 / aq-strength=1.00 / no-cutree / zone-count=0 / no-strict-cbr / qg-size=32 / no-rc-grain / qpmax=69 / qpmin=0 / no-const-vbv / sar=1 / overscan=0 / videoformat=5 / range=0 / colorprim=1 / transfer=1 / colormatrix=1 / chromaloc=0 / display-window=0cll=0,0 / min-luma=0 / max-luma=1023 / log2-max-poc-lsb=8 / vui-timing-info / vui-hrd-info / slices=1 / no-opt-qp-pps / no-opt-ref-list-length-pps / no-multi-pass-opt-rps / scenecut-bias=0.05 / no-opt-cu-delta-qp / no-aq-motion / no-hdr / no-hdr-opt / no-dhdr10-opt / no-idr-recovery-sei / analysis-reuse-level=5 / scale-factor=0 / refine-intra=0 / refine-inter=0 / refine-mv=0 / refine-ctu-distortion=0 / no-limit-sao / ctu-info=0 / no-lowpass-dct / refine-analysis-type=1296651091 / copy-pic=1 / max-ausize-factor=1.0 / no-dynamic-refine / no-single-sei / no-hevc-aq / no-svt / no-field / qp-adaptation-range=1.00
Default : Yes
Forced : No
Color range : Limited
Color primaries : BT.709
Transfer characteristics : BT.709
Matrix coefficients : BT.709

Audio #1
ID : 2
Format : AC-3
Format/Info : Audio Coding 3
Commercial name : Dolby Digital
Codec ID : A_AC3
Duration : 1 h 44 min
Bit rate mode : Constant
Bit rate : 448 kb/s
Channel(s) : 6 channels
Channel layout : L R C LFE Ls Rs
Sampling rate : 48.0 kHz
Frame rate : 31.250 FPS (1536 SPF)
Bit depth : 16 bits
Compression mode : Lossy
Stream size : 335 MiB (3%)
Service kind : Complete Main
Default : Yes
Forced : No

Audio #2
ID : 3
Format : AC-3
Format/Info : Audio Coding 3
Commercial name : Dolby Digital
Codec ID : A_AC3
Duration : 1 h 44 min
Bit rate mode : Constant
Bit rate : 448 kb/s
Channel(s) : 6 channels
Channel layout : L R C LFE Ls Rs
Sampling rate : 48.0 kHz
Frame rate : 31.250 FPS (1536 SPF)
Bit depth : 16 bits
Compression mode : Lossy
Stream size : 335 MiB (3%)
Service kind : Complete Main
Default : No
Forced : No

Text
ID : 4
Format : UTF-8
Codec ID : S_TEXT/UTF8
Codec ID/Info : UTF-8 Plain Text
Duration : 1 h 43 min
Bit rate : 84 b/s
Count of elements : 1402
Stream size : 63.7 KiB (0%)
Default : Yes
Forced : No

Menu
00:00:00.000 : :Глава 1
00:14:31.036 : :Глава 2
00:22:24.968 : :Глава 3
00:45:24.138 : :Глава 4
00:55:55.226 : :Глава 5
01:08:00.534 : :Глава 6
01:17:55.837 : :Глава 7
01:26:15.461 : :Глава 8
01:35:46.449 : :Глава 9
01:43:06.388 : :Глава 10
Cкриншот1 Покемон. Детектив Пикачу / Pokémon Detective Pikachu (2019) BDRip 1080p [HEVC] 10 bit от HANNIBAL
Загружается...
Cкриншот2 Покемон. Детектив Пикачу / Pokémon Detective Pikachu (2019) BDRip 1080p [HEVC] 10 bit от HANNIBAL
Загружается...
Cкриншот3 Покемон. Детектив Пикачу / Pokémon Detective Pikachu (2019) BDRip 1080p [HEVC] 10 bit от HANNIBAL
Загружается...
Cкриншот4 Покемон. Детектив Пикачу / Pokémon Detective Pikachu (2019) BDRip 1080p [HEVC] 10 bit от HANNIBAL
Загружается...
Сэмпл Торрент🧲 Магнет

Кнопки "Позвать в чате" и "Спасибо" доступны только зарегистрированным/авторизованным пользователям!

Файлы: 1
  • Pokémon Detective Pikachu (2019) BDRip-HEVC 1080p 10bit.mkv   9.85 ГБ
Поблагодарили: 3
icesnoop, Imp3rr0r, makss333
OldGamer
0155009.85 ГБ

Добавление нового комментария

Добавление комментариев доступно только зарегистрированным/авторизованным пользователям.