Регистрация / Смена пароля

💬 Мини-чат

moonson: Alex302, ну, сообственно туда всем нашим врагам и дорога. Жалко только враг Жан-Поля застрял на 16 % и ни туда, и ни сюда 😄
Alex302: moonson, труп вашего врага растащило вороньё)
  • garant3v
  • Leon20052
Отправка сообщений доступно только зарегистрированным/авторизованным пользователям.
Онлайн (за 10 мин.): 2

Горбун / Le bossu (1959) BDRip 1080p [HEVC] 10 bit от Joker63

HEVC
10 bit
Обложка Горбун / Le bossu (1959) BDRip 1080p [HEVC] 10 bit от Joker63 Год: 1959
Страна: Франция, Италия
Жанр: Боевик, Приключения
Продолжительность: 01:44:49

Режиссер: Андре Юнебель
В ролях: Жан Марэ, Бурвиль, Сабина Сессельман, Жан Ле Пулен, Юбер Ноэль, Полетт Дюбо, Эдмон Бошан, Александр Риньо, Поль Камбо, Жорж Дукинг, Анни Андерсон, Франсуа Шометт, Рауль Бийре, Барбара Круз, Розита Фернандез, Ги Делорм, Пакеретт, Жан Ружери, Эдмон Тамиз, Ален Ноби, Бернар Деран, Рене Руссель, Жан-Мишель Рузьер, Франсуаз Дельдик, Моника Жюст

Описание: Эта история началась в 1701 году, когда Францией правил «Король-Солнце» Людовик XIV. Шевалье Лагардер спасает от расправы слуг короля незаконнорожденную дочь смертельно раненного принца Филиппа де Невер и скрывается с грудным ребенком от преследования в Испании. Он и его верный слуга Паскуаль воспитывают девочку Аврору в течение пятнадцати лет. В 1716 году, вернувшись в Париж, шевалье переодевается горбуном, чтобы войти в доверие к высокопоставленным вельможам во дворце короля, ведь его горб приносит счастье. Благодаря своей хитрости, умению перевоплощаться и острому клинку шпаги, герой разрушает все коварные замыслы врагов и спасает честь семьи своей приемной дочери…

КиноПоиск
7.629 1652
IMDb
6.9
1107


Видео: 1920x816, 6986 Kbps
Аудио1: AC3, 2 ch, 192 Kbps -
Русский, Дублированный. Озвучен на киностудии "Союзмультфильм". В советском прокате вырезанных сценах - профессиональный многоголосый.)
Аудио2: AC3, 2 ch, 192 Kbps -
Русский, Профессиональный многоголосый, Студия "Кравец"
Аудио3: AC3, 2 ch, 192 Kbps -
Русский, Профессиональный двухголосый, Светла
Аудио4: AC3, 2 ch, 192 Kbps -
Русский, Профессиональный многоголосый, ТВ Центр
Аудио5: AC3, 2 ch, 192 Kbps -
Русский, Авторский одноголосый, Всеволод Абдулов
Аудио6: AC3, 2 ch, 192 Kbps - French
Субтитры: Нет

Как за пару секунд удалить ненужные аудиодорожки и субтитры (Внимание! После удаления вы не сможете поддержать раздачу)

Медиаинфо
Общее
Уникальный идентификатор : 234197214003725597475678602804736760264 (0xB030BE23D3D6402F4E755242BE9719C8)
Полное имя : D:\Жан Маре\Горбун Le Bossu 1959 ДБ, 2 x ПМ, ПД, АП (Абдулов) BDRip 1080p [HEVC] 10 bit.mkv
Формат : Matroska
Версия формата : Version 4 / Version 2
Размер файла : 5,91 Гбайт
Продолжительность : 1 ч. 44 м.
Общий поток : 8077 Кбит/сек
Название фильма : Рип от Joker6346 для HEVC - CLUB
Дата кодирования : UTC 2018-07-26 08:51:36
Программа кодирования : mkvmerge v24.0.0 ('Beyond The Pale') 64-bit
Библиотека кодирования : libebml v1.3.6 + libmatroska v1.4.9
Обложка : Yes
Attachments : cover.jpg

Видео
Идентификатор : 1
Формат : HEVC
Формат/Информация : High Efficiency Video Coding
Профиль формата : Main 10@L5.1@Main
Идентификатор кодека : V_MPEGH/ISO/HEVC
Продолжительность : 1 ч. 44 м.
Битрейт : 6986 Кбит/сек
Ширина : 1920 пикселей
Высота : 816 пикселей
Соотношение сторон : 2,35:1
Режим частоты кадров : Постоянный
Частота кадров : 24,000 кадра/сек
Цветовое пространство : YUV
Субдискретизация насыщенности : 4:2:0
Битовая глубина : 10 бит
Бит/(Пиксели*Кадры) : 0.186
Размер потока : 5,11 Гбайт (86%)
Библиотека кодирования : x265 2.8+19-bcdc610cf5f0:[Windows][GCC 7.3.0][64 bit] 10bit
Настройки программы : cpuid=1049583 / frame-threads=5 / numa-pools=4 / wpp / no-pmode / no-pme / no-psnr / no-ssim / log-level=3 / input-csp=1 / input-res=1920x816 / interlace=0 / total-frames=0 / level-idc=51 / high-tier=1 / uhd-bd=0 / ref=5 / allow-non-conformance / no-repeat-headers / annexb / no-aud / no-hrd / info / hash=0 / no-temporal-layers / open-gop / min-keyint=24 / keyint=240 / gop-lookahead=0 / bframes=4 / b-adapt=2 / b-pyramid / bframe-bias=0 / rc-lookahead=20 / lookahead-slices=5 / scenecut=40 / radl=0 / no-intra-refresh / ctu=64 / min-cu-size=8 / no-rect / no-amp / max-tu-size=32 / tu-inter-depth=1 / tu-intra-depth=1 / limit-tu=0 / rdoq-level=0 / dynamic-rd=0.00 / no-ssim-rd / signhide / no-tskip / nr-intra=0 / nr-inter=0 / no-constrained-intra / strong-intra-smoothing / max-merge=2 / limit-refs=3 / no-limit-modes / me=1 / subme=2 / merange=57 / temporal-mvp / weightp / no-weightb / no-analyze-src-pics / deblock=-2:-2 / sao / no-sao-non-deblock / rd=3 / no-early-skip / rskip / no-fast-intra / no-tskip-fast / no-cu-lossless / no-b-intra / no-splitrd-skip / rdpenalty=0 / psy-rd=2.00 / psy-rdoq=0.00 / no-rd-refine / no-lossless / cbqpoffs=0 / crqpoffs=0 / rc=abr / bitrate=7000 / qcomp=0.60 / qpstep=4 / stats-write=0 / stats-read=0 / ipratio=1.40 / pbratio=1.30 / aq-mode=1 / aq-strength=1.00 / cutree / zone-count=0 / no-strict-cbr / qg-size=32 / no-rc-grain / qpmax=69 / qpmin=0 / no-const-vbv / sar=1 / overscan=0 / videoformat=5 / range=0 / colorprim=1 / transfer=1 / colormatrix=1 / chromaloc=0 / display-window=0 / max-cll=0,0 / min-luma=0 / max-luma=1023 / log2-max-poc-lsb=8 / vui-timing-info / vui-hrd-info / slices=1 / no-opt-qp-pps / no-opt-ref-list-length-pps / no-multi-pass-opt-rps / scenecut-bias=0.05 / no-opt-cu-delta-qp / no-aq-motion / no-hdr / no-hdr-opt / no-dhdr10-opt / no-idr-recovery-sei / analysis-reuse-level=5 / scale-factor=0 / refine-intra=0 / refine-inter=0 / refine-mv=0 / no-limit-sao / ctu-info=0 / no-lowpass-dct / refine-mv-type=0 / copy-pic=1 / max-ausize-factor=1.0 / no-dynamic-refine / no-single-sei
Default : Да
Forced : Нет
Цветовой диапазон : Limited
Основные цвета : BT.709
Характеристики трансфера : BT.709
Коэффициенты матрицы : BT.709

Аудио #1
Идентификатор : 2
Формат : AC-3
Формат/Информация : Audio Coding 3
Идентификатор кодека : A_AC3
Продолжительность : 1 ч. 44 м.
Вид битрейта : Постоянный
Битрейт : 192 Кбит/сек
Каналы : 2 канала
Расположение каналов : Front: L R
Частота : 48,0 КГц
Частота кадров : 31,250 кадров/сек (1536 SPF)
Битовая глубина : 16 бит
Метод сжатия : С потерями
Размер потока : 144 Мбайт (2%)
Язык : Russian
ServiceKind/String : Complete Main
Default : Да
Forced : Нет

Аудио #2
Идентификатор : 3
Формат : AC-3
Формат/Информация : Audio Coding 3
Идентификатор кодека : A_AC3
Продолжительность : 1 ч. 44 м.
Вид битрейта : Постоянный
Битрейт : 192 Кбит/сек
Каналы : 2 канала
Расположение каналов : Front: L R
Частота : 48,0 КГц
Частота кадров : 31,250 кадров/сек (1536 SPF)
Битовая глубина : 16 бит
Метод сжатия : С потерями
Размер потока : 144 Мбайт (2%)
Язык : Russian
ServiceKind/String : Complete Main
Default : Нет
Forced : Нет

Аудио #3
Идентификатор : 4
Формат : AC-3
Формат/Информация : Audio Coding 3
Идентификатор кодека : A_AC3
Продолжительность : 1 ч. 44 м.
Вид битрейта : Постоянный
Битрейт : 192 Кбит/сек
Каналы : 2 канала
Расположение каналов : Front: L R
Частота : 48,0 КГц
Частота кадров : 31,250 кадров/сек (1536 SPF)
Битовая глубина : 16 бит
Метод сжатия : С потерями
Размер потока : 144 Мбайт (2%)
Язык : Russian
ServiceKind/String : Complete Main
Default : Нет
Forced : Нет

Аудио #4
Идентификатор : 5
Формат : AC-3
Формат/Информация : Audio Coding 3
Идентификатор кодека : A_AC3
Продолжительность : 1 ч. 44 м.
Вид битрейта : Постоянный
Битрейт : 192 Кбит/сек
Каналы : 2 канала
Расположение каналов : Front: L R
Частота : 48,0 КГц
Частота кадров : 31,250 кадров/сек (1536 SPF)
Битовая глубина : 16 бит
Метод сжатия : С потерями
Размер потока : 144 Мбайт (2%)
Язык : Russian
ServiceKind/String : Complete Main
Default : Нет
Forced : Нет

Аудио #5
Идентификатор : 6
Формат : AC-3
Формат/Информация : Audio Coding 3
Идентификатор кодека : A_AC3
Продолжительность : 1 ч. 44 м.
Вид битрейта : Постоянный
Битрейт : 192 Кбит/сек
Каналы : 2 канала
Расположение каналов : Front: L R
Частота : 48,0 КГц
Частота кадров : 31,250 кадров/сек (1536 SPF)
Битовая глубина : 16 бит
Метод сжатия : С потерями
Размер потока : 144 Мбайт (2%)
Язык : Russian
ServiceKind/String : Complete Main
Default : Нет
Forced : Нет

Аудио #6
Идентификатор : 7
Формат : AC-3
Формат/Информация : Audio Coding 3
Идентификатор кодека : A_AC3
Продолжительность : 1 ч. 44 м.
Вид битрейта : Постоянный
Битрейт : 128 Кбит/сек
Каналы : 1 канал
Расположение каналов : Front: C
Частота : 48,0 КГц
Частота кадров : 31,250 кадров/сек (1536 SPF)
Битовая глубин
Cкриншот1 Горбун / Le bossu (1959) BDRip 1080p [HEVC] 10 bit от Joker63
Загружается...
Cкриншот2 Горбун / Le bossu (1959) BDRip 1080p [HEVC] 10 bit от Joker63
Загружается...
Cкриншот3 Горбун / Le bossu (1959) BDRip 1080p [HEVC] 10 bit от Joker63
Загружается...
Cкриншот4 Горбун / Le bossu (1959) BDRip 1080p [HEVC] 10 bit от Joker63
Загружается...
Сэмпл Торрент🧲 Магнет

Кнопки "Позвать в чате" и "Спасибо" доступны только зарегистрированным/авторизованным пользователям!

Файлы: 1
  • Горбун Le Bossu 1959 ДБ, 2 x ПМ, ПД, АП (Абдулов) BDRip 1080p [HEVC] 10 bit.mkv   5.91 ГБ
Поблагодарили: 2
brukvalub, moonson
joker63
7309105.91 ГБ

Добавление нового комментария

Добавление комментариев доступно только зарегистрированным/авторизованным пользователям.
Аватар moonson
  moonson  
Увидел запрос на этот фильм в мини-чате, вспомнил молодость и этот замечательный фильм и тоже захотел его скачать, но сидов нет :( Встаньте пожалуйста снова на раздачу, а я как скачаю обязуюсь подержать фильм на раздаче, вдруг еще кто захочет скачать. Заранее благодарен.
Аватар dochsh
  dochsh  
сидеры, вы где?? встаньте, пожалуйста, на раздачу
Аватар joker63
  joker63  
Окей.Я так же подумал))
Аватар Admin
  Admin  
joker63 писал(а):
Я как на кинопоиске пишу,согласен это приключения только,но чтоб было по правилам так и пишу)
Я бы особо не доверял кинопоиску. Так что на своё усмотрение.
Аватар онилл
  онилл  
Сразу вспоминаешь детство Спасибо
Аватар joker63
  joker63  
Я как на кинопоиске пишу,согласен это приключения только,но чтоб было по правилам так и пишу)
Аватар DjBadan
  DjBadan  
Жанр: Боевик ???)))))