Обложка 22 мили / Mile 22 (2018) BDRip 1080p [HEVC] 10 bit от HANNIBALОбложка Веном / Venom (2018) BDRip 1080p [HEVC] 10 bit от M@kSIMusОбложка Хантер Киллер / Hunter Killer (2018) BDRip 1080p [HEVC] 10 bit от M@kSIMusОбложка Бегущий в лабиринте: Лекарство от смерти / Maze Runner: The Death Cure (2018) BDRip 1080p [HEVC] 10 bit от M@kSIMusОбложка Мы / Us (2019) BDRip 1080p [HEVC] 10 bit от HANNIBALОбложка Коллекторы / The Debt Collector (2018) BDRip 1080p [HEVC] 10 bit от M@kSIMusОбложка Первому игроку приготовиться / Ready Player One (2018) BDRip 1080p [HEVC] 10 bit от M@kSIMusОбложка Девушка, которая застряла в паутине / The Girl in the Spider's Web (2018) BDRip 1080p [HEVC] 10 bit от HANNIBALОбложка Снегоуборщик / Cold Pursuit (2019) BDRip 1080p [HEVC] 10 bit от HANNIBALОбложка Привидение / Every Day (2018) BDRip 1080p [HEVC] 8 bit от M@kSIMus

Авторизация

Смена пароля

captcha

Регистрация

captcha

🔍 Поиск

Мини-чат

(19:28)dixen18: Доброго вечера всем) Скажите а по странам тут нельзя сортировку делать да?
(19:36)OldGamer: dixen18, нет
(20:03)dixen18: OldGamer, ну ничего страшного)
(22:08)PRO-USTAS: привет админ такая идея а можно сделать сортировку по пользевателям типа фильмы только от Mr. Fox и тогдалия
(23:41)Kaban: PRO-USTAS, можно ввести в поиске вместо фильма логин аплоадера и в результате вам выдаст все его раздачи
(10:13)Temir_Nator: Всем привет)) А бывают раздачи в OPEN MATE формате?))) Если есть возможность, делайте и OPEN MATE)))
(10:29)OldGamer: Бывают
(11:22)Kaban: OldGamer, но редко)
(12:32)Temir_Nator: Жаль :(
(14:18)Ярослав: День добрый всем. Александра (Финальная версия) поможет кто раздать?
(14:18)Ярослав: https://hevc-club.video/video-1388/
(14:24)OldGamer: Может Джокер попозже заглянет, его релиз
(20:05)GrandConvoy: Раздайте, пожалуйста, Хищник 2 / Predator 2 (1990) BDRip 1080p [HEVC] 10 bit от HANNIBAL
(23:24)joker63: Ярослав, Перекачай торрент файл по новому,я обновил раздачу постою на ней немного.Ночью не стою.
(19:06)Ярослав: GrandConvoy, Встал на раздачу.
(19:50)GrandConvoy: Раздайте, пожалуйста, Хищник 2 / Predator 2 (1990) BDRip 1080p [HEVC] 10 bit от HANNIBAL
(19:51)GrandConvoy: ЯрославЯрослав, Что то не скачивается(
(19:51)GrandConvoy: Привет
(19:51)GrandConvoy: У меня на NAS торент стоит уже второй день( Загрузки нет(
  • OldGamer
  • 5a4oK
  • Samtron1982
  • solohin1006
Онлайн: 4
Отправка сообщений доступно только зарегистрированным/авторизованным пользователям.

Жил-был полицейский / Il était une fois un flic... (1972) BDRip 1080p [HEVC] 10 bit от joker63

HEVC
10 bit
Обложка Жил-был полицейский / Il était une fois un flic... (1972) BDRip 1080p [HEVC] 10 bit от joker63 Год: 1972
Страна: Италия, Франция
Жанр: Комедия, Криминал
Продолжительность: 01:36:03

Режиссер: Жорж Лотнер
В ролях: Мишель Константен, Микаэль Лонсдаль, Даниэль Ивернель, Мирей Дарк, Венантино Венантини, Джулиано Дисперати, Эрве Ийен, Робер Дальбан, Анри Гибе, Филлис Мейджор, Жан-Жак Моро, Чарльз Саутвуд, Робер Кастель, Дадо Кростароза, Жан Луизи, Франсинед, Гислен Ойяк, Поль Клеричи, Жанна Кости, Даниэль Огюст, Пицолу Димитриус, Чарли Бертони, Анри Дюжен, Ганс Вервез

Описание: Комиссар Кампана (по легенде — брат недавно убитого мафиози) отправляется в Ниццу со спецзаданием — найти и обезвредить боссов наркокартеля. Кампана — мрачный крутой мужик, привыкший решать все вопросы кулаком и пистолетом, не любящий женщин и детей, мешающих работе.


7.01432
6.2
462


Формат: MKV
Видео: 1792x1080, 6980 Kbps
Аудио1: AC3, 2 ch, 192 Kbps -
Русский, Дублированный (СССР)

Аудио2: AC3, 2 ch, 192 Kbps -
Русский, Многоголосый закадровый (Cinema Prestige)

Аудио3: AC3, 2 ch, 192 Kbps -
Русский, Многоголосый закадровый

Аудио4: AC3, 2 ch, 192 Kbps - French, Оригинал
Субтитры: UTF-8 Russian

Как за пару секунд удалить ненужные аудиодорожки и субтитры (Внимание! После удаления вы не сможете поддержать раздачу)

Медиаинфо
Общее
Уникальный идентификатор : 269391675445364962169606785127883158697 (0xCAAAF30F369F69F385352680ECBB34A9)
Полное имя : E:\Мирей Дарк\Жил-был полицейский Il etait une fois un flic 1971 BDRip 1080p [HEVC] 10 bit.mkv
Формат : Matroska
Версия формата : Version 4
Размер файла : 5,20 Гбайт
Продолжительность : 1 ч. 36 м.
Общий поток : 7751 Кбит/сек
Название фильма : Жил-был полицейский / Il etait une fois un flic / 1972_рип_от_Joker63
Дата кодирования : UTC 2019-06-30 09:20:23
Программа кодирования : mkvmerge v35.0.0 ('All The Love In The World') 64-bit
Библиотека кодирования : libebml v1.3.9 + libmatroska v1.5.2
Обложка : Yes
Attachments : cover.jpg

Видео
Идентификатор : 1
Формат : HEVC
Формат/Информация : High Efficiency Video Coding
Профиль формата : Main 10@L5.1@Main
Идентификатор кодека : V_MPEGH/ISO/HEVC
Продолжительность : 1 ч. 36 м.
Битрейт : 6980 Кбит/сек
Ширина : 1792 пикселя
Высота : 1080 пикселей
Соотношение сторон : 5:3
Режим частоты кадров : Постоянный
Частота кадров : 24,000 кадра/сек
Цветовое пространство : YUV
Субдискретизация насыщенности : 4:2:0
Битовая глубина : 10 бит
Бит/(Пиксели*Кадры) : 0.150
Размер потока : 4,68 Гбайт (90%)
Библиотека кодирования : x265 2.8+19-bcdc610cf5f0:[Windows][GCC 7.3.0][64 bit] 10bit
Настройки программы : cpuid=1049583 / frame-threads=5 / numa-pools=4 / wpp / no-pmode / no-pme / no-psnr / no-ssim / log-level=3 / input-csp=1 / input-res=1792x1080 / interlace=0 / total-frames=0 / level-idc=51 / high-tier=1 / uhd-bd=0 / ref=5 / allow-non-conformance / no-repeat-headers / annexb / no-aud / no-hrd / info / hash=0 / no-temporal-layers / open-gop / min-keyint=24 / keyint=240 / gop-lookahead=0 / bframes=4 / b-adapt=2 / b-pyramid / bframe-bias=0 / rc-lookahead=20 / lookahead-slices=6 / scenecut=40 / radl=0 / no-intra-refresh / ctu=64 / min-cu-size=8 / no-rect / no-amp / max-tu-size=32 / tu-inter-depth=1 / tu-intra-depth=1 / limit-tu=0 / rdoq-level=0 / dynamic-rd=0.00 / no-ssim-rd / signhide / no-tskip / nr-intra=0 / nr-inter=0 / no-constrained-intra / strong-intra-smoothing / max-merge=2 / limit-refs=3 / no-limit-modes / me=1 / subme=2 / merange=57 / temporal-mvp / weightp / no-weightb / no-analyze-src-pics / deblock=-2:-2 / sao / no-sao-non-deblock / rd=3 / no-early-skip / rskip / no-fast-intra / no-tskip-fast / no-cu-lossless / no-b-intra / no-splitrd-skip / rdpenalty=0 / psy-rd=2.00 / psy-rdoq=0.00 / no-rd-refine / no-lossless / cbqpoffs=0 / crqpoffs=0 / rc=abr / bitrate=7000 / qcomp=0.60 / qpstep=4 / stats-write=0 / stats-read=0 / ipratio=1.40 / pbratio=1.30 / aq-mode=1 / aq-strength=1.00 / cutree / zone-count=0 / no-strict-cbr / qg-size=32 / no-rc-grain / qpmax=69 / qpmin=0 / no-const-vbv / sar=1 / overscan=0 / videoformat=5 / range=0 / colorprim=1 / transfer=1 / colormatrix=1 / chromaloc=0 / display-window=0 / max-cll=0,0 / min-luma=0 / max-luma=1023 / log2-max-poc-lsb=8 / vui-timing-info / vui-hrd-info / slices=1 / no-opt-qp-pps / no-opt-ref-list-length-pps / no-multi-pass-opt-rps / scenecut-bias=0.05 / no-opt-cu-delta-qp / no-aq-motion / no-hdr / no-hdr-opt / no-dhdr10-opt / no-idr-recovery-sei / analysis-reuse-level=5 / scale-factor=0 / refine-intra=0 / refine-inter=0 / refine-mv=0 / no-limit-sao / ctu-info=0 / no-lowpass-dct / refine-mv-type=0 / copy-pic=1 / max-ausize-factor=1.0 / no-dynamic-refine / no-single-sei
Default : Да
Forced : Нет
Цветовой диапазон : Limited
Основные цвета : BT.709
Характеристики трансфера : BT.709
Коэффициенты матрицы : BT.709

Аудио #1
Идентификатор : 2
Формат : AC-3
Формат/Информация : Audio Coding 3
Коммерческое название : Dolby Digital
Идентификатор кодека : A_AC3
Продолжительность : 1 ч. 36 м.
Вид битрейта : Постоянный
Битрейт : 192 Кбит/сек
Каналы : 2 канала
ChannelLayout : L R
Частота : 48,0 КГц
Частота кадров : 31,250 кадров/сек (1536 SPF)
Битовая глубина : 16 бит
Метод сжатия : С потерями
Размер потока : 132 Мбайт (2%)
Заголовок : Дубляж
Язык : Russian
ServiceKind/String : Complete Main
Default : Да
Forced : Нет

Аудио #2
Идентификатор : 3
Формат : AC-3
Формат/Информация : Audio Coding 3
Коммерческое название : Dolby Digital
Идентификатор кодека : A_AC3
Продолжительность : 1 ч. 36 м.
Вид битрейта : Постоянный
Битрейт : 192 Кбит/сек
Каналы : 2 канала
ChannelLayout : L R
Частота : 48,0 КГц
Частота кадров : 31,250 кадров/сек (1536 SPF)
Битовая глубина : 16 бит
Метод сжатия : С потерями
Задержка видео : 65 мс.
Размер потока : 132 Мбайт (2%)
Заголовок : Многоголосый закадровый, Cinema Prestige
Язык : Russian
ServiceKind/String : Complete Main
Default : Нет
Forced : Нет

Аудио #3
Идентификатор : 4
Формат : AC-3
Формат/Информация : Audio Coding 3
Коммерческое название : Dolby Digital
Идентификатор кодека : A_AC3
Продолжительность : 1 ч. 36 м.
Вид битрейта : Постоянный
Битрейт : 192 Кбит/сек
Каналы : 2 канала
ChannelLayout : L R
Частота : 48,0 КГц
Частота кадров : 31,250 кадров/сек (1536 SPF)
Битовая глубина : 16 бит
Метод сжатия : С потерями
Задержка видео : 65 мс.
Размер потока : 132 Мбайт (2%)
Заголовок : Многоголосый закадровый
Язык : Russian
ServiceKind/String : Complete Main
Default : Нет
Forced : Нет

Аудио #4
Идентификатор : 5
Формат : AC-3
Формат/Информация : Audio Coding 3
Коммерческое название : Dolby Digital
Идентификатор кодека : A_AC3
Продолжительность : 1 ч. 36 м.
Вид битрейта : Постоянный
Битрейт : 192 Кбит/сек
Каналы : 2 канала
ChannelLayout : L R
Частота : 48,0 КГц
Частота кадров : 31,250 кадров/сек (1536 SPF)
Битовая глубина : 16 бит
Метод сжатия : С потерями
Задержка видео : 65 мс.
Размер потока : 132 Мбайт (2%)
Заголовок : Оригинал
Язык : French
ServiceKind/String : Complete Main
Default : Нет
Forced : Нет

Текст #1
Идентификатор : 6
Формат : UTF-8
Идентификатор кодека : S_TEXT/UTF8
Идентификатор кодека/Информация : UTF-8 Plain Text
Продолжительность : 1 ч. 34 м.
Битрейт : 95 бит/сек
ElementCount : 1051
Размер потока : 66,1 Кбайт (0%)
Заголовок : Full
Язык : Russian
Default : Нет
Forced : Нет

Текст #2
Идентификатор : 7
Формат : UTF-8
Идентификатор кодека : S_TEXT/UTF8
Идентификатор кодека/Информация : UTF-8 Plain Text
Продолжительность : 1 ч. 31 м.
Битрейт : 36 бит/сек
ElementCount : 1098
Размер потока : 24,5 Кбайт (0%)
Заголовок : Full
Язык : English
Default : Нет
Forced : Нет
Cкриншот1 Жил-был полицейский / Il était une fois un flic... (1972) BDRip 1080p [HEVC] 10 bit от joker63
Загружается...
Cкриншот2 Жил-был полицейский / Il était une fois un flic... (1972) BDRip 1080p [HEVC] 10 bit от joker63
Загружается...
Cкриншот3 Жил-был полицейский / Il était une fois un flic... (1972) BDRip 1080p [HEVC] 10 bit от joker63
Загружается...
Cкриншот4 Жил-был полицейский / Il était une fois un flic... (1972) BDRip 1080p [HEVC] 10 bit от joker63
Загружается...
СэмплТоррентМагнет

Кнопки "Позвать в чате", "Спасибо" и "Пожертвование" доступны только зарегистрированным/авторизованным пользователям!

Поблагодарили: 12
375509, 7654321, and50, animen67, Chance, curly2, inoy, ivan_1965, ivs5, Remontaz, SaN161NeK, SYNC80001
30.06.2019  12:43:08
3
50
0
0
5.2 ГБ

Добавление нового комментария

Добавление комментариев доступно только зарегистрированным/авторизованным пользователям.
Аватар michael90
  michael90  01.07.2019  20:23:59
OldGamer писал(а):
когда-нибудь Побег, Невезучие и Укол зонтиком
Невезучие и Укол зонтиком обожаю.входят в топ 5 любимых фильмов с Ришаром.вот бы еще кто сделал Высокий блондин в черном ботинке и Беглецы.
Аватар OldGamer
  OldGamer  30.06.2019  17:52:02
когда-нибудь Побег, Невезучие и Укол зонтиком
Аватар animen67
  animen67  30.06.2019  17:30:47
Если есть возможность и желание , сделайте пожалуйста фильмы с Пьером Ришаром. Игрушка, Невезучие и особенно Не упускай из виду.