Обложка Tarja Turunen - Act II (2018) BDRip 1080p [HEVC] 8 bit от ADVOKAT69Обложка Проклятие Аннабель 3 / Annabelle Comes Home (2019) BDRip 1080p [HEVC] 10 bit от Mr. FoxОбложка Мстители: Финал / Avengers: Endgame (2019) BDRip 1080p [HEVC] 10 bit от HANNIBALОбложка Аксель / A-X-L (2018) BDRip 1080p [HEVC] 10 bit от HANNIBALОбложка Человек-муравей и Оса / Ant-Man and the Wasp (2018) BDRip 1080p [HEVC] 10 bit от CthulhuОбложка Гори, гори ясно / Brightburn (2019) [iTunes] BDRip 1080p [HEVC] 10 bit от HANNIBALОбложка Ты водишь! / Tag (2018) BDRip 1080p [HEVC] 10 bit от МичманОбложка Ральф против интернета / Ralph Breaks the Internet (2018) BDRip 1080p [HEVC] 10 bit от M@kSIMusОбложка Видоизмененный углерод / Altered Carbon [S01] (2018) BDRip 1080p [HEVC] 8 bit от HANNIBALОбложка Ральф: Дилогия / Ralph: Dilogy (2012-2018) BDRip 1080p [HEVC] 10 bit от Mr. Fox

Авторизация

Смена пароля

captcha

Регистрация

captcha

🔍 Поиск

Мини-чат

(19:28)dixen18: Доброго вечера всем) Скажите а по странам тут нельзя сортировку делать да?
(19:36)OldGamer: dixen18, нет
(20:03)dixen18: OldGamer, ну ничего страшного)
(22:08)PRO-USTAS: привет админ такая идея а можно сделать сортировку по пользевателям типа фильмы только от Mr. Fox и тогдалия
(23:41)Kaban: PRO-USTAS, можно ввести в поиске вместо фильма логин аплоадера и в результате вам выдаст все его раздачи
(10:13)Temir_Nator: Всем привет)) А бывают раздачи в OPEN MATE формате?))) Если есть возможность, делайте и OPEN MATE)))
(10:29)OldGamer: Бывают
(11:22)Kaban: OldGamer, но редко)
(12:32)Temir_Nator: Жаль :(
(14:18)Ярослав: День добрый всем. Александра (Финальная версия) поможет кто раздать?
(14:18)Ярослав: https://hevc-club.video/video-1388/
(14:24)OldGamer: Может Джокер попозже заглянет, его релиз
(20:05)GrandConvoy: Раздайте, пожалуйста, Хищник 2 / Predator 2 (1990) BDRip 1080p [HEVC] 10 bit от HANNIBAL
(23:24)joker63: Ярослав, Перекачай торрент файл по новому,я обновил раздачу постою на ней немного.Ночью не стою.
(19:06)Ярослав: GrandConvoy, Встал на раздачу.
(19:50)GrandConvoy: Раздайте, пожалуйста, Хищник 2 / Predator 2 (1990) BDRip 1080p [HEVC] 10 bit от HANNIBAL
(19:51)GrandConvoy: ЯрославЯрослав, Что то не скачивается(
(19:51)GrandConvoy: Привет
(19:51)GrandConvoy: У меня на NAS торент стоит уже второй день( Загрузки нет(
  • OldGamer
  • denisptp4
  • Drrean
  • iona999
  • Kaban
Онлайн: 5
Отправка сообщений доступно только зарегистрированным/авторизованным пользователям.

Королева Марго / La reine Margot (1994) BDRip 1080p [HEVC] 10 bit от joker63

HEVC
10 bit
Обложка Королева Марго / La reine Margot (1994) BDRip 1080p [HEVC] 10 bit от joker63 Год: 1994
Страна: Франция, Италия, Германия
Жанр: Драма, Мелодрама, Биография, История
Продолжительность: 02:38:37

Режиссер: Патрис Шеро
В ролях: Изабель Аджани, Даниель Отой, Жан-Юг Англад, Венсан Перес, Вирна Лизи, Доминик Блан, Паскаль Греггори, Клаудио Амендола, Мигель Бозе, Азия Ардженто, Томас Кречманн, Жан-Клод Бриали, Жан-Филипп Экоффе, Йохан Лейсен, Лоре Марсак, Алексис Нитцер, Эммануель Салинджер, Барбе Шрёдер, Жан-Марк Стель, Жюльен Рассам, Бруно Тодескини, Толстый, Бернар Верле, Даниель Бретон, Валерия Бруни Тедески, Дёрте Лиссевски, Марк Ситти

Описание: Август 1572 года. Францию раздирает религиозная война. Чтобы восстановить мир в стране, прекрасная и гордая принцесса Марго, сестра католического короля Карла IX, должна выйти замуж за протестанта Генриха Наваррского. А после свадьбы произошла кровавая резня Варфоломеевской ночи, организованная жестокой и коварной Екатериной Медичи.


7.6084122
7.4
15506


Формат: MKV
Видео: 1920x1036, 5984 Kbps
Аудио1: AC3, 2 ch, 192 Kbps -
Русский, Профессиональный (многоголосый, закадровый) (Скит)

Аудио2: AC3, 6 ch, 448 Kbps -
Русский, Профессиональный (многоголосый, закадровый) (DVDXpert)

Аудио3: DTS XLL, 6 ch, 2086Kbps -
Русский, Авторский одноголосый (Ю. Сербин)

Аудио4: DTS XLL, 6 ch, 2077 Kbps -
Французский, Оригинал

Субтитры: Нет

Как за пару секунд удалить ненужные аудиодорожки и субтитры (Внимание! После удаления вы не сможете поддержать раздачу)

Медиаинфо
Общее
Уникальный идентификатор : 137453464025409646389366173907592509753 (0x67689300E8D9E78AF4C667F69BC57939)
Полное имя : E:\Изабель Аджани\Королева Марго (Режиссерская версия) La Reine Margot (Director's Cut) (1994)BDRip 1080p [HEVC] 10 bit.mkv
Формат : Matroska
Версия формата : Version 4
Размер файла : 12,0 Гбайт
Продолжительность : 2 ч. 38 м.
Режим общего битрейта : Переменный
Общий поток : 10,8 Мбит/сек
Название фильма : Королева Марго / La Reine Margot / 1994_рип от Joker63
Дата кодирования : UTC 2018-12-17 08:22:42
Программа кодирования : mkvmerge v26.0.0 ('In The Game') 64-bit
Библиотека кодирования : libebml v1.3.6 + libmatroska v1.4.9 / Lavf57.71.100
Обложка : Yes
Attachments : cover.jpg / cover.jpg
ENCODING_INFO : MATROSKA,WEBM > MKV 1080p 10-bit / H264 > X265 CBR 6000kbps Medium / AC3 > AC3 CBR 192kbps / AC3 > AC3 CBR 448kbps
Язык : und

Видео
Идентификатор : 1
Формат : HEVC
Формат/Информация : High Efficiency Video Coding
Профиль формата : Main 10@L5.1@Main
Идентификатор кодека : V_MPEGH/ISO/HEVC
Продолжительность : 2 ч. 38 м.
Битрейт : 5984 Кбит/сек
Ширина : 1920 пикселей
Высота : 1036 пикселей
Соотношение сторон : 1,85:1
Режим частоты кадров : Постоянный
Частота кадров : 23,976 (24000/1001) кадра/сек
Цветовое пространство : YUV
Субдискретизация насыщенности : 4:2:0
Битовая глубина : 10 бит
Бит/(Пиксели*Кадры) : 0.125
Размер потока : 6,63 Гбайт (55%)
Библиотека кодирования : x265 2.9+9-f74003e88622:[Windows][GCC 7.3.0][64 bit] 10bit
Настройки программы : cpuid=1049583 / frame-threads=5 / numa-pools=4 / wpp / no-pmode / no-pme / no-psnr / no-ssim / log-level=3 / input-csp=1 / input-res=1920x1036 / interlace=0 / total-frames=0 / level-idc=51 / high-tier=1 / uhd-bd=0 / ref=3 / allow-non-conformance / no-repeat-headers / annexb / no-aud / no-hrd / info / hash=0 / no-temporal-layers / open-gop / min-keyint=24 / keyint=240 / gop-lookahead=0 / bframes=6 / b-adapt=2 / b-pyramid / bframe-bias=0 / rc-lookahead=20 / lookahead-slices=6 / scenecut=40 / radl=0 / no-intra-refresh / ctu=64 / min-cu-size=8 / no-rect / no-amp / max-tu-size=32 / tu-inter-depth=1 / tu-intra-depth=1 / limit-tu=0 / rdoq-level=0 / dynamic-rd=0.00 / no-ssim-rd / signhide / no-tskip / nr-intra=0 / nr-inter=0 / no-constrained-intra / strong-intra-smoothing / max-merge=2 / limit-refs=3 / no-limit-modes / me=1 / subme=7 / merange=57 / temporal-mvp / weightp / no-weightb / no-analyze-src-pics / deblock=-2:-2 / sao / no-sao-non-deblock / rd=3 / no-early-skip / rskip / no-fast-intra / no-tskip-fast / no-cu-lossless / no-b-intra / no-splitrd-skip / rdpenalty=0 / psy-rd=2.00 / psy-rdoq=0.00 / no-rd-refine / no-lossless / cbqpoffs=0 / crqpoffs=0 / rc=cbr / bitrate=6000 / qcomp=0.60 / qpstep=4 / stats-write=0 / stats-read=0 / vbv-maxrate=6000 / vbv-bufsize=4285 / vbv-init=0.9 / ipratio=1.40 / pbratio=1.30 / aq-mode=1 / aq-strength=1.00 / cutree / zone-count=0 / no-strict-cbr / qg-size=32 / no-rc-grain / qpmax=69 / qpmin=0 / no-const-vbv / sar=1 / overscan=0 / videoformat=5 / range=0 / colorprim=2 / transfer=2 / colormatrix=2 / chromaloc=0 / display-window=0 / max-cll=0,0 / min-luma=0 / max-luma=1023 / log2-max-poc-lsb=8 / vui-timing-info / vui-hrd-info / slices=1 / no-opt-qp-pps / no-opt-ref-list-length-pps / no-multi-pass-opt-rps / scenecut-bias=0.05 / no-opt-cu-delta-qp / no-aq-motion / no-hdr / no-hdr-opt / no-dhdr10-opt / no-idr-recovery-sei / analysis-reuse-level=5 / scale-factor=0 / refine-intra=0 / refine-inter=0 / refine-mv=0 / no-limit-sao / ctu-info=0 / no-lowpass-dct / refine-mv-type=0 / copy-pic=1 / max-ausize-factor=1.0 / no-dynamic-refine / no-single-sei
Default : Да
Forced : Нет

Аудио #1
Идентификатор : 2
Формат : AC-3
Формат/Информация : Audio Coding 3
Коммерческое название : Dolby Digital
Идентификатор кодека : A_AC3
Продолжительность : 2 ч. 38 м.
Вид битрейта : Постоянный
Битрейт : 192 Кбит/сек
Каналы : 2 канала
ChannelLayout : L R
Частота : 48,0 КГц
Частота кадров : 31,250 кадров/сек (1536 SPF)
Битовая глубина : 16 бит
Метод сжатия : С потерями
Размер потока : 218 Мбайт (2%)
Заголовок : Профессиональный (многоголосый, закадровый) Скит
Язык : Russian
ServiceKind/String : Complete Main
Default : Да
Forced : Да

Аудио #2
Идентификатор : 3
Формат : AC-3
Формат/Информация : Audio Coding 3
Коммерческое название : Dolby Digital
Идентификатор кодека : A_AC3
Продолжительность : 2 ч. 38 м.
Вид битрейта : Постоянный
Битрейт : 448 Кбит/сек
Каналы : 6 каналов
ChannelLayout : L R C LFE Ls Rs
Частота : 48,0 КГц
Частота кадров : 31,250 кадров/сек (1536 SPF)
Битовая глубина : 16 бит
Метод сжатия : С потерями
Размер потока : 508 Мбайт (4%)
Заголовок : Профессиональный (многоголосый, закадровый) DVDXpert
Язык : Russian
ServiceKind/String : Complete Main
Default : Нет
Forced : Нет

Аудио #3
Идентификатор : 4
Формат : DTS XLL
Формат/Информация : Digital Theater Systems
Коммерческое название : DTS-HD Master Audio
Идентификатор кодека : A_DTS
Продолжительность : 2 ч. 38 м.
Вид битрейта : Переменный
Битрейт : 2086 Кбит/сек
Каналы : 6 каналов
ChannelLayout : C L R Ls Rs LFE
Частота : 48,0 КГц
Частота кадров : 93,750 кадра/сек (512 SPF)
Битовая глубина : 16 бит
Метод сжатия : Без потерь
Размер потока : 2,31 Гбайт (19%)
Заголовок : Авторский одноголосый (Ю. Сербин)
Язык : Russian
Default : Нет
Forced : Нет

Аудио #4
Идентификатор : 5
Формат : DTS XLL
Формат/Информация : Digital Theater Systems
Коммерческое название : DTS-HD Master Audio
Идентификатор кодека : A_DTS
Продолжительность : 2 ч. 38 м.
Вид битрейта : Переменный
Битрейт : 2077 Кбит/сек
Каналы : 6 каналов
ChannelLayout : C L R Ls Rs LFE
Частота : 48,0 КГц
Частота кадров : 93,750 кадра/сек (512 SPF)
Битовая глубина : 16 бит
Метод сжатия : Без потерь
Размер потока : 2,30 Гбайт (19%)
Заголовок : Оригинал
Язык : French
Default : Нет
Forced : Нет
Cкриншот1 Королева Марго / La reine Margot (1994) BDRip 1080p [HEVC] 10 bit от joker63
Загружается...
Cкриншот2 Королева Марго / La reine Margot (1994) BDRip 1080p [HEVC] 10 bit от joker63
Загружается...
Cкриншот3 Королева Марго / La reine Margot (1994) BDRip 1080p [HEVC] 10 bit от joker63
Загружается...
Cкриншот4 Королева Марго / La reine Margot (1994) BDRip 1080p [HEVC] 10 bit от joker63
Загружается...
СэмплТоррентМагнет

Кнопки "Позвать в чате", "Спасибо" и "Пожертвование" доступны только зарегистрированным/авторизованным пользователям!

Поблагодарили: 13
375509, 7654321, and50, aorfelinov, igo1615, ivan_1965, ivs5, LastSurviv0r, sapata, sema1960, serg1962, SYNC80001, u4837
29.06.2019  23:10:42
1
155
0
0
11.96 ГБ

Добавление нового комментария

Добавление комментариев доступно только зарегистрированным/авторизованным пользователям.
Аватар Kaban
  Kaban  30.06.2019  11:21:34
Ё моё,две дорожки по 2.30 гига здесь прям так нужны.Тем более авторский и оригинальный переводы