Обложка Алита: Боевой ангел / Alita: Battle Angel (2019) UHD-BDRip 1080p [HEVC] 10 bit [SDR] от M@kSIMusОбложка Омен: Перерождение / The Prodigy (2019) BDRip 1080p [HEVC] 10 bit от HANNIBALОбложка Смолфут / Smallfoot (2018) BDRip 1080p [HEVC] 10 bit от M@kSIMusОбложка Алита: Боевой ангел / Alita: Battle Angel (2019) BDRip 1080p [HEVC] 10 bit от HANNIBALОбложка Павел, апостол Христа / Paul, Apostle of Christ (2018) BDRip 1080p [HEVC] 10 bit от druidblackОбложка Tarja Turunen - Act II (2018) BDRip 1080p [HEVC] 8 bit от ADVOKAT69Обложка Люди в черном: Интернэшнл / Men in Black International (2019) BDRip 1080p [HEVC] 10 bit от Mr. FoxОбложка Аквамен / Aquaman (2018) [IMAX] BDRip 1080p [HEVC] 10 bit от Mr. FoxОбложка Хантер Киллер / Hunter Killer (2018) BDRip 1080p [HEVC] 10 bit от M@kSIMusОбложка Как приручить дракона: Трилогия / How to Train Your Dragon: Trilogy (2010-2019) BDRip 1080p [HEVC] 10 bit от Mr. Fox

Авторизация

Смена пароля

captcha

Регистрация

captcha

🔍 Поиск

Мини-чат

(19:28)dixen18: Доброго вечера всем) Скажите а по странам тут нельзя сортировку делать да?
(19:36)OldGamer: dixen18, нет
(20:03)dixen18: OldGamer, ну ничего страшного)
(22:08)PRO-USTAS: привет админ такая идея а можно сделать сортировку по пользевателям типа фильмы только от Mr. Fox и тогдалия
(23:41)Kaban: PRO-USTAS, можно ввести в поиске вместо фильма логин аплоадера и в результате вам выдаст все его раздачи
(10:13)Temir_Nator: Всем привет)) А бывают раздачи в OPEN MATE формате?))) Если есть возможность, делайте и OPEN MATE)))
(10:29)OldGamer: Бывают
(11:22)Kaban: OldGamer, но редко)
(12:32)Temir_Nator: Жаль :(
(14:18)Ярослав: День добрый всем. Александра (Финальная версия) поможет кто раздать?
(14:18)Ярослав: https://hevc-club.video/video-1388/
(14:24)OldGamer: Может Джокер попозже заглянет, его релиз
(20:05)GrandConvoy: Раздайте, пожалуйста, Хищник 2 / Predator 2 (1990) BDRip 1080p [HEVC] 10 bit от HANNIBAL
(23:24)joker63: Ярослав, Перекачай торрент файл по новому,я обновил раздачу постою на ней немного.Ночью не стою.
(19:06)Ярослав: GrandConvoy, Встал на раздачу.
(19:50)GrandConvoy: Раздайте, пожалуйста, Хищник 2 / Predator 2 (1990) BDRip 1080p [HEVC] 10 bit от HANNIBAL
(19:51)GrandConvoy: ЯрославЯрослав, Что то не скачивается(
(19:51)GrandConvoy: Привет
(19:51)GrandConvoy: У меня на NAS торент стоит уже второй день( Загрузки нет(
  • OldGamer
Онлайн: 1
Отправка сообщений доступно только зарегистрированным/авторизованным пользователям.

Шестой день / The 6th Day (2000) BDRip 1080p [HEVC] 10 bit от OldGamer

HEVC
10 bit
Обложка Шестой день / The 6th Day (2000) BDRip 1080p [HEVC] 10 bit от OldGamer Год: 2000
Страна: США, Канада
Студия: Phoenix Pictures
Жанр: Фантастика, Боевик, Триллер, Детектив
Продолжительность: 02:03:34

Режиссер: Роджер Споттисвуд
В ролях: Арнольд Шварценеггер, Майкл Рапапорт, Тони Голдуин, Майкл Рукер, Сара Уайнтер, Венди Крюсон, Родни Роулэнд, Терри Крюс, Кен Поуг, Роберт Дювалл

Описание: В начале третьего тысячелетия самым суровым законом стал «закон Шестого дня». Он запрещал клонирование людей и создание искусственных копий человека. Но огромная подпольная империя вопреки запрету выращивает человечество нового будущего, сотни управляемых теней. Налаженная машина преступления не давала сбоев, пока в ее совершенный механизм не вмешалась случайность: пилот вертолета Адам Гибсон неожиданно приоткрыл непроницаемую завесу заговора. Теперь он — последний рубеж обороны, отделяющий цивилизацию от общества зомби.


6.79828293
5.9
112173


Формат: MKV
Видео: 1920x800 (2,40:1), 12,9 мбит/сек, 0.349 бит/(Пиксели*Кадры), 23,976 (24000/1001) кадра/сек, HEVC (Main 10@L4.1@High) 10 бит
Аудио1: AC3, 6 ch, 448 Kbps -
Русский, Дублированный (BD CEE)

Аудио2: AC3, 6 ch, 448 Kbps -
Русский, Многоголосый (Карусель)

Аудио3: AC3, 6 ch, 448 Kbps -
Русский, Многоголосый (DVD R7)

Аудио4: AC3, 6 ch, 448 Kbps -
Русский, Авторский (Андрей Гаврилов)

Аудио5: AC3, 6 ch, 448 Kbps -
Русский, Авторский (Юрий Живов)

Аудио6: AC3, 6 ch, 448 Kbps -
English, Original

Субтитры: Русские полные (SRT), English full (SRT)

Как за пару секунд удалить ненужные аудиодорожки и субтитры (Внимание! После удаления вы не сможете поддержать раздачу)

Медиаинфо
x265 info: frame I: 750, Avg QP:16.71 kb/s: 22254.65
x265 info: frame P: 30817, Avg QP:18.00 kb/s: 18226.61
x265 info: frame B: 146201, Avg QP:19.92 kb/s: 11692.60
x265 info: Weighted P-Frames: Y:12.1% UV:9.9%
x265 info: Weighted B-Frames: Y:13.0% UV:9.7%
x265 info: consecutive B-frames: 6.7% 4.8% 8.0% 20.8% 13.0% 17.7% 7.2% 8.5% 3.5% 3.2% 1.7% 1.5% 0.9% 0.7% 0.6% 0.6% 0.6%
x265 info: encoded 177768 frames in 226336.89s (0.79 fps), 12869.86 kb/s, Avg QP:19.57

Формат : Matroska
Версия формата : Version 4
Размер файла : 13,4 Гбайт
Продолжительность : 2 ч. 3 м.
Общий поток : 15,6 Мбит/сек
Название фильма : Шестой день
Описание : В начале третьего тысячелетия самым суровым законом стал «закон Шестого дня». Он запрещал клонирование людей и создание искусственных копий человека. Но огромная подпольная империя вопреки запрету выращивает человечество нового будущего, сотни управляемых теней.Налаженная машина преступления не давала сбоев, пока в ее совершенный механизм не вмешалась случайность: пилот вертолета Адам Гибсон неожиданно приоткрыл непроницаемую завесу заговора. Теперь он — последний рубеж обороны, отделяющий цивилизацию от общества зомби.
Дата кодирования : UTC 2019-07-02 13:11:16
Программа кодирования : mkvmerge v35.0.0 ('All The Love In The World') 64-bit
Библиотека кодирования : libebml v1.3.9 + libmatroska v1.5.2 / Lavf57.71.100
Обложка : Yes
Примечание : Rip by OldGamer
Attachments : poster.jpg / backdrop.jpg / cover.jpg
ACTORS : Arnold Schwarzenegger, Michael Rapaport, Tony Goldwyn, Michael Rooker, Sarah Wynter, Robert Duvall, Wendy Crewson, Taylor Anne Reid, Alexandra Castillo, Steve Bacic, Wanda Cannon, Andrew McIlroy, Rodney Rowland, Terry Crews, Colin Cunningham, Ellie Harvie, Don S. Davis, Ken Pogue, Jennifer Gareis, Don McManus, Mark Brandon, Christopher Lawford, Gillian Barber, Chris Cound, Ben Bass, Walter von Huene, Hiro Kanagawa, Peter Kent, Graham Andrews
COUNTRY : United States
DATE : 2000-11-17
DIRECTOR : Roger Spottiswoode
ENCODING_INFO : MATROSKA,WEBM > MKV / H264 > X265 CRF 18.5 Very Slow
GENRE : детектив, фантастика, боевик
HD_VIDEO : 1
ITUNEXTC : PG13, PG13, PG13, PG13, PG13
Язык : und
MEDIA_TYPE : 9
ORIGINAL_TITLE : The 6th Day
PRODUCER : Jon Davison, Mike Medavoy, Arnold Schwarzenegger
PUBLISHER : Phoenix Pictures
RATING : 5.80
WRITER : Cormac Wibberley, Marianne Wibberley

Видео
Идентификатор : 1
Формат : HEVC
Формат/Информация : High Efficiency Video Coding
Профиль формата : Main 10@L4.1@High
Идентификатор кодека : V_MPEGH/ISO/HEVC
Продолжительность : 2 ч. 3 м.
Битрейт : 12,9 Мбит/сек
Ширина : 1920 пикселей
Высота : 800 пикселей
Соотношение сторон : 2,40:1
Режим частоты кадров : Постоянный
Частота кадров : 23,976 (24000/1001) кадра/сек
Цветовое пространство : YUV
Субдискретизация насыщенности : 4:2:0
Битовая глубина : 10 бит
Бит/(Пиксели*Кадры) : 0.349
Размер потока : 11,1 Гбайт (83%)
Заголовок : The 6th Day / Rip by OldGamer
Библиотека кодирования : x265 2.9+9-f74003e88622:[Windows][GCC 8.2.0][64 bit] 10bit
Настройки программы : cpuid=1111039 / frame-threads=14 / numa-pools=12 / wpp / no-pmode / no-pme / no-psnr / no-ssim / log-level=3 / input-csp=1 / input-res=1920x800 / interlace=0 / total-frames=0 / level-idc=41 / high-tier=1 / uhd-bd=0 / ref=5 / allow-non-conformance / no-repeat-headers / annexb / no-aud / no-hrd / info / hash=0 / no-temporal-layers / open-gop / min-keyint=23 / keyint=240 / gop-lookahead=0 / bframes=16 / b-adapt=2 / b-pyramid / bframe-bias=0 / rc-lookahead=60 / lookahead-slices=5 / scenecut=40 / radl=0 / no-intra-refresh / ctu=64 / min-cu-size=8 / rect / amp / max-tu-size=32 / tu-inter-depth=4 / tu-intra-depth=4 / limit-tu=1 / rdoq-level=2 / dynamic-rd=0.00 / no-ssim-rd / signhide / no-tskip / nr-intra=0 / nr-inter=0 / no-constrained-intra / no-strong-intra-smoothing / max-merge=5 / limit-refs=2 / no-limit-modes / me=3 / subme=7 / merange=57 / temporal-mvp / weightp / weightb / no-analyze-src-pics / deblock=-3:-3 / no-sao / no-sao-non-deblock / rd=6 / no-early-skip / rskip / no-fast-intra / no-tskip-fast / no-cu-lossless / no-b-intra / no-splitrd-skip / rdpenalty=0 / psy-rd=2.00 / psy-rdoq=1.00 / no-rd-refine / no-lossless / cbqpoffs=0 / crqpoffs=0 / rc=crf / crf=18.5 / qcomp=0.72 / qpstep=4 / stats-write=0 / stats-read=0 / vbv-maxrate=50000 / vbv-bufsize=50000 / vbv-init=0.9 / crf-max=0.0 / crf-min=0.0 / ipratio=1.40 / pbratio=1.30 / aq-mode=3 / aq-strength=0.80 / no-cutree / zone-count=1 / zones: / start-frame=168224 / end-frame=177747 / qp=35 / no-strict-cbr / qg-size=32 / no-rc-grain / qpmax=69 / qpmin=0 / no-const-vbv / sar=1 / overscan=0 / videoformat=5 / range=0 / colorprim=1 / transfer=1 / colormatrix=1 / chromaloc=0 / display-window=0 / max-cll=0,0 / min-luma=0 / max-luma=1023 / log2-max-poc-lsb=8 / vui-timing-info / vui-hrd-info / slices=1 / no-opt-qp-pps / no-opt-ref-list-length-pps / no-multi-pass-opt-rps / scenecut-bias=0.00 / no-opt-cu-delta-qp / aq-motion / no-hdr / no-hdr-opt / no-dhdr10-opt / no-idr-recovery-sei / analysis-reuse-level=5 / scale-factor=0 / refine-intra=0 / refine-inter=0 / refine-mv=0 / no-limit-sao / ctu-info=0 / no-lowpass-dct / refine-mv-type=0 / copy-pic=1 / max-ausize-factor=1.0 / no-dynamic-refine / no-single-sei
Язык : English
Default : Да
Forced : Нет
Цветовой диапазон : Limited
Основные цвета : BT.709
Характеристики трансфера : BT.709
Коэффициенты матрицы : BT.709

Аудио #1
Идентификатор : 2
Формат : AC-3
Формат/Информация : Audio Coding 3
Коммерческое название : Dolby Digital
Идентификатор кодека : A_AC3
Продолжительность : 2 ч. 3 м.
Вид битрейта : Постоянный
Битрейт : 448 Кбит/сек
Каналы : 6 каналов
Channel layout : L R C LFE Ls Rs
Частота : 48,0 КГц
Частота кадров : 31,250 кадров/сек (1536 SPF)
Битовая глубина : 16 бит
Метод сжатия : С потерями
Размер потока : 396 Мбайт (3%)
Заголовок : Dub [BD CEE]
Язык : Russian
ServiceKind/String : Complete Main
Default : Да
Forced : Нет

Аудио #2
Идентификатор : 3
Формат : AC-3
Формат/Информация : Audio Coding 3
Коммерческое название : Dolby Digital
Идентификатор кодека : A_AC3
Продолжительность : 2 ч. 3 м.
Вид битрейта : Постоянный
Битрейт : 448 Кбит/сек
Каналы : 6 каналов
Channel layout : L R C LFE Ls Rs
Частота : 48,0 КГц
Частота кадров : 31,250 кадров/сек (1536 SPF)
Битовая глубина : 16 бит
Метод сжатия : С потерями
Размер потока : 396 Мбайт (3%)
Заголовок : MVO [Карусель]
Язык : Russian
ServiceKind/String : Complete Main
Default : Нет
Forced : Нет

Аудио #3
Идентификатор : 4
Формат : AC-3
Формат/Информация : Audio Coding 3
Коммерческое название : Dolby Digital
Идентификатор кодека : A_AC3
Продолжительность : 2 ч. 3 м.
Вид битрейта : Постоянный
Битрейт : 448 Кбит/сек
Каналы : 6 каналов
Channel layout : L R C LFE Ls Rs
Частота : 48,0 КГц
Частота кадров : 31,250 кадров/сек (1536 SPF)
Битовая глубина : 16 бит
Метод сжатия : С потерями
Размер потока : 396 Мбайт (3%)
Заголовок : MVO [DVD R7]
Язык : Russian
ServiceKind/String : Complete Main
Default : Нет
Forced : Нет

Аудио #4
Идентификатор : 5
Формат : AC-3
Формат/Информация : Audio Coding 3
Коммерческое название : Dolby Digital
Идентификатор кодека : A_AC3
Продолжительность : 2 ч. 3 м.
Вид битрейта : Постоянный
Битрейт : 448 Кбит/сек
Каналы : 6 каналов
Channel layout : L R C LFE Ls Rs
Частота : 48,0 КГц
Частота кадров : 31,250 кадров/сек (1536 SPF)
Битовая глубина : 16 бит
Метод сжатия : С потерями
Размер потока : 396 Мбайт (3%)
Заголовок : AVO [Андрей Гаврилов]
Язык : Russian
ServiceKind/String : Complete Main
Default : Нет
Forced : Нет

Аудио #5
Идентификатор : 6
Формат : AC-3
Формат/Информация : Audio Coding 3
Коммерческое название : Dolby Digital
Идентификатор кодека : A_AC3
Продолжительность : 2 ч. 3 м.
Вид битрейта : Постоянный
Битрейт : 448 Кбит/сек
Каналы : 6 каналов
Channel layout : L R C LFE Ls Rs
Частота : 48,0 КГц
Частота кадров : 31,250 кадров/сек (1536 SPF)
Битовая глубина : 16 бит
Метод сжатия : С потерями
Размер потока : 396 Мбайт (3%)
Заголовок : AVO [Юрий Живов]
Язык : Russian
ServiceKind/String : Complete Main
Default : Нет
Forced : Нет

Аудио #6
Идентификатор : 7
Формат : AC-3
Формат/Информация : Audio Coding 3
Коммерческое название : Dolby Digital
Идентификатор кодека : A_AC3
Продолжительность : 2 ч. 3 м.
Вид битрейта : Постоянный
Битрейт : 448 Кбит/сек
Каналы : 6 каналов
Channel layout : L R C LFE Ls Rs
Частота : 48,0 КГц
Частота кадров : 31,250 кадров/сек (1536 SPF)
Битовая глубина : 16 бит
Метод сжатия : С потерями
Размер потока : 396 Мбайт (3%)
Язык : English
ServiceKind/String : Complete Main
Default : Нет
Forced : Нет

Текст #1
Идентификатор : 8
Формат : UTF-8
Идентификатор кодека : S_TEXT/UTF8
Идентификатор кодека/Информация : UTF-8 Plain Text
Продолжительность : 1 ч. 55 м.
Битрейт : 96 бит/сек
ElementCount : 1448
Размер потока : 81,4 Кбайт (0%)
Язык : Russian
Default : Нет
Forced : Нет

Текст #2
Идентификатор : 9
Формат : UTF-8
Идентификатор кодека : S_TEXT/UTF8
Идентификатор кодека/Информация : UTF-8 Plain Text
Продолжительность : 1 ч. 55 м.
Битрейт : 96 бит/сек
ElementCount : 1448
Размер потока : 81,4 Кбайт (0%)
Заголовок : v4
Язык : Russian
Default : Нет
Forced : Нет

Текст #3
Идентификатор : 10
Формат : UTF-8
Идентификатор кодека : S_TEXT/UTF8
Идентификатор кодека/Информация : UTF-8 Plain Text
Продолжительность : 1 ч. 53 м.
Битрейт : 54 бит/сек
ElementCount : 1408
Размер потока : 45,1 Кбайт (0%)
Язык : English
Default : Нет
Forced : Нет

Меню
00:00:00.000 : :Chapter 01
00:08:25.755 : :Chapter 02
00:15:00.107 : :Chapter 03
00:18:35.656 : :Chapter 04
00:23:12.724 : :Chapter 05
00:31:23.214 : :Chapter 06
00:38:44.405 : :Chapter 07
00:45:13.085 : :Chapter 08
00:54:19.839 : :Chapter 09
00:58:22.874 : :Chapter 10
01:10:09.288 : :Chapter 11
01:15:44.873 : :Chapter 12
01:24:10.754 : :Chapter 13
01:33:41.490 : :Chapter 14
01:41:33.378 : :Chapter 15
01:49:20.679 : :Chapter 16
Cкриншот1 Шестой день / The 6th Day (2000) BDRip 1080p [HEVC] 10 bit от OldGamer
Загружается...
Cкриншот2 Шестой день / The 6th Day (2000) BDRip 1080p [HEVC] 10 bit от OldGamer
Загружается...
Cкриншот3 Шестой день / The 6th Day (2000) BDRip 1080p [HEVC] 10 bit от OldGamer
Загружается...
Cкриншот4 Шестой день / The 6th Day (2000) BDRip 1080p [HEVC] 10 bit от OldGamer
Загружается...
СэмплТоррентМагнет

Кнопки "Позвать в чате", "Спасибо" и "Пожертвование" доступны только зарегистрированным/авторизованным пользователям!

Поблагодарили: 18
375509, alexyak, atletik1994, Brooklyn, diesel0000, Gadzilla 2019, Gudaber, inoy, Ivan Zhukov, ivs5, Kaban, mihailmvv, SAVOYAR, shurang, SoulBoy, SYNC80001, vladd37, Зикзак
02.07.2019  17:17:26
1
1074
3
1
13.43 ГБ

Добавление нового комментария

Добавление комментариев доступно только зарегистрированным/авторизованным пользователям.
Аватар Dmitrrry
  Dmitrrry  02.07.2019  20:26:26
наконец-то приличный битрейт. SNX