Обложка Звезда родилась / A Star Is Born (2018) BDRip 1080p [HEVC] 10 bit от HANNIBALОбложка Мир Юрского периода: Дилогия / Jurassic World: Dilogy (2015-2018) BDRip 1080p [HEVC] 10 bit от Mr. FoxОбложка Капитан Марвел / Captain Marvel (2019) BDRip 1080p [HEVC] 10 bit от HANNIBALОбложка Чёрная Пантера / Black Panther (2018) BDRip 1080p [HEVC] 10 bit от CthulhuОбложка Щелкунчик и четыре королевства / The Nutcracker and the Four Realms (2018) BDRip 1080p [HEVC] 10 bit от M@kSIMusОбложка Снегоуборщик / Cold Pursuit (2019) BDRip 1080p [HEVC] 10 bit от HANNIBALОбложка 8 подруг Оушена / Ocean's Eight (2018) BDRip 1080p [HEVC] 10 bit от druidblackОбложка Багровая мята / Peppermint (2018) BDRip 1080p [HEVC] 10 bit от HANNIBALОбложка Наркокурьер / The Mule (2018) BDRip 1080p [HEVC] 10 bit от HANNIBALОбложка Излом времени / A Wrinkle in Time (2018) BDRip 1080p [HEVC] 10 bit от M@kSIMus

Авторизация

Смена пароля

captcha

Регистрация

captcha

🔍 Поиск

Мини-чат

(19:28)dixen18: Доброго вечера всем) Скажите а по странам тут нельзя сортировку делать да?
(19:36)OldGamer: dixen18, нет
(20:03)dixen18: OldGamer, ну ничего страшного)
(22:08)PRO-USTAS: привет админ такая идея а можно сделать сортировку по пользевателям типа фильмы только от Mr. Fox и тогдалия
(23:41)Kaban: PRO-USTAS, можно ввести в поиске вместо фильма логин аплоадера и в результате вам выдаст все его раздачи
(10:13)Temir_Nator: Всем привет)) А бывают раздачи в OPEN MATE формате?))) Если есть возможность, делайте и OPEN MATE)))
(10:29)OldGamer: Бывают
(11:22)Kaban: OldGamer, но редко)
(12:32)Temir_Nator: Жаль :(
(14:18)Ярослав: День добрый всем. Александра (Финальная версия) поможет кто раздать?
(14:18)Ярослав: https://hevc-club.video/video-1388/
(14:24)OldGamer: Может Джокер попозже заглянет, его релиз
(20:05)GrandConvoy: Раздайте, пожалуйста, Хищник 2 / Predator 2 (1990) BDRip 1080p [HEVC] 10 bit от HANNIBAL
(23:24)joker63: Ярослав, Перекачай торрент файл по новому,я обновил раздачу постою на ней немного.Ночью не стою.
(19:06)Ярослав: GrandConvoy, Встал на раздачу.
(19:50)GrandConvoy: Раздайте, пожалуйста, Хищник 2 / Predator 2 (1990) BDRip 1080p [HEVC] 10 bit от HANNIBAL
(19:51)GrandConvoy: ЯрославЯрослав, Что то не скачивается(
(19:51)GrandConvoy: Привет
(19:51)GrandConvoy: У меня на NAS торент стоит уже второй день( Загрузки нет(
  • OldGamer
  • denisptp4
  • DjBadan
  • Drrean
  • ivs5
  • Kaban
  • Арман
Онлайн: 7
Отправка сообщений доступно только зарегистрированным/авторизованным пользователям.

Возвращение героя / The Last Stand (2013) [US-transfer] BDRip 1080p [HEVC] 10 bit от OldGamer

HEVC
10 bit
Обложка Возвращение героя / The Last Stand (2013) [US-transfer] BDRip 1080p [HEVC] 10 bit от OldGamer Год: 2013
Страна: США
Студия: Lionsgate, di Bonaventura Pictures
Жанр: Боевик, Триллер
Продолжительность: 01:47:13

Режиссер: Ким Джи-ун
В ролях: Арнольд Шварценеггер, Форест Уитакер, Джонни Ноксвил, Родриго Санторо, Джейми Александер, Луис Гусман, Эдуардо Норьега, Петер Стормаре, Зак Гилфорд, Дженезис Родригез

Описание: Самый опасный и жестокий наркоторговец сбегает из-под конвоя ФБР, и прихватив заложника, мчится на спорткаре к мексиканской границе. У него на пути стоит лишь тихий городок, за порядком в котором следит шериф Оуенс. Когда-то он был одним из лучших полицейских Лос-Анджелеса, но сбежал в глушь и тишину от уродств большого города. И теперь шериф Оуэнс — последний заслон на пути преступника.


6.62940045
6.3
128097


Формат: MKV
Видео: 1920x800 (2,40:1), 5961 кбит/сек, 0.162 бит/(Пиксели*Кадры), 23,976 (24000/1001) кадра/сек, HEVC (Main 10@L4.1@High) 10 бит
Аудио1: AC3, 6 ch, 640 Kbps -
Русский, Дублированный (Студия "Пифагор")

Аудио2: AC3, 6 ch, 448 Kbps -
Русский, Авторский (Андрей Гаврилов)

Аудио3: AC3, 6 ch, 448 Kbps -
Русский, Авторский (Василий Горчаков)

Аудио4: AC3, 6 ch, 448 Kbps -
Русский, Авторский (Леонид Володарский)

Аудио5: AC3, 6 ch, 640 Kbps -
English, Original

Субтитры: Русские форсированные и полные (SRT), English full (SRT)

Как за пару секунд удалить ненужные аудиодорожки и субтитры (Внимание! После удаления вы не сможете поддержать раздачу)

Медиаинфо
x265 info: frame I: 648, Avg QP:16.14 kb/s: 16604.39
x265 info: frame P: 35557, Avg QP:17.81 kb/s: 10740.28
x265 info: frame B: 118038, Avg QP:19.83 kb/s: 4462.20
x265 info: Weighted P-Frames: Y:5.7% UV:4.7%
x265 info: Weighted B-Frames: Y:6.4% UV:5.1%
x265 info: consecutive B-frames: 14.4% 10.1% 10.3% 28.6% 10.3% 14.4% 3.2% 3.2% 1.6% 1.2% 0.7% 1.1% 0.3% 0.2% 0.4%
x265 info: encoded 154243 frames in 199624.87s (0.77 fps), 5960.47 kb/s, Avg QP:19.35

Формат : Matroska
Версия формата : Version 4
Размер файла : 6,43 Гбайт
Продолжительность : 1 ч. 47 м.
Общий поток : 8589 Кбит/сек
Название фильма : Возвращение героя
Описание : Самая опасная и жестокая банда наркоторговцев сбегает из-под конвоя ФБР. Прихватив заложника, они мчатся к мексиканской границе на бронированной, оснащенной первоклассным вооружением машине. У них на пути стоит лишь тихий городок, за порядком в котором следит шериф Оуенс. Когда-то он был одним из лучших полицейских Лос-Анджелеса, теперь он вернулся.
Дата кодирования : UTC 2019-07-06 12:00:02
Программа кодирования : mkvmerge v35.0.0 ('All The Love In The World') 64-bit
Библиотека кодирования : libebml v1.3.9 + libmatroska v1.5.2 / Lavf57.71.100
Примечание : Rip by OldGamer
Attachments : poster.jpg / backdrop.jpg
ACTORS : Arnold Schwarzenegger, Forest Whitaker, Rodrigo Santoro, Johnny Knoxville, Jaimie Alexander, Luis Guzmán, Peter Stormare, Génesis Rodríguez, Zach Gilford, John Patrick Amedori, Daniel Henney, Eduardo Noriega, Christiana Leucas, Harry Dean Stanton, Kristen Rakes, Diana R. Lupo, Billy Blair, Titos Menchaca
COUNTRY : United States
DATE : 2013-01-12
DIRECTOR : Kim Jee-woon
ENCODING_INFO : MATROSKA,WEBM > MKV / H264 > X265 CRF 18.8 Very Slow / DTS > AC3 CBR 864kbps / DTS > AC3 CBR 864kbps
GENRE : Боевик, Криминал, Триллер
HD_VIDEO : 1
ITUNEXTC : mpaa|R|400|
Язык : und
MEDIA_TYPE : 9
ORIGINAL_TITLE : The Last Stand
PRODUCER : Lorenzo Di Bonaventura
PUBLISHER : Di Bonaventura Pictures
RATING : 5.90
WRITER : Andrew Knauer

Видео
Идентификатор : 1
Формат : HEVC
Формат/Информация : High Efficiency Video Coding
Профиль формата : Main 10@L4.1@High
Идентификатор кодека : V_MPEGH/ISO/HEVC
Продолжительность : 1 ч. 47 м.
Битрейт : 5961 Кбит/сек
Ширина : 1920 пикселей
Высота : 800 пикселей
Соотношение сторон : 2,40:1
Режим частоты кадров : Постоянный
Частота кадров : 23,976 (24000/1001) кадра/сек
Цветовое пространство : YUV
Субдискретизация насыщенности : 4:2:0
Битовая глубина : 10 бит
Бит/(Пиксели*Кадры) : 0.162
Размер потока : 4,46 Гбайт (69%)
Заголовок : The Last Stand / Rip by OldGamer
Библиотека кодирования : x265 2.9+9-f74003e88622:[Mac OS X][clang 10.0.0][64 bit] 10bit
Настройки программы : cpuid=1111039 / frame-threads=14 / wpp / no-pmode / no-pme / no-psnr / no-ssim / log-level=3 / input-csp=1 / input-res=1920x800 / interlace=0 / total-frames=0 / level-idc=41 / high-tier=1 / uhd-bd=0 / ref=5 / allow-non-conformance / no-repeat-headers / annexb / no-aud / no-hrd / info / hash=0 / no-temporal-layers / open-gop / min-keyint=23 / keyint=240 / gop-lookahead=0 / bframes=14 / b-adapt=2 / b-pyramid / bframe-bias=0 / rc-lookahead=60 / lookahead-slices=5 / scenecut=40 / radl=0 / no-intra-refresh / ctu=64 / min-cu-size=8 / rect / amp / max-tu-size=32 / tu-inter-depth=4 / tu-intra-depth=4 / limit-tu=1 / rdoq-level=2 / dynamic-rd=0.00 / no-ssim-rd / signhide / no-tskip / nr-intra=0 / nr-inter=0 / no-constrained-intra / no-strong-intra-smoothing / max-merge=5 / limit-refs=2 / no-limit-modes / me=3 / subme=7 / merange=57 / temporal-mvp / weightp / weightb / no-analyze-src-pics / deblock=-3:-3 / no-sao / no-sao-non-deblock / rd=6 / no-early-skip / rskip / no-fast-intra / no-tskip-fast / no-cu-lossless / no-b-intra / no-splitrd-skip / rdpenalty=0 / psy-rd=2.00 / psy-rdoq=1.00 / no-rd-refine / no-lossless / cbqpoffs=0 / crqpoffs=0 / rc=crf / crf=18.8 / qcomp=0.70 / qpstep=4 / stats-write=0 / stats-read=0 / vbv-maxrate=50000 / vbv-bufsize=50000 / vbv-init=0.9 / crf-max=0.0 / crf-min=0.0 / ipratio=1.40 / pbratio=1.30 / aq-mode=3 / aq-strength=0.70 / no-cutree / zone-count=1 / zones: / start-frame=144795 / end-frame=154243 / qp=35 / no-strict-cbr / qg-size=32 / no-rc-grain / qpmax=69 / qpmin=0 / no-const-vbv / sar=1 / overscan=0 / videoformat=5 / range=0 / colorprim=2 / transfer=2 / colormatrix=2 / chromaloc=0 / display-window=0 / max-cll=0,0 / min-luma=0 / max-luma=1023 / log2-max-poc-lsb=8 / vui-timing-info / vui-hrd-info / slices=1 / no-opt-qp-pps / no-opt-ref-list-length-pps / no-multi-pass-opt-rps / scenecut-bias=0.00 / no-opt-cu-delta-qp / aq-motion / no-hdr / no-hdr-opt / no-dhdr10-opt / no-idr-recovery-sei / analysis-reuse-level=5 / scale-factor=0 / refine-intra=0 / refine-inter=0 / refine-mv=0 / no-limit-sao / ctu-info=0 / no-lowpass-dct / refine-mv-type=0 / copy-pic=1 / max-ausize-factor=1.0 / no-dynamic-refine / no-single-sei
Язык : English
Default : Да
Forced : Нет
Цветовой диапазон : Limited

Аудио #1
Идентификатор : 2
Формат : AC-3
Формат/Информация : Audio Coding 3
Коммерческое название : Dolby Digital
Идентификатор кодека : A_AC3
Продолжительность : 1 ч. 47 м.
Вид битрейта : Постоянный
Битрейт : 640 Кбит/сек
Каналы : 6 каналов
Channel layout : L R C LFE Ls Rs
Частота : 48,0 КГц
Частота кадров : 31,250 кадров/сек (1536 SPF)
Битовая глубина : 16 бит
Метод сжатия : С потерями
Размер потока : 491 Мбайт (7%)
Заголовок : Дублированный (Студия "Пифагор")
Язык : Russian
ServiceKind/String : Complete Main
Default : Да
Forced : Нет

Аудио #2
Идентификатор : 3
Формат : AC-3
Формат/Информация : Audio Coding 3
Коммерческое название : Dolby Digital
Идентификатор кодека : A_AC3
Продолжительность : 1 ч. 47 м.
Вид битрейта : Постоянный
Битрейт : 448 Кбит/сек
Каналы : 6 каналов
Channel layout : L R C LFE Ls Rs
Частота : 48,0 КГц
Частота кадров : 31,250 кадров/сек (1536 SPF)
Битовая глубина : 16 бит
Метод сжатия : С потерями
Размер потока : 344 Мбайт (5%)
Заголовок : Авторский (Aндрей Гаврилов)
Язык : Russian
ServiceKind/String : Complete Main
Default : Нет
Forced : Нет

Аудио #3
Идентификатор : 4
Формат : AC-3
Формат/Информация : Audio Coding 3
Коммерческое название : Dolby Digital
Идентификатор кодека : A_AC3
Продолжительность : 1 ч. 47 м.
Вид битрейта : Постоянный
Битрейт : 448 Кбит/сек
Каналы : 6 каналов
Channel layout : L R C LFE Ls Rs
Частота : 48,0 КГц
Частота кадров : 31,250 кадров/сек (1536 SPF)
Битовая глубина : 16 бит
Метод сжатия : С потерями
Размер потока : 344 Мбайт (5%)
Заголовок : Авторский (Василий Горчаков)
Язык : Russian
ServiceKind/String : Complete Main
Default : Нет
Forced : Нет

Аудио #4
Идентификатор : 5
Формат : AC-3
Формат/Информация : Audio Coding 3
Коммерческое название : Dolby Digital
Идентификатор кодека : A_AC3
Продолжительность : 1 ч. 47 м.
Вид битрейта : Постоянный
Битрейт : 448 Кбит/сек
Каналы : 6 каналов
Channel layout : L R C LFE Ls Rs
Частота : 48,0 КГц
Частота кадров : 31,250 кадров/сек (1536 SPF)
Битовая глубина : 16 бит
Метод сжатия : С потерями
Размер потока : 344 Мбайт (5%)
Заголовок : Авторский (Леонид Володарский)
Язык : Russian
ServiceKind/String : Complete Main
Default : Нет
Forced : Нет

Аудио #5
Идентификатор : 6
Формат : AC-3
Формат/Информация : Audio Coding 3
Коммерческое название : Dolby Digital
Идентификатор кодека : A_AC3
Продолжительность : 1 ч. 47 м.
Вид битрейта : Постоянный
Битрейт : 640 Кбит/сек
Каналы : 6 каналов
Channel layout : L R C LFE Ls Rs
Частота : 48,0 КГц
Частота кадров : 31,250 кадров/сек (1536 SPF)
Битовая глубина : 16 бит
Метод сжатия : С потерями
Размер потока : 491 Мбайт (7%)
Заголовок : Original
Язык : English
ServiceKind/String : Complete Main
Default : Нет
Forced : Нет

Текст #1
Идентификатор : 7
Формат : UTF-8
Идентификатор кодека : S_TEXT/UTF8
Идентификатор кодека/Информация : UTF-8 Plain Text
Продолжительность : 1 ч. 7 м.
Битрейт : 0 бит/сек
ElementCount : 14
Размер потока : 352 байт (0%)
Заголовок : Rus forced
Язык : Russian
Default : Нет
Forced : Нет

Текст #2
Идентификатор : 8
Формат : UTF-8
Идентификатор кодека : S_TEXT/UTF8
Идентификатор кодека/Информация : UTF-8 Plain Text
Продолжительность : 1 ч. 37 м.
Битрейт : 68 бит/сек
ElementCount : 1072
Размер потока : 49,0 Кбайт (0%)
Заголовок : Rus full
Язык : Russian
Default : Нет
Forced : Нет

Текст #3
Идентификатор : 9
Формат : UTF-8
Идентификатор кодека : S_TEXT/UTF8
Идентификатор кодека/Информация : UTF-8 Plain Text
Продолжительность : 1 ч. 37 м.
Битрейт : 45 бит/сек
ElementCount : 1197
Размер потока : 32,2 Кбайт (0%)
Заголовок : Eng
Язык : English
Default : Нет
Forced : Нет

Меню
00:00:00.000 : :Chapter 01
00:03:57.028 : :Chapter 02
00:13:09.955 : :Chapter 03
00:18:55.759 : :Chapter 04
00:25:51.508 : :Chapter 05
00:30:48.888 : :Chapter 06
00:36:10.835 : :Chapter 07
00:47:04.029 : :Chapter 08
00:50:23.311 : :Chapter 09
00:59:50.336 : :Chapter 10
01:07:37.470 : :Chapter 11
01:14:32.426 : :Chapter 12
01:21:47.027 : :Chapter 13
01:25:38.007 : :Chapter 14
01:28:49.907 : :Chapter 15
01:34:31.332 : :Chapter 16
Cкриншот1 Возвращение героя / The Last Stand (2013) [US-transfer] BDRip 1080p [HEVC] 10 bit от OldGamer
Загружается...
Cкриншот2 Возвращение героя / The Last Stand (2013) [US-transfer] BDRip 1080p [HEVC] 10 bit от OldGamer
Загружается...
Cкриншот3 Возвращение героя / The Last Stand (2013) [US-transfer] BDRip 1080p [HEVC] 10 bit от OldGamer
Загружается...
Cкриншот4 Возвращение героя / The Last Stand (2013) [US-transfer] BDRip 1080p [HEVC] 10 bit от OldGamer
Загружается...
СэмплТоррентМагнет

Кнопки "Позвать в чате", "Спасибо" и "Пожертвование" доступны только зарегистрированным/авторизованным пользователям!

Поблагодарили: 18
375509, Alex302, and50, aorfelinov, Brooklyn, curly2, Dmitrrry, FijiMAX, grudich, inoy, ivan_1965, ivs5, kapitan, ko1ob, ramzes, Shuzer, stas67, VardO
06.07.2019  15:12:44
0
1275
6
0
6.43 ГБ

Добавление нового комментария

Добавление комментариев доступно только зарегистрированным/авторизованным пользователям.