Регистрация / Смена пароля

💬 Мини-чат

moonson: Alex302, ну, сообственно туда всем нашим врагам и дорога. Жалко только враг Жан-Поля застрял на 16 % и ни туда, и ни сюда 😄
Alex302: moonson, труп вашего врага растащило вороньё)
  • OldGamer
  • brukvalub
  • garant3v
  • Jonny3387
  • mas2807
  • phillip
  • pmihail99
Отправка сообщений доступно только зарегистрированным/авторизованным пользователям.
Онлайн (за 10 мин.): 7

Мёбиус / Mobius (2013) BDRip 1080p [HEVC] 10 bit от Spartanec1308

HEVC
10 bit
Обложка Мёбиус / Mobius (2013) BDRip 1080p [HEVC] 10 bit от Spartanec1308 Год: 2013
Страна: Франция, Бельгия, Люксембург
Студия: 13ème Rue, Artémis Productions, Axel Films, Belfius, Belgacom, Bruxelles Capitale, Canal+ [fr]
Жанр: Драма, Триллер
Продолжительность: 01:48:13

Режиссер: Эрик Рошан
В ролях: Жан Дюжарден, Сесиль Де Франс, Эмили Декьенн, Алексей Горбунов, Владимир Меньшов, Тим Рот, Джон Линч, Бранка Катич, Дин Константин Гэйгани, Дмитрий Назаров

Описание: Жестокий и хладнокровный офицер с мрачным характером и проницательным умом, тайный агент ФСБ по кличке Моисей, ведет дело крупного российского олигарха, которого подозревают в фантастических финансовых махинациях. Кажется, он уже наступил на хвост змеи, но тут в его жизнь врывается страсть. Он, никогда в жизни не знавший нежных чувств, влюбляется в Алису, работающую трейдером в банковской структуре преступного олигарха. Что будет утром, когда окончится горячая любовная ночь?

КиноПоиск
6.264 8320
IMDb
6.1
5049


Видео: 1920x800, 15,0 Мбит/сек
Аудио1: AC3, 6 ch, 384 Kbps -
Русский, Дублированный (Лицензия)
Аудио2: AC3, 6 ch, 448 Kbps -
Французский, Оригинал
Субтитры: Нет

Как за пару секунд удалить ненужные аудиодорожки и субтитры (Внимание! После удаления вы не сможете поддержать раздачу)

Медиаинфо
Общее
Уникальный идентификатор : 219999929595961394466019349708286068066 (0xA58271F9C10A4EFC6B2ECF65382E0562)
Полное имя : E:\Торенты\Mobius_2013_BDRip_1080p_[HEVC]_10bit_by Spartanec1308.mkv
Формат : Matroska
Версия формата : Version 4
Размер файла : 12,0 Гбайт
Продолжительность : 1 ч. 48 м.
Общий поток : 15,8 Мбит/сек
Название фильма : Mobius 2013 by Spartanec1308
Дата кодирования : UTC 2019-06-01 14:20:47
Программа кодирования : mkvmerge v25.0.0 ('Prog Noir') 64-bit
Библиотека кодирования : libebml v1.3.6 + libmatroska v1.4.9
Обложка : Yes
Attachments : cover.jpg

Видео
Идентификатор : 1
Формат : HEVC
Формат/Информация : High Efficiency Video Coding
Профиль формата : Main 10@L4.1@High
Идентификатор кодека : V_MPEGH/ISO/HEVC
Продолжительность : 1 ч. 48 м.
Битрейт : 15,0 Мбит/сек
Ширина : 1920 пикселей
Высота : 800 пикселей
Соотношение сторон : 2,40:1
Режим частоты кадров : Постоянный
Частота кадров : 24,000 кадра/сек
Цветовое пространство : YUV
Субдискретизация насыщенности : 4:2:0
Битовая глубина : 10 бит
Бит/(Пиксели*Кадры) : 0.407
Размер потока : 11,3 Гбайт (95%)
Библиотека кодирования : x265 2.8+66-88ee12651e30:[Windows][MSVC 1900][64 bit] 10bit
Настройки программы : cpuid=1111039 / frame-threads=4 / numa-pools=16 / wpp / no-pmode / no-pme / no-psnr / no-ssim / log-level=2 / input-csp=1 / input-res=1920x800 / interlace=0 / total-frames=155833 / level-idc=41 / high-tier=1 / uhd-bd=0 / ref=5 / no-allow-non-conformance / no-repeat-headers / annexb / no-aud / no-hrd / info / hash=0 / no-temporal-layers / open-gop / min-keyint=24 / keyint=240 / gop-lookahead=0 / bframes=16 / b-adapt=2 / b-pyramid / bframe-bias=0 / rc-lookahead=60 / lookahead-slices=0 / scenecut=40 / radl=0 / no-intra-refresh / ctu=32 / min-cu-size=8 / rect / amp / max-tu-size=32 / tu-inter-depth=4 / tu-intra-depth=4 / limit-tu=1 / rdoq-level=1 / dynamic-rd=0.00 / no-ssim-rd / signhide / tskip / nr-intra=0 / nr-inter=0 / no-constrained-intra / no-strong-intra-smoothing / max-merge=5 / limit-refs=1 / limit-modes / me=3 / subme=7 / merange=57 / temporal-mvp / weightp / weightb / no-analyze-src-pics / deblock=-3:-3 / no-sao / no-sao-non-deblock / rd=6 / no-early-skip / no-rskip / no-fast-intra / no-tskip-fast / no-cu-lossless / b-intra / no-splitrd-skip / rdpenalty=0 / psy-rd=1.00 / psy-rdoq=1.00 / no-rd-refine / no-lossless / cbqpoffs=-2 / crqpoffs=-2 / rc=crf / crf=19.0 / qcomp=0.60 / qpstep=4 / stats-write=0 / stats-read=0 / vbv-maxrate=50000 / vbv-bufsize=50000 / vbv-init=0.9 / crf-max=0.0 / crf-min=0.0 / ipratio=1.40 / pbratio=1.30 / aq-mode=1 / aq-strength=0.70 / no-cutree / zone-count=1 / zones: / start-frame=149307 / end-frame=155833 / qp=36 / no-strict-cbr / qg-size=32 / no-rc-grain / qpmax=69 / qpmin=0 / no-const-vbv / sar=1 / overscan=0 / videoformat=5 / range=0 / colorprim=1 / transfer=1 / colormatrix=1 / chromaloc=0 / display-window=0 / max-cll=0,0 / min-luma=0 / max-luma=1023 / log2-max-poc-lsb=8 / vui-timing-info / vui-hrd-info / slices=1 / no-opt-qp-pps / no-opt-ref-list-length-pps / no-multi-pass-opt-rps / scenecut-bias=0.05 / no-opt-cu-delta-qp / no-aq-motion / no-hdr / no-hdr-opt / no-dhdr10-opt / no-idr-recovery-sei / analysis-reuse-level=5 / scale-factor=0 / refine-intra=0 / refine-inter=0 / refine-mv=0 / no-limit-sao / ctu-info=0 / no-lowpass-dct / refine-mv-type=0 / copy-pic=1 / max-ausize-factor=1.0 / no-dynamic-refine / no-single-sei
Default : Да
Forced : Нет
Цветовой диапазон : Limited
Основные цвета : BT.709
Характеристики трансфера : BT.709
Коэффициенты матрицы : BT.709

Аудио #1
Идентификатор : 2
Формат : AC-3
Формат/Информация : Audio Coding 3
Коммерческое название : Dolby Digital
Идентификатор кодека : A_AC3
Продолжительность : 1 ч. 48 м.
Вид битрейта : Постоянный
Битрейт : 384 Кбит/сек
Каналы : 6 каналов
Channel layout : L R C LFE Ls Rs
Частота : 48,0 КГц
Частота кадров : 31,250 кадров/сек (1536 SPF)
Битовая глубина : 16 бит
Метод сжатия : С потерями
Размер потока : 297 Мбайт (2%)
Заголовок : DUB R5
Язык : Russian
ServiceKind/String : Complete Main
Default : Да
Forced : Нет

Аудио #2
Идентификатор : 3
Формат : AC-3
Формат/Информация : Audio Coding 3
Коммерческое название : Dolby Digital
Идентификатор кодека : A_AC3
Продолжительность : 1 ч. 48 м.
Вид битрейта : Постоянный
Битрейт : 448 Кбит/сек
Каналы : 6 каналов
Channel layout : L R C LFE Ls Rs
Частота : 48,0 КГц
Частота кадров : 31,250 кадров/сек (1536 SPF)
Битовая глубина : 16 бит
Метод сжатия : С потерями
Размер потока : 347 Мбайт (3%)
Заголовок : Original
Язык : French
ServiceKind/String : Complete Main
Default : Нет
Forced : Нет

Меню
00:00:00.000 : en:Chapter 00
00:07:23.083 : en:Chapter 01
00:10:34.833 : en:Chapter 02
00:13:58.666 : en:Chapter 03
00:24:26.791 : en:Chapter 04
00:39:36.166 : en:Chapter 05
00:47:42.500 : en:Chapter 06
00:55:48.416 : en:Chapter 07
01:07:19.250 : en:Chapter 08
01:21:07.708 : en:Chapter 09
01:27:09.125 : en:Chapter 10
01:43:42.791 : en:Chapter 11
Cкриншот1 Мёбиус / Mobius (2013) BDRip 1080p [HEVC] 10 bit от Spartanec1308
Загружается...
Cкриншот2 Мёбиус / Mobius (2013) BDRip 1080p [HEVC] 10 bit от Spartanec1308
Загружается...
Cкриншот3 Мёбиус / Mobius (2013) BDRip 1080p [HEVC] 10 bit от Spartanec1308
Загружается...
Cкриншот4 Мёбиус / Mobius (2013) BDRip 1080p [HEVC] 10 bit от Spartanec1308
Загружается...
Сэмпл Торрент🧲 Магнет

Кнопки "Позвать в чате" и "Спасибо" доступны только зарегистрированным/авторизованным пользователям!

Файлы: 1
  • Mobius_2013_BDRip_1080p_[HEVC]_10bit_by Spartanec1308.mkv   11.98 ГБ
Поблагодарили: 14
375509, brukvalub, Chance, crash, davidoff_k4, Dmitrrry, gambit2008, inoy, kapitan, Nuclear70, Remontaz, SaN161NeK, serg1962, SYNC80001
Spartanec1308
0940011.98 ГБ

Добавление нового комментария

Добавление комментариев доступно только зарегистрированным/авторизованным пользователям.