Регистрация / Смена пароля

💬 Мини-чат

(Сегодня) XuMuK: awesomeptaxa, handbrake устарел года 2 назад, vidcoder - однокнопочный конвертер
(Сегодня) ADVOKAT69: joker63, ✋
(Сегодня) OldGamer: joker63, ✋
(Сегодня) joker63: ADVOKAT69, Spartanec1308, OldGamer, ✋
(Сегодня) OldGamer: ADVOKAT69, ✋
(Сегодня) Spartanec1308: ADVOKAT69, ✋
(Сегодня) ADVOKAT69: OldGamer, Spartanec1308, ✋
(08.04.2020) Spartanec1308: joker63, ✋
(08.04.2020) joker63: HANNIBAL, ✋
(08.04.2020) joker63: Spartanec1308, ✋
(08.04.2020) Spartanec1308: ADVOKAT69, ✋
(08.04.2020) OldGamer: joker63, ✋
(08.04.2020) joker63: ADVOKAT69, OldGamer, ✋
(08.04.2020) OldGamer: rodina_45, эта раздача будет переделана, старую раздавать не будут
(08.04.2020) Laska020489: NoMaD, я всё равно не понимаю разницу рипованый и тех что выложены по одиночке, можно подумать что по одиночке не рипы, да какая разница? на мой взгляд что там что там - оба рипы. кодеки тоже одинаковые. так зачем ждать месяцами? фильм он и в африке фильм. мне вот проще скачать сразу уже готовую коллекцию. как по мне качество тоже отличное хоть и на видюхе.
(08.04.2020) awesomeptaxa: ADVOKAT69, спасибо
(08.04.2020) ADVOKAT69: awesomeptaxa, https://rutracker.org/forum/viewtopic.php?t=4733376
(08.04.2020) awesomeptaxa: т.е. пресеты
(08.04.2020) ADVOKAT69: joker63, Spartanec1308, ✋
(08.04.2020) awesomeptaxa: риперы, можно ли делать рип опираясь на стандартные настройки программы через которую рипую (handbrake, vidcoder), или нужно самому вручную выставлять настройки?
  • OldGamer
  • CarbitM
  • DKV
  • Laska020489
Отправка сообщений доступно только зарегистрированным/авторизованным пользователям.
Онлайн (за 10 мин.): 4

Полицейская академия 2: Их первое задание / Police Academy 2: Their First Assignment (1985) BDRip 1080p [HEVC] 10 bit от HANNIBAL

HEVC
10 bit
Обложка Полицейская академия 2: Их первое задание / Police Academy 2: Their First Assignment (1985) BDRip 1080p [HEVC] 10 bit от HANNIBAL Год: 1985
Страна: США
Жанр: Комедия
Продолжительность: 01:27:10

Режиссер: Джерри Пэрис
В ролях: Стив Гуттенберг, Бубба Смит, Дэвид Граф, Майкл Уинслоу, Брюс Малер, Мэрион Рэмси, Коллин Кэмп, Ховард Хессеман, Арт Метрано, Джордж Гейнс.

Описание: Банда хулиганов творит безобразия по всему городу и опустошает карманы всех, кто находится с ними на одном тротуаре. Осторожно! Когда увальни в голубой форме решат разобраться с этими парнями, это закончится умопомрачительным смехом.

КиноПоиск
7.531 26376
IMDb
5.8
49223


Видео: 1920x1080, ~13.8 Mb/s
Аудио1: AC3, 2 ch, 192 Kbps -
Русский, Дублированный (Варус Видео)
Аудио2: AC3, 2 ch, 192 Kbps -
Русский, Двухголосый (НТВ)
Аудио3: AC3, 2 ch, 192 Kbps -
Русский, Многоголосый (ВГТРК)
Аудио4: AC3, 2 ch, 192 Kbps -
Русский, Двухголосый (Universal Channel)
Аудио5: AC3, 2 ch, 192 Kbps -
Русский, Одноголосый (Гаврилов)
Аудио6: AC3, 1 ch, 448 Kbps -
Английский, Оригинал
Субтитры: Русские

Как за пару секунд удалить ненужные аудиодорожки и субтитры (Внимание! После удаления вы не сможете поддержать раздачу)

Лог (x265 info)
x265 info: frame I: 1063, Avg QP:18.07 kb/s: 28842.50
x265 info: frame P: 24467, Avg QP:19.65 kb/s: 21336.51
x265 info: frame B: 99847, Avg QP:21.63 kb/s: 11827.92
x265 info: Weighted P-Frames: Y:13.4% UV:10.7%
x265 info: Weighted B-Frames: Y:11.6% UV:7.9%
x265 info: consecutive B-frames: 4.9% 1.9% 3.5% 36.9% 11.2% 30.4% 5.4% 4.5% 1.4%
Медиаинфо
General
Unique ID : 224985987244319634604460542189544980108 (0xA942B998F41BFC7CDA6AEC5E3318BE8C)
Complete name : H:\HEVC-CLUB\Police Academy The Complete Collection (1984-1994) [HEVC]\Police Academy 2 Their First Assignment (1985) BDRip 1080р [HEVC] 10bit.mkv
Format : Matroska
Format version : Version 4
File size : 9.16 GiB
Duration : 1 h 27 min
Overall bit rate : 15.0 Mb/s
Movie name : Police Academy 2: Their First Assignment
Description : Mahoney and friends have graduated from the Police Academy (1984) and are issued with their first assignments. As before, their cheerfulness and devotion to duty outweigh any shortcomings, but are they ready to do battle with a band graffiti daubing terrorists?
Encoded date : UTC 2019-04-26 22:25:55
Writing application : mkvmerge v25.0.0 ('Prog Noir') 64-bit
Writing library : libebml v1.3.6 + libmatroska v1.4.9 / Lavf57.71.100
Attachments : poster.jpg
ACTORS : Steve Guttenberg, Bubba Smith, David Graf, Michael Winslow
COUNTRY : USA
DATE : 1985
DIRECTOR : Jerry Paris, James Signorelli
ENCODING_INFO : MATROSKA,WEBM > MKV / H264 > X265 CRF 20.0 Пользовательский 2
GENRE : Comedy
HD_VIDEO : 1
IMDB_RATING : 5.7
ITUNEXTC : mpaa|PG-13|300|
Language : und
MEDIA_TYPE : 9
WRITER : Neal Israel (characters created by), Pat Proft (characters created by), Barry W. Blaustein, David Sheffield

Video
ID : 1
Format : HEVC
Format/Info : High Efficiency Video Coding
Format profile : Main 10@L4.1@High
Codec ID : V_MPEGH/ISO/HEVC
Duration : 1 h 27 min
Bit rate : 13.8 Mb/s
Width : 1 908 pixels
Height : 1 080 pixels
Display aspect ratio : 16:9
Frame rate mode : Constant
Frame rate : 23.976 (24000/1001) FPS
Color space : YUV
Chroma subsampling : 4:2:0
Bit depth : 10 bits
Bits/(Pixel*Frame) : 0.280
Stream size : 8.42 GiB (92%)
Title : MPEG-4 AVC, 1920x1080(16:9), 23,976fps, ~18840 Кbps
Writing library : x265 2.9+9-f74003e88622:[Windows][GCC 8.2.0][64 bit] 10bit
Encoding settings : cpuid=1111039 / frame-threads=13 / numa-pools=12 / wpp / no-pmode / no-pme / no-psnr / no-ssim / log-level=3 / input-csp=1 / input-res=1908x1080 / interlace=0 / total-frames=0 / level-idc=41 / high-tier=1 / uhd-bd=0 / ref=5 / allow-non-conformance / no-repeat-headers / annexb / no-aud / no-hrd / info / hash=0 / no-temporal-layers / open-gop / min-keyint=23 / keyint=240 / gop-lookahead=0 / bframes=8 / b-adapt=2 / b-pyramid / bframe-bias=0 / rc-lookahead=60 / lookahead-slices=4 / scenecut=40 / radl=0 / no-intra-refresh / ctu=64 / min-cu-size=8 / rect / amp / max-tu-size=32 / tu-inter-depth=4 / tu-intra-depth=4 / limit-tu=0 / rdoq-level=2 / dynamic-rd=0.00 / no-ssim-rd / signhide / no-tskip / nr-intra=0 / nr-inter=0 / no-constrained-intra / no-strong-intra-smoothing / max-merge=5 / limit-refs=2 / limit-modes / me=3 / subme=7 / merange=57 / temporal-mvp / weightp / weightb / no-analyze-src-pics / deblock=-3:-3 / no-sao / no-sao-non-deblock / rd=6 / no-early-skip / rskip / no-fast-intra / no-tskip-fast / no-cu-lossless / b-intra / no-splitrd-skip / rdpenalty=0 / psy-rd=2.00 / psy-rdoq=1.00 / no-rd-refine / no-lossless / cbqpoffs=0 / crqpoffs=0 / rc=crf / crf=20.0 / qcomp=0.70 / qpstep=4 / stats-write=0 / stats-read=0 / vbv-maxrate=50000 / vbv-bufsize=50000 / vbv-init=0.9 / crf-max=0.0 / crf-min=0.0 / ipratio=1.40 / pbratio=1.30 / aq-mode=2 / aq-strength=1.00 / no-cutree / zone-count=0 / no-strict-cbr / qg-size=32 / no-rc-grain / qpmax=69 / qpmin=0 / no-const-vbv / sar=1 / overscan=0 / videoformat=5 / range=0 / colorprim=1 / transfer=1 / colormatrix=1 / chromaloc=0 / display-window=0 / max-cll=0,0 / min-luma=0 / max-luma=1023 / log2-max-poc-lsb=8 / vui-timing-info / vui-hrd-info / slices=1 / no-opt-qp-pps / no-opt-ref-list-length-pps / no-multi-pass-opt-rps / scenecut-bias=0.05 / no-opt-cu-delta-qp / aq-motion / no-hdr / no-hdr-opt / no-dhdr10-opt / no-idr-recovery-sei / analysis-reuse-level=5 / scale-factor=0 / refine-intra=0 / refine-inter=0 / refine-mv=0 / no-limit-sao / ctu-info=0 / no-lowpass-dct / refine-mv-type=0 / copy-pic=1 / max-ausize-factor=1.0 / no-dynamic-refine / no-single-sei
Language : English
Default : Yes
Forced : No
Color range : Limited
Color primaries : BT.709
Transfer characteristics : BT.709
Matrix coefficients : BT.709

Audio #1
ID : 2
Format : AC-3
Format/Info : Audio Coding 3
Commercial name : Dolby Digital
Codec ID : A_AC3
Duration : 1 h 27 min
Bit rate mode : Constant
Bit rate : 192 kb/s
Channel(s) : 2 channels
Channel layout : L R
Sampling rate : 48.0 kHz
Frame rate : 31.250 FPS (1536 SPF)
Bit depth : 16 bits
Compression mode : Lossy
Stream size : 120 MiB (1%)
Title : DUB Russian, AC3, 2ch, 48 kHz, 192 kbps, (дубляж - Варус Видео)
Language : Russian
Service kind : Complete Main
Default : Yes
Forced : No

Audio #2
ID : 3
Format : AC-3
Format/Info : Audio Coding 3
Commercial name : Dolby Digital
Codec ID : A_AC3
Duration : 1 h 27 min
Bit rate mode : Constant
Bit rate : 192 kb/s
Channel(s) : 2 channels
Channel layout : L R
Sampling rate : 48.0 kHz
Frame rate : 31.250 FPS (1536 SPF)
Bit depth : 16 bits
Compression mode : Lossy
Stream size : 120 MiB (1%)
Title : MVO Russian, AC3, 2ch, 48 kHz, 192 kbps, (Многоголосый - ВГТРК)
Language : Russian
Service kind : Complete Main
Default : No
Forced : No

Audio #3
ID : 4
Format : AC-3
Format/Info : Audio Coding 3
Commercial name : Dolby Digital
Codec ID : A_AC3
Duration : 1 h 27 min
Bit rate mode : Constant
Bit rate : 192 kb/s
Channel(s) : 2 channels
Channel layout : L R
Sampling rate : 48.0 kHz
Frame rate : 31.250 FPS (1536 SPF)
Bit depth : 16 bits
Compression mode : Lossy
Stream size : 120 MiB (1%)
Title : DVO Russian, AC3, 2ch, 48 kHz, 192 kbps, (Двухголосый - Universal Channel)
Language : Russian
Service kind : Complete Main
Default : No
Forced : No

Audio #4
ID : 5
Format : AC-3
Format/Info : Audio Coding 3
Commercial name : Dolby Digital
Codec ID : A_AC3
Duration : 1 h 27 min
Bit rate mode : Constant
Bit rate : 192 kb/s
Channel(s) : 2 channels
Channel layout : L R
Sampling rate : 48.0 kHz
Frame rate : 31.250 FPS (1536 SPF)
Bit depth : 16 bits
Compression mode : Lossy
Stream size : 120 MiB (1%)
Title : AVO Russian, AC3, 2ch, 48 kHz, 192 kbps, (Одноголосый - Гаврилов)
Language : Russian
Service kind : Complete Main
Default : No
Forced : No

Audio #5
ID : 6
Format : AC-3
Format/Info : Audio Coding 3
Commercial name : Dolby Digital
Codec ID : A_AC3
Duration : 1 h 27 min
Bit rate mode : Constant
Bit rate : 448 kb/s
Channel(s) : 1 channel
Channel layout : C
Sampling rate : 48.0 kHz
Frame rate : 31.250 FPS (1536 SPF)
Bit depth : 16 bits
Compression mode : Lossy
Stream size : 279 MiB (3%)
Service kind : Complete Main
Default : No
Forced : No

Text
ID : 7
Format : UTF-8
Codec ID : S_TEXT/UTF8
Codec ID/Info : UTF-8 Plain Text
Duration : 1 h 23 min
Bit rate : 105 b/s
Count of elements : 1038
Stream size : 64.7 KiB (0%)
Default : Yes
Forced : No

Menu
00:00:00.000 : :Глава 1
00:06:53.329 : :Глава 2
00:12:16.444 : :Глава 3
00:16:45.129 : :Глава 4
00:24:58.747 : :Глава 5
00:29:04.284 : :Глава 6
00:30:40.839 : :Глава 7
00:32:30.907 : :Глава 8
00:34:40.661 : :Глава 9
00:37:46.806 : :Глава 10
00:45:53.375 : :Глава 11
00:48:06.800 : :Глава 12
00:50:45.083 : :Глава 13
00:54:03.073 : :Глава 14
00:57:17.934 : :Глава 15
00:59:33.653 : :Глава 16
01:03:55.373 : :Глава 17
01:08:08.918 : :Глава 18
01:09:56.901 : :Глава 19
01:15:20.641 : :Глава 20
01:22:12.886 : :Глава 21
01:23:51.359 : :Глава 22
01:27:03.176 : :Глава 23
Cкриншот1 Полицейская академия 2: Их первое задание / Police Academy 2: Their First Assignment (1985) BDRip 1080p [HEVC] 10 bit от HANNIBAL
Загружается...
Cкриншот2 Полицейская академия 2: Их первое задание / Police Academy 2: Their First Assignment (1985) BDRip 1080p [HEVC] 10 bit от HANNIBAL
Загружается...
Cкриншот3 Полицейская академия 2: Их первое задание / Police Academy 2: Their First Assignment (1985) BDRip 1080p [HEVC] 10 bit от HANNIBAL
Загружается...
Cкриншот4 Полицейская академия 2: Их первое задание / Police Academy 2: Their First Assignment (1985) BDRip 1080p [HEVC] 10 bit от HANNIBAL
Загружается...
Сэмпл Торрент🧲 Магнет

Кнопки "Позвать в чате" и "Спасибо" доступны только зарегистрированным/авторизованным пользователям!

Раздача обновлена!
Добавлена дорожка с озвучкой НТВ

Файлы: 1
  • Police Academy 2 Their First Assignment (1985) BDRip 1080р [HEVC] 10bit.mkv   9.28 ГБ
Поблагодарили: 17
375509, 7654321, A1eksandr1, bad999, brukvalub, crash, denisptp4, Gramkin, kapitan, Leon20052, lucky_oleg, mafo2, NEGAN, NoMaD, Nuclear70, pivorogan, SYNC80001
29.04.2019  20:50:06 HANNIBAL
6 53 0 4 9.28 ГБ

Добавление нового комментария

Добавление комментариев доступно только зарегистрированным/авторизованным пользователям.
Аватар mafo2
  mafo2  03.06.2019  14:03:35
👍
Аватар NoMaD
  NoMaD  30.04.2019  07:34:28
Nuclear70 писал(а):
Спасибо
наши просьбы были услышаны)
Аватар Nuclear70
  Nuclear70  29.04.2019  09:41:59
А можно все части с НТВ дорожкой самый лучший перевод
Аватар NoMaD
  NoMaD  27.04.2019  22:29:59
OldGamer писал(а):
невозможно смотреть и не стоит скачивать?
ну мне придётся прикручивать нтвшную дорожку,а вкусы других мне не известны.В первой части перевод НТВ был
Аватар OldGamer
  OldGamer  27.04.2019  21:47:44
NoMaD писал(а):
Нет перевода НТВ - очень большое упущение
невозможно смотреть и не стоит скачивать?
Аватар NoMaD
  NoMaD  27.04.2019  21:45:00
Нет перевода НТВ - очень большое упущение