Регистрация / Смена пароля

💬 Мини-чат

(Сегодня) XuMuK: awesomeptaxa, handbrake устарел года 2 назад, vidcoder - однокнопочный конвертер
(Сегодня) ADVOKAT69: joker63, ✋
(Сегодня) OldGamer: joker63, ✋
(Сегодня) joker63: ADVOKAT69, Spartanec1308, OldGamer, ✋
(Сегодня) OldGamer: ADVOKAT69, ✋
(Сегодня) Spartanec1308: ADVOKAT69, ✋
(Сегодня) ADVOKAT69: OldGamer, Spartanec1308, ✋
(08.04.2020) Spartanec1308: joker63, ✋
(08.04.2020) joker63: HANNIBAL, ✋
(08.04.2020) joker63: Spartanec1308, ✋
(08.04.2020) Spartanec1308: ADVOKAT69, ✋
(08.04.2020) OldGamer: joker63, ✋
(08.04.2020) joker63: ADVOKAT69, OldGamer, ✋
(08.04.2020) OldGamer: rodina_45, эта раздача будет переделана, старую раздавать не будут
(08.04.2020) Laska020489: NoMaD, я всё равно не понимаю разницу рипованый и тех что выложены по одиночке, можно подумать что по одиночке не рипы, да какая разница? на мой взгляд что там что там - оба рипы. кодеки тоже одинаковые. так зачем ждать месяцами? фильм он и в африке фильм. мне вот проще скачать сразу уже готовую коллекцию. как по мне качество тоже отличное хоть и на видюхе.
(08.04.2020) awesomeptaxa: ADVOKAT69, спасибо
(08.04.2020) ADVOKAT69: awesomeptaxa, https://rutracker.org/forum/viewtopic.php?t=4733376
(08.04.2020) awesomeptaxa: т.е. пресеты
(08.04.2020) ADVOKAT69: joker63, Spartanec1308, ✋
(08.04.2020) awesomeptaxa: риперы, можно ли делать рип опираясь на стандартные настройки программы через которую рипую (handbrake, vidcoder), или нужно самому вручную выставлять настройки?
  • OldGamer
  • CarbitM
  • Flamescorpion
  • PapiRUS45
  • yri150461
Отправка сообщений доступно только зарегистрированным/авторизованным пользователям.
Онлайн (за 10 мин.): 5

В пустыне смерти / Into the Badlands (2017) [2 сезон] BDRip 1080p [HEVC] 10 bit от OldGamer (RG HEVC-CLUB)

HEVC
10 bit
Обложка В пустыне смерти / Into the Badlands (2017) [2 сезон] BDRip 1080p [HEVC] 10 bit от OldGamer (RG HEVC-CLUB) Год: 2017
Страна: США
Студия: Millar Gough Ink, Big Kid Pictures, Diversion Pictures, Double Feature Films, AMC Networks
Жанр: Боевик, Драма, Приключения
Продолжительность: 07:10:55

Режиссер: Пако Кабесас, Тоа Фрейзер, Дэвид Добкин
В ролях: Дэниэл Ву, Орла Брэйди, Эмили Бичем, Арамис Найт, Элли Иоаннидес, Ник Фрост, Шерман Огастас, Сара Болгер, Оливер Старк, Мадлен Манток

Описание: Действия второго сезона сериала разворачиваются спустя шесть месяцев после событий финала первого сезона. Санни, ныне «Сборщик», оказывается шахтером, который рабским трудом добывает уголь на шахтах Бордо, вдалеке от Пустыни смерти. В шахтах Санни завязывает дружбу с контрабандистом Бэйджи и начинает планировать побег. В это же время ЭмКей проходит обучение под руководством Авы. Позже ЭмКей встречает Мастера, который обещает ему свободу, если мальчик научится управлять своими способностями и справится с обучением. В Пустыне смерти Райдер, который после смерти отца стал бароном, получил контроль над территориями Куинна, Якоби и Вдовы.

Серии
Into.the.Badlands.S02E01.Tiger.Pushes.Mountain
Into.the.Badlands.S02E02.Force.of.Eagle's.Claw
Into.the.Badlands.S02E03.Red.Sun.Silver.Moon
Into.the.Badlands.S02E04.Palm.of.the.Iron.Fox
Into.the.Badlands.S02E05.Monkey.Leaps.Through.Mist
Into.the.Badlands.S02E06.Leopard.Stalks.in.Snow
Into.the.Badlands.S02E07.Black.Heart.White.Mountain
Into.the.Badlands.S02E08.Sting.of.the.Scorpion's.Tail
Into.the.Badlands.S02E09.Nightingale.Sings.No.More
Into.the.Badlands.S02E10.Wolf's.Breath.Dragon.Fire
КиноПоиск
7.46 4939
IMDb
8
38624


Исходник: Blu-Ray Remux 1080p
Видео: 1920x1080 (16:9), 2655-5271 кбит/сек, 0.053 бит/(Пиксели*Кадры), 23,976 (24000/1001) кадра/сек, HEVC (Main 10@L4.1@High) 10 бит
Аудио1: AC3, 6 ch, 640 Kbps -
Русский, Многоголосый (LostFilm)
Аудио2: AC3, 6 ch, 640 Kbps -
Русский, Многоголосый (OmskBird)
Аудио3: AC3, 6 ch, 384 Kbps -
Русский, Многоголосый (NewStudio)
Аудио4: AC3, 6 ch, 640 Kbps -
English, Original
Субтитры: Отсутствуют

Как за пару секунд удалить ненужные аудиодорожки и субтитры (Внимание! После удаления вы не сможете поддержать раздачу)

Лог (x265 info)
x265 [info]: frame I: 265, Avg QP:17.98 kb/s: 10737.98
x265 [info]: frame P: 11825, Avg QP:19.44 kb/s: 6553.59
x265 [info]: frame B: 50521, Avg QP:21.62 kb/s: 1699.00
x265 [info]: Weighted P-Frames: Y:3.2% UV:2.5%
x265 [info]: Weighted B-Frames: Y:2.5% UV:1.7%
x265 [info]: consecutive B-frames: 5.3% 4.0% 13.0% 19.9% 11.3% 27.9% 6.4% 4.8% 2.6% 1.8% 1.5% 0.8% 0.2% 0.2% 0.1% 0.1% 0.2%
x265 [info]: encoded 62611 frames in 42964.46s (1.46 fps), 2654.12 kb/s, Avg QP:21.20
Медиаинфо
Формат : Matroska
Версия формата : Version 4
Размер файла : 1,50 Гбайт
Продолжительность : 43 м. 31 с.
Общий поток : 4936 Кбит/сек
Название фильма : Into.the.Badlands.S02E03.Red.Sun.Silver.Moon
Дата кодирования : UTC 2020-03-08 07:33:15
Программа кодирования : mkvmerge v43.0.0 ('The Quartermaster') 64-bit
Библиотека кодирования : libebml v1.3.10 + libmatroska v1.5.2

Видео
Идентификатор : 1
Формат : HEVC
Формат/Информация : High Efficiency Video Coding
Профиль формата : Main 10@L4.1@High
Идентификатор кодека : V_MPEGH/ISO/HEVC
Продолжительность : 43 м. 31 с.
Битрейт : 2655 Кбит/сек
Ширина : 1920 пикселей
Высота : 1080 пикселей
Соотношение сторон : 16:9
Режим частоты кадров : Постоянный
Частота кадров : 23,976 (24000/1001) кадра/сек
Цветовое пространство : YUV
Субдискретизация насыщенности : 4:2:0
Битовая глубина : 10 бит
Бит/(Пиксели*Кадры) : 0.053
Размер потока : 826 Мбайт (54%)
Заголовок : Into the Badlands S02E03 / Rip by OldGamer
Библиотека кодирования : x265 3.2.1+3-b4b2ecac21f6:[Windows][MSVC 1924][64 bit] 10bit
Настройки программы : cpuid=1111039 / frame-threads=4 / numa-pools=16 / wpp / no-pmode / no-pme / no-psnr / no-ssim / log-level=2 / input-csp=1 / input-res=1920x1080 / interlace=0 / total-frames=62611 / level-idc=41 / high-tier=1 / uhd-bd=0 / ref=5 / no-allow-non-conformance / no-repeat-headers / annexb / no-aud / no-hrd / info / hash=0 / no-temporal-layers / open-gop / min-keyint=23 / keyint=240 / gop-lookahead=0 / bframes=16 / b-adapt=2 / b-pyramid / bframe-bias=0 / rc-lookahead=80 / lookahead-slices=0 / scenecut=40 / radl=0 / no-splice / no-intra-refresh / ctu=64 / min-cu-size=8 / rect / amp / max-tu-size=32 / tu-inter-depth=4 / tu-intra-depth=4 / limit-tu=1 / rdoq-level=2 / dynamic-rd=0.00 / no-ssim-rd / signhide / no-tskip / nr-intra=0 / nr-inter=0 / no-constrained-intra / no-strong-intra-smoothing / max-merge=5 / limit-refs=3 / no-limit-modes / me=3 / subme=7 / merange=57 / temporal-mvp / no-hme / weightp / weightb / no-analyze-src-pics / deblock=-3:-3 / no-sao / no-sao-non-deblock / rd=6 / selective-sao=0 / no-early-skip / rskip / no-fast-intra / no-tskip-fast / no-cu-lossless / b-intra / no-splitrd-skip / rdpenalty=0 / psy-rd=2.00 / psy-rdoq=1.00 / no-rd-refine / no-lossless / cbqpoffs=0 / crqpoffs=0 / rc=crf / crf=21.5 / qcomp=0.72 / qpstep=4 / stats-write=0 / stats-read=0 / vbv-maxrate=50000 / vbv-bufsize=50000 / vbv-init=0.9 / crf-max=0.0 / crf-min=0.0 / ipratio=1.40 / pbratio=1.30 / aq-mode=4 / aq-strength=0.70 / no-cutree / zone-count=0 / no-strict-cbr / qg-size=32 / no-rc-grain / qpmax=69 / qpmin=0 / no-const-vbv / sar=1 / overscan=0 / videoformat=5 / range=0 / colorprim=2 / transfer=2 / colormatrix=2 / chromaloc=0 / display-window=0 / cll=0,0 / min-luma=0 / max-luma=1023 / log2-max-poc-lsb=8 / vui-timing-info / vui-hrd-info / slices=1 / no-opt-qp-pps / no-opt-ref-list-length-pps / no-multi-pass-opt-rps / scenecut-bias=0.00 / no-opt-cu-delta-qp / no-aq-motion / no-hdr / no-hdr-opt / no-dhdr10-opt / no-idr-recovery-sei / analysis-reuse-level=5 / scale-factor=0 / refine-intra=0 / refine-inter=0 / refine-mv=1 / refine-ctu-distortion=0 / no-limit-sao / ctu-info=0 / no-lowpass-dct / refine-analysis-type=0 / copy-pic=1 / max-ausize-factor=1.0 / no-dynamic-refine / no-single-sei / no-hevc-aq / no-svt / no-field / qp-adaptation-range=1.00
Язык : English
Default : Да
Forced : Нет

Аудио #1
Идентификатор : 2
Формат : AC-3
Формат/Информация : Audio Coding 3
Коммерческое название : Dolby Digital
Идентификатор кодека : A_AC3
Продолжительность : 43 м. 3 с.
Вид битрейта : Постоянный
Битрейт : 640 Кбит/сек
Каналы : 6 каналов
Channel layout : L R C LFE Ls Rs
Частота : 48,0 КГц
Частота кадров : 31,250 кадров/сек (1536 SPF)
Битовая глубина : 16 бит
Метод сжатия : С потерями
Задержка видео : 24 мс.
Размер потока : 197 Мбайт (13%)
Заголовок : LostFilm
Язык : Russian
ServiceKind/String : Complete Main
Default : Да
Forced : Нет

Аудио #2
Идентификатор : 3
Формат : AC-3
Формат/Информация : Audio Coding 3
Коммерческое название : Dolby Digital
Идентификатор кодека : A_AC3
Продолжительность : 43 м. 3 с.
Вид битрейта : Постоянный
Битрейт : 640 Кбит/сек
Каналы : 6 каналов
Channel layout : L R C LFE Ls Rs
Частота : 48,0 КГц
Частота кадров : 31,250 кадров/сек (1536 SPF)
Битовая глубина : 16 бит
Метод сжатия : С потерями
Задержка видео : 24 мс.
Размер потока : 197 Мбайт (13%)
Заголовок : OmskBird
Язык : Russian
ServiceKind/String : Complete Main
Default : Нет
Forced : Нет

Аудио #3
Идентификатор : 4
Формат : AC-3
Формат/Информация : Audio Coding 3
Коммерческое название : Dolby Digital
Идентификатор кодека : A_AC3
Продолжительность : 43 м. 2 с.
Вид битрейта : Постоянный
Битрейт : 384 Кбит/сек
Каналы : 6 каналов
Channel layout : L R C LFE Ls Rs
Частота : 48,0 КГц
Частота кадров : 31,250 кадров/сек (1536 SPF)
Битовая глубина : 16 бит
Метод сжатия : С потерями
Размер потока : 118 Мбайт (8%)
Заголовок : NewStudio
Язык : Russian
ServiceKind/String : Complete Main
Default : Нет
Forced : Нет

Аудио #4
Идентификатор : 5
Формат : AC-3
Формат/Информация : Audio Coding 3
Коммерческое название : Dolby Digital
Идентификатор кодека : A_AC3
Продолжительность : 43 м. 3 с.
Вид битрейта : Постоянный
Битрейт : 640 Кбит/сек
Каналы : 6 каналов
Channel layout : L R C LFE Ls Rs
Частота : 48,0 КГц
Частота кадров : 31,250 кадров/сек (1536 SPF)
Битовая глубина : 16 бит
Метод сжатия : С потерями
Задержка видео : 24 мс.
Размер потока : 197 Мбайт (13%)
Язык : English
ServiceKind/String : Complete Main
Default : Нет
Forced : Нет
Cкриншот1 В пустыне смерти / Into the Badlands (2017) [2 сезон] BDRip 1080p [HEVC] 10 bit от OldGamer (RG HEVC-CLUB)
Загружается...
Cкриншот2 В пустыне смерти / Into the Badlands (2017) [2 сезон] BDRip 1080p [HEVC] 10 bit от OldGamer (RG HEVC-CLUB)
Загружается...
Cкриншот3 В пустыне смерти / Into the Badlands (2017) [2 сезон] BDRip 1080p [HEVC] 10 bit от OldGamer (RG HEVC-CLUB)
Загружается...
Cкриншот4 В пустыне смерти / Into the Badlands (2017) [2 сезон] BDRip 1080p [HEVC] 10 bit от OldGamer (RG HEVC-CLUB)
Загружается...
Сэмпл Торрент🧲 Магнет

Кнопки "Позвать в чате" и "Спасибо" доступны только зарегистрированным/авторизованным пользователям!

Раздача обновлена!
Перекодировано. Добавлены озвучки LostFilm и OmskBird.

Файлы: 10
  • В.Пустыне.Смерти.Into.The.Badlands.S02.BDRip-HEVC.1080p
    • Into.the.Badlands.S02E01.Tiger.Pushes.Mountain.mkv   1.64 ГБ
    • Into.the.Badlands.S02E02.Force.of.Eagle's.Claw.mkv   2.33 ГБ
    • Into.the.Badlands.S02E03.Red.Sun.Silver.Moon.mkv   1.5 ГБ
    • Into.the.Badlands.S02E04.Palm.of.the.Iron.Fox.mkv   1.73 ГБ
    • Into.the.Badlands.S02E05.Monkey.Leaps.Through.Mist.mkv   1.77 ГБ
    • Into.the.Badlands.S02E06.Leopard.Stalks.in.Snow.mkv   1.69 ГБ
    • Into.the.Badlands.S02E07.Black.Heart.White.Mountain.mkv   1.9 ГБ
    • Into.the.Badlands.S02E08.Sting.of.the.Scorpion's.Tail.mkv   1.61 ГБ
    • Into.the.Badlands.S02E09.Nightingale.Sings.No.More.mkv   1.49 ГБ
    • Into.the.Badlands.S02E10.Wolf's.Breath.Dragon.Fire.mkv   1.76 ГБ
Поблагодарили: 11
375509, brukvalub, garant3v, InSpector, makss333, MIGRANT, mvclub, sanyahustler, Scythain, sixaxis, Херсонец
08.03.2020  12:03:02 OldGamer
0 13 3 0 (10)  17.42 ГБ

Добавление нового комментария

Добавление комментариев доступно только зарегистрированным/авторизованным пользователям.