Регистрация / Смена пароля

💬 Мини-чат

(Сегодня) XuMuK: awesomeptaxa, handbrake устарел года 2 назад, vidcoder - однокнопочный конвертер
(Сегодня) ADVOKAT69: joker63, ✋
(Сегодня) OldGamer: joker63, ✋
(Сегодня) joker63: ADVOKAT69, Spartanec1308, OldGamer, ✋
(Сегодня) OldGamer: ADVOKAT69, ✋
(Сегодня) Spartanec1308: ADVOKAT69, ✋
(Сегодня) ADVOKAT69: OldGamer, Spartanec1308, ✋
(08.04.2020) Spartanec1308: joker63, ✋
(08.04.2020) joker63: HANNIBAL, ✋
(08.04.2020) joker63: Spartanec1308, ✋
(08.04.2020) Spartanec1308: ADVOKAT69, ✋
(08.04.2020) OldGamer: joker63, ✋
(08.04.2020) joker63: ADVOKAT69, OldGamer, ✋
(08.04.2020) OldGamer: rodina_45, эта раздача будет переделана, старую раздавать не будут
(08.04.2020) Laska020489: NoMaD, я всё равно не понимаю разницу рипованый и тех что выложены по одиночке, можно подумать что по одиночке не рипы, да какая разница? на мой взгляд что там что там - оба рипы. кодеки тоже одинаковые. так зачем ждать месяцами? фильм он и в африке фильм. мне вот проще скачать сразу уже готовую коллекцию. как по мне качество тоже отличное хоть и на видюхе.
(08.04.2020) awesomeptaxa: ADVOKAT69, спасибо
(08.04.2020) ADVOKAT69: awesomeptaxa, https://rutracker.org/forum/viewtopic.php?t=4733376
(08.04.2020) awesomeptaxa: т.е. пресеты
(08.04.2020) ADVOKAT69: joker63, Spartanec1308, ✋
(08.04.2020) awesomeptaxa: риперы, можно ли делать рип опираясь на стандартные настройки программы через которую рипую (handbrake, vidcoder), или нужно самому вручную выставлять настройки?
  • CarbitM
  • demons22
  • Flamescorpion
  • medium
  • mogaleksej
  • ops
Отправка сообщений доступно только зарегистрированным/авторизованным пользователям.
Онлайн (за 10 мин.): 6

В пустыне смерти / Into the Badlands (2015) [1 сезон] BDRip 1080p [HEVC] 10 bit от OldGamer (RG HEVC-CLUB)

HEVC
10 bit
Обложка В пустыне смерти / Into the Badlands (2015) [1 сезон] BDRip 1080p [HEVC] 10 bit от OldGamer (RG HEVC-CLUB) Год: 2015
Страна: США
Студия: Millar Gough Ink, Big Kid Pictures, Diversion Pictures, Double Feature Films, AMC Networks
Жанр: Боевик, Драма, Приключения
Продолжительность: 04:15:57

Режиссер: Пако Кабесас, Тоа Фрейзер, Дэвид Добкин
В ролях: Дэниэл Ву, Орла Брэйди, Эмили Бичем, Арамис Найт, Элли Иоаннидес, Ник Фрост, Шерман Огастас, Сара Болгер, Оливер Старк, Мадлен Манток

Описание: Далёкое будущее, в котором общество вернулось к феодальному строю. Прежняя цивилизация оказалась полностью разрушена, и теперь всем заправляют семь баронов, конкурирующих между собой хозяев так называемой Пустыни смерти. Каждый из них обладает собственной армией безжалостных убийц, именуемых кромсателями, которые нужны для усмирения народа и поддержания авторитета того или иного правителя. Самым профессиональным и ловким из наемников является Санни; правая рука барона Куинна, на протяжении многих десятилетий считающегося самым авторитетным властителем своих территорий. В последнее время Куинн слегка сдал: его мучает неизвестный недуг, и этим хочет воспользоваться хитрая Вдова, барон-новичок с большими амбициями. Тем временем Санни спасает из случайной кровавой передряги мальчика по имени Эм Кей и берет его под свое покровительство. Вскоре лучший во всей Пустыне кромсатель понимает, что спасенный подросток хранит некую страшную тайну, из-за которой на него ведется охота. Вместе Санни и Эм Кей вынуждены отправиться в опасное путешествие, которое может привести всех обитателей Пустыни смерти к кардинальным переменам...

Серии
Into.The.Badlands.S01E01.The.Fort
Into.The.Badlands.S01E02.Fist.Like.a.Bullet
Into.The.Badlands.S01E03.White.Stork.Spreads.Wings
Into.The.Badlands.S01E04.Two.Tigers.Subdue.Dragons
Into.The.Badlands.S01E05.Snake.Creeps.Down
Into.The.Badlands.S01E06.Hand.of.Five.Poisons
КиноПоиск
7.46 4939
IMDb
8
38624


Исходник: Blu-Ray Remux 1080p
Видео: 1920x1080 (16:9), 5115-8516 кбит/сек, 0.119 бит/(Пиксели*Кадры), 23,976 (24000/1001) кадра/сек, HEVC (Main 10@L4.1@High) 10 бит
Аудио1: AC3, 6 ch, 448 Kbps -
Русский, Многоголосый (NewStudio, присутствует аудиореклама)
Аудио2: AC3, 6 ch, 384 Kbps -
Русский, Многоголосый (TVShows)
Аудио3: AC3, 2 ch, 384 Kbps -
Русский, Многоголосый (LostFilm)
Аудио4: AC3, 2 ch, 192 Kbps -
Русский, Многоголосый (AMC)
Субтитры: Отсутствуют

Как за пару секунд удалить ненужные аудиодорожки и субтитры (Внимание! После удаления вы не сможете поддержать раздачу)

Лог (x265 info)
x265 [info]: frame I: 256, Avg QP:17.96 kb/s: 18883.67
x265 [info]: frame P: 11846, Avg QP:19.48 kb/s: 12291.76
x265 [info]: frame B: 48762, Avg QP:21.40 kb/s: 4282.04
x265 [info]: Weighted P-Frames: Y:4.0% UV:3.1%
x265 [info]: Weighted B-Frames: Y:5.8% UV:4.5%
x265 [info]: consecutive B-frames: 5.0% 4.2% 13.8% 28.6% 12.8% 13.9% 6.4% 7.6% 3.1% 1.8% 1.1% 0.6% 0.5% 0.3% 0.4%
x265 [info]: encoded 60864 frames in 41356.48s (1.47 fps), 5902.39 kb/s, Avg QP:21.01
Медиаинфо
Формат : Matroska
Версия формата : Version 4
Размер файла : 2,16 Гбайт
Продолжительность : 42 м. 18 с.
Общий поток : 7313 Кбит/сек
Название фильма : Into.The.Badlands.S01E04.Two.Tigers.Subdue.Dragons
Дата кодирования : UTC 2020-03-07 17:56:29
Программа кодирования : mkvmerge v43.0.0 ('The Quartermaster') 64-bit
Библиотека кодирования : libebml v1.3.10 + libmatroska v1.5.2

Видео
Идентификатор : 1
Формат : HEVC
Формат/Информация : High Efficiency Video Coding
Профиль формата : Main 10@L4@Main
Идентификатор кодека : V_MPEGH/ISO/HEVC
Продолжительность : 42 м. 18 с.
Битрейт : 5903 Кбит/сек
Ширина : 1920 пикселей
Высота : 1080 пикселей
Соотношение сторон : 16:9
Режим частоты кадров : Постоянный
Частота кадров : 23,976 (24000/1001) кадра/сек
Цветовое пространство : YUV
Субдискретизация насыщенности : 4:2:0
Битовая глубина : 10 бит
Бит/(Пиксели*Кадры) : 0.119
Размер потока : 1,74 Гбайт (81%)
Заголовок : Into The Badlands S01E04 / Rip by OldGamer
Библиотека кодирования : x265 3.2.1+3-b4b2ecac21f6:[Windows][MSVC 1924][64 bit] 10bit
Настройки программы : cpuid=1111039 / frame-threads=3 / numa-pools=8 / wpp / no-pmode / no-pme / psnr / ssim / log-level=2 / input-csp=1 / input-res=1920x1080 / interlace=0 / total-frames=60864 / level-idc=0 / high-tier=1 / uhd-bd=0 / ref=5 / no-allow-non-conformance / no-repeat-headers / annexb / no-aud / no-hrd / info / hash=0 / no-temporal-layers / open-gop / min-keyint=23 / keyint=240 / gop-lookahead=0 / bframes=14 / b-adapt=2 / b-pyramid / bframe-bias=0 / rc-lookahead=60 / lookahead-slices=0 / scenecut=40 / radl=0 / no-splice / no-intra-refresh / ctu=64 / min-cu-size=8 / rect / amp / max-tu-size=32 / tu-inter-depth=4 / tu-intra-depth=4 / limit-tu=1 / rdoq-level=2 / dynamic-rd=0.00 / no-ssim-rd / signhide / no-tskip / nr-intra=0 / nr-inter=0 / no-constrained-intra / no-strong-intra-smoothing / max-merge=5 / limit-refs=3 / no-limit-modes / me=3 / subme=7 / merange=57 / temporal-mvp / no-hme / weightp / weightb / no-analyze-src-pics / deblock=-3:-3 / no-sao / no-sao-non-deblock / rd=6 / selective-sao=0 / no-early-skip / rskip / no-fast-intra / no-tskip-fast / no-cu-lossless / b-intra / no-splitrd-skip / rdpenalty=0 / psy-rd=2.00 / psy-rdoq=1.00 / no-rd-refine / no-lossless / cbqpoffs=0 / crqpoffs=0 / rc=crf / crf=20.4 / qcomp=0.78 / qpstep=4 / stats-write=0 / stats-read=0 / ipratio=1.40 / pbratio=1.30 / aq-mode=4 / aq-strength=0.70 / no-cutree / zone-count=0 / no-strict-cbr / qg-size=32 / no-rc-grain / qpmax=69 / qpmin=0 / no-const-vbv / sar=1 / overscan=0 / videoformat=5 / range=0 / colorprim=2 / transfer=2 / colormatrix=2 / chromaloc=0 / display-window=0 / cll=0,0 / min-luma=0 / max-luma=1023 / log2-max-poc-lsb=8 / vui-timing-info / vui-hrd-info / slices=1 / no-opt-qp-pps / no-opt-ref-list-length-pps / no-multi-pass-opt-rps / scenecut-bias=0.00 / no-opt-cu-delta-qp / no-aq-motion / no-hdr / no-hdr-opt / no-dhdr10-opt / no-idr-recovery-sei / analysis-reuse-level=5 / scale-factor=0 / refine-intra=0 / refine-inter=0 / refine-mv=1 / refine-ctu-distortion=0 / no-limit-sao / ctu-info=0 / no-lowpass-dct / refine-analysis-type=0 / copy-pic=1 / max-ausize-factor=1.0 / no-dynamic-refine / no-single-sei / no-hevc-aq / no-svt / no-field / qp-adaptation-range=1.00
Язык : English
Default : Да
Forced : Нет

Аудио #1
Идентификатор : 2
Формат : AC-3
Формат/Информация : Audio Coding 3
Коммерческое название : Dolby Digital
Идентификатор кодека : A_AC3
Продолжительность : 42 м. 17 с.
Вид битрейта : Постоянный
Битрейт : 448 Кбит/сек
Каналы : 6 каналов
Channel layout : L R C LFE Ls Rs
Частота : 48,0 КГц
Частота кадров : 31,250 кадров/сек (1536 SPF)
Битовая глубина : 16 бит
Метод сжатия : С потерями
Размер потока : 136 Мбайт (6%)
Заголовок : NewStudio
Язык : Russian
ServiceKind/String : Complete Main
Default : Нет
Forced : Нет

Аудио #2
Идентификатор : 3
Формат : AC-3
Формат/Информация : Audio Coding 3
Коммерческое название : Dolby Digital
Идентификатор кодека : A_AC3
Продолжительность : 42 м. 18 с.
Вид битрейта : Постоянный
Битрейт : 384 Кбит/сек
Каналы : 6 каналов
Channel layout : L R C LFE Ls Rs
Частота : 48,0 КГц
Частота кадров : 31,250 кадров/сек (1536 SPF)
Битовая глубина : 16 бит
Метод сжатия : С потерями
Размер потока : 116 Мбайт (5%)
Заголовок : TVShows
Язык : Russian
ServiceKind/String : Complete Main
Default : Нет
Forced : Нет

Аудио #3
Идентификатор : 4
Формат : AC-3
Формат/Информация : Audio Coding 3
Коммерческое название : Dolby Digital
Идентификатор кодека : A_AC3
Продолжительность : 42 м. 17 с.
Вид битрейта : Постоянный
Битрейт : 384 Кбит/сек
Каналы : 2 канала
Channel layout : L R
Частота : 48,0 КГц
Частота кадров : 31,250 кадров/сек (1536 SPF)
Битовая глубина : 16 бит
Метод сжатия : С потерями
Размер потока : 116 Мбайт (5%)
Заголовок : LostFilm
Язык : Russian
ServiceKind/String : Complete Main
Default : Да
Forced : Нет

Аудио #4
Идентификатор : 5
Формат : AC-3
Формат/Информация : Audio Coding 3
Коммерческое название : Dolby Digital
Идентификатор кодека : A_AC3
Продолжительность : 42 м. 17 с.
Вид битрейта : Постоянный
Битрейт : 192 Кбит/сек
Каналы : 2 канала
Channel layout : L R
Частота : 48,0 КГц
Частота кадров : 31,250 кадров/сек (1536 SPF)
Битовая глубина : 16 бит
Метод сжатия : С потерями
Размер потока : 58,1 Мбайт (3%)
Заголовок : AMC
Язык : Russian
ServiceKind/String : Complete Main
Default : Нет
Forced : Нет
Cкриншот1 В пустыне смерти / Into the Badlands (2015) [1 сезон] BDRip 1080p [HEVC] 10 bit от OldGamer (RG HEVC-CLUB)
Загружается...
Cкриншот2 В пустыне смерти / Into the Badlands (2015) [1 сезон] BDRip 1080p [HEVC] 10 bit от OldGamer (RG HEVC-CLUB)
Загружается...
Cкриншот3 В пустыне смерти / Into the Badlands (2015) [1 сезон] BDRip 1080p [HEVC] 10 bit от OldGamer (RG HEVC-CLUB)
Загружается...
Cкриншот4 В пустыне смерти / Into the Badlands (2015) [1 сезон] BDRip 1080p [HEVC] 10 bit от OldGamer (RG HEVC-CLUB)
Загружается...
Сэмпл Торрент🧲 Магнет

Кнопки "Позвать в чате" и "Спасибо" доступны только зарегистрированным/авторизованным пользователям!

Раздача обновлена!
Перекодировано. Добавлена озвучка TVShows.

Файлы: 6
  • В.Пустыне.Смерти.Into.The.Badlands.S01.BDRip-HEVC.1080p
    • Into.The.Badlands.S01E01.The.Fort.mkv   3.1 ГБ
    • Into.The.Badlands.S01E02.Fist.Like.a.Bullet.mkv   1.99 ГБ
    • Into.The.Badlands.S01E03.White.Stork.Spreads.Wings.mkv   1.92 ГБ
    • Into.The.Badlands.S01E04.Two.Tigers.Subdue.Dragons.mkv   2.16 ГБ
    • Into.The.Badlands.S01E05.Snake.Creeps.Down.mkv   2.52 ГБ
    • Into.The.Badlands.S01E06.Hand.of.Five.Poisons.mkv   2.05 ГБ
Поблагодарили: 14
375509, angel, boxgas, brukvalub, crash, Heineken, makss333, Mercury, MIGRANT, mvclub, Scythain, sixaxis, Сухум, Херсонец
07.03.2020  21:27:47 OldGamer
0 13 3 2 (6)  13.73 ГБ

Добавление нового комментария

Добавление комментариев доступно только зарегистрированным/авторизованным пользователям.