Регистрация / Смена пароля

💬 Мини-чат

moonson: Alex302, ну, сообственно туда всем нашим врагам и дорога. Жалко только враг Жан-Поля застрял на 16 % и ни туда, и ни сюда 😄
Alex302: moonson, труп вашего врага растащило вороньё)
  • alexyak
  • kuzmichc
Отправка сообщений доступно только зарегистрированным/авторизованным пользователям.
Онлайн (за 10 мин.): 2

Белый парень Рик / White Boy Rick (2018) BDRip 1080p [HEVC] 10 bit от HANNIBAL

HEVC
10 bit
Обложка Белый парень Рик / White Boy Rick (2018) BDRip 1080p [HEVC] 10 bit от HANNIBAL Год: 2018
Страна: США
Студия: LBI Productions, Protozoa Pictures, Studio 8
Жанр: Драма, Криминал
Продолжительность: 01:51:06

Режиссер: Ян Деманж
В ролях: Мэттью МакКонахи, Ричи Мерритт, Бел Паули, Дженнифер Джейсон Ли, Брайан Тайри Генри, Рори Кокрейн, АрДжей Сайлер, Джонатан Мэйджерс, Эдди Марсан, Тейлор Пейдж

Описание: История Ричарда Верши-младшего, который в 14 лет стал самым молодым осведомителем ФБР, чтобы спасти своего отца от тюрьмы.

КиноПоиск
6.307 8606
IMDb
6.4
23213


Видео: 1920x804, 8866 Kbps
Аудио1: AC3, 6 ch, 384 Kbps -
Русский, Дублированный (Лицензия)
Аудио2: AC3, 6 ch, 640 Kbps -
Английский, Оригинал
Субтитры: Русские, Английские

Как за пару секунд удалить ненужные аудиодорожки и субтитры (Внимание! После удаления вы не сможете поддержать раздачу)

Медиаинфо
x265 info: frame I: 1446, Avg QP:15.51 kb/s: 32249.79
x265 info: frame P: 27241, Avg QP:16.53 kb/s: 18250.92
x265 info: frame B: 131149, Avg QP:20.43 kb/s: 6658.49
x265 info: Weighted P-Frames: Y:7.5% UV:5.9%
x265 info: consecutive B-frames: 6.4% 2.4% 5.0% 25.3% 9.9% 18.3% 6.2% 17.8% 2.4% 6.3%


General
Unique ID : 308820549185769540014808694567181606696 (0xE854AC9FB45F4293E3E50F18E29DDF28)
Complete name : H:\HEVC-CLUB\White Boy Rick (2018) BDRip 1080p [HEVC] 10bit.mkv
Format : Matroska
Format version : Version 4
File size : 7.68 GiB
Duration : 1 h 51 min
Overall bit rate : 9 893 kb/s
Movie name : Белый парень Рик
Encoded date : UTC 2019-04-04 15:52:24
Writing application : mkvmerge v25.0.0 ('Prog Noir') 64-bit
Writing library : libebml v1.3.6 + libmatroska v1.4.9 / Lavf57.71.100
Attachments : poster.jpg
ACTORS : Мэттью МакКонахи, Ричи Мерритт,
COUNTRY : США
DATE : 2018
DIRECTOR : Ян Деманж
ENCODING_INFO : MATROSKA,WEBM > MKV 1080p 10-bit / H264 > X265 CRF 17.5 Medium
GENRE : драма, криминал, биография
HD_VIDEO : 1
Language : und
MEDIA_TYPE : 9
ORIGINAL_TITLE : White Boy Rick

Video
ID : 1
Format : HEVC
Format/Info : High Efficiency Video Coding
Format profile : Main 10@L4.1@High
Codec ID : V_MPEGH/ISO/HEVC
Duration : 1 h 51 min
Bit rate : 8 866 kb/s
Width : 1 920 pixels
Height : 804 pixels
Display aspect ratio : 2.40:1
Frame rate mode : Constant
Frame rate : 23.976 (24000/1001) FPS
Color space : YUV
Chroma subsampling : 4:2:0
Bit depth : 10 bits
Bits/(Pixel*Frame) : 0.240
Stream size : 6.88 GiB (90%)
Writing library : x265 2.9+9-f74003e88622:[Windows][GCC 8.2.0][64 bit] 10bit
Encoding settings : cpuid=1111039 / frame-threads=7 / numa-pools=6 / wpp / no-pmode / no-pme / no-psnr / no-ssim / log-level=3 / input-csp=1 / input-res=1920x804 / interlace=0 / total-frames=0 / level-idc=41 / high-tier=1 / uhd-bd=0 / ref=5 / allow-non-conformance / no-repeat-headers / annexb / no-aud / no-hrd / info / hash=0 / no-temporal-layers / open-gop / min-keyint=24 / keyint=240 / gop-lookahead=0 / bframes=9 / b-adapt=2 / b-pyramid / bframe-bias=0 / rc-lookahead=20 / lookahead-slices=5 / scenecut=40 / radl=0 / no-intra-refresh / ctu=64 / min-cu-size=8 / rect / amp / max-tu-size=32 / tu-inter-depth=1 / tu-intra-depth=1 / limit-tu=0 / rdoq-level=0 / dynamic-rd=0.00 / no-ssim-rd / signhide / no-tskip / nr-intra=0 / nr-inter=0 / no-constrained-intra / no-strong-intra-smoothing / max-merge=2 / limit-refs=3 / no-limit-modes / me=3 / subme=7 / merange=57 / temporal-mvp / weightp / no-weightb / no-analyze-src-pics / deblock=-3:-3 / no-sao / no-sao-non-deblock / rd=3 / no-early-skip / rskip / no-fast-intra / no-tskip-fast / no-cu-lossless / no-b-intra / no-splitrd-skip / rdpenalty=0 / psy-rd=2.00 / psy-rdoq=0.00 / no-rd-refine / no-lossless / cbqpoffs=0 / crqpoffs=0 / rc=crf / crf=17.5 / qcomp=0.70 / qpstep=4 / stats-write=0 / stats-read=0 / vbv-maxrate=50000 / vbv-bufsize=50000 / vbv-init=0.9 / crf-max=30.0 / crf-min=0.0 / ipratio=1.40 / pbratio=1.30 / aq-mode=1 / aq-strength=1.00 / cutree / zone-count=0 / no-strict-cbr / qg-size=32 / no-rc-grain / qpmax=69 / qpmin=0 / no-const-vbv / sar=1 / overscan=0 / videoformat=5 / range=0 / colorprim=1 / transfer=1 / colormatrix=1 / chromaloc=0 / display-window=0 / max-cll=0,0 / min-luma=0 / max-luma=1023 / log2-max-poc-lsb=8 / vui-timing-info / vui-hrd-info / slices=1 / no-opt-qp-pps / no-opt-ref-list-length-pps / no-multi-pass-opt-rps / scenecut-bias=0.05 / no-opt-cu-delta-qp / no-aq-motion / no-hdr / no-hdr-opt / no-dhdr10-opt / no-idr-recovery-sei / analysis-reuse-level=5 / scale-factor=0 / refine-intra=0 / refine-inter=0 / refine-mv=0 / no-limit-sao / ctu-info=0 / no-lowpass-dct / refine-mv-type=0 / copy-pic=1 / max-ausize-factor=1.0 / no-dynamic-refine / no-single-sei
Language : English
Default : Yes
Forced : No
Color range : Limited
Color primaries : BT.709
Transfer characteristics : BT.709
Matrix coefficients : BT.709

Audio #1
ID : 2
Format : AC-3
Format/Info : Audio Coding 3
Commercial name : Dolby Digital
Codec ID : A_AC3
Duration : 1 h 51 min
Bit rate mode : Constant
Bit rate : 384 kb/s
Channel(s) : 6 channels
Channel layout : L R C LFE Ls Rs
Sampling rate : 48.0 kHz
Frame rate : 31.250 FPS (1536 SPF)
Bit depth : 16 bits
Compression mode : Lossy
Stream size : 305 MiB (4%)
Language : Russian
Service kind : Complete Main
Default : Yes
Forced : No

Audio #2
ID : 3
Format : AC-3
Format/Info : Audio Coding 3
Commercial name : Dolby Digital
Codec ID : A_AC3
Duration : 1 h 51 min
Bit rate mode : Constant
Bit rate : 640 kb/s
Channel(s) : 6 channels
Channel layout : L R C LFE Ls Rs
Sampling rate : 48.0 kHz
Frame rate : 31.250 FPS (1536 SPF)
Bit depth : 16 bits
Compression mode : Lossy
Stream size : 509 MiB (6%)
Title : Original
Language : English
Service kind : Complete Main
Default : No
Forced : No

Text #1
ID : 4
Format : UTF-8
Codec ID : S_TEXT/UTF8
Codec ID/Info : UTF-8 Plain Text
Duration : 1 h 43 min
Bit rate : 113 b/s
Count of elements : 1478
Stream size : 86.3 KiB (0%)
Title : Full
Language : Russian
Default : Yes
Forced : No

Text #2
ID : 5
Format : UTF-8
Codec ID : S_TEXT/UTF8
Codec ID/Info : UTF-8 Plain Text
Duration : 1 h 44 min
Bit rate : 68 b/s
Count of elements : 1550
Stream size : 51.9 KiB (0%)
Title : Full
Language : English
Default : No
Forced : No

Text #3
ID : 6
Format : UTF-8
Codec ID : S_TEXT/UTF8
Codec ID/Info : UTF-8 Plain Text
Duration : 1 h 44 min
Bit rate : 98 b/s
Count of elements : 1758
Stream size : 75.5 KiB (0%)
Title : SDH
Language : English
Default : No
Forced : No

Menu
00:00:00.000 : :Chapter 01
00:02:44.581 : :Chapter 02
00:04:14.045 : :Chapter 03
00:05:18.151 : :Chapter 04
00:06:56.625 : :Chapter 05
00:08:22.419 : :Chapter 06
00:09:53.301 : :Chapter 07
00:11:29.439 : :Chapter 08
00:12:59.237 : :Chapter 09
00:14:28.493 : :Chapter 10
00:16:05.006 : :Chapter 11
00:17:37.598 : :Chapter 12
00:19:08.064 : :Chapter 13
00:20:40.156 : :Chapter 14
00:22:12.081 : :Chapter 15
00:24:12.660 : :Chapter 16
00:26:16.700 : :Chapter 17
00:28:10.564 : :Chapter 18
00:30:15.313 : :Chapter 19
00:32:13.014 : :Chapter 20
00:34:06.670 : :Chapter 21
00:35:45.476 : :Chapter 22
00:37:15.608 : :Chapter 23
00:38:44.447 : :Chapter 24
00:40:16.289 : :Chapter 25
00:41:47.004 : :Chapter 26
00:43:16.719 : :Chapter 27
00:44:51.522 : :Chapter 28
00:46:22.446 : :Chapter 29
00:47:53.370 : :Chapter 30
00:49:25.504 : :Chapter 31
00:50:55.678 : :Chapter 32
00:52:27.603 : :Chapter 33
00:55:29.826 : :Chapter 34
00:57:01.460 : :Chapter 35
00:58:33.260 : :Chapter 36
01:00:04.142 : :Chapter 37
01:01:36.902 : :Chapter 38
01:03:07.701 : :Chapter 39
01:06:07.505 : :Chapter 40
01:07:38.388 : :Chapter 41
01:09:36.381 : :Chapter 42
01:11:36.042 : :Chapter 43
01:13:35.828 : :Chapter 44
01:15:36.532 : :Chapter 45
01:16:45.059 : :Chapter 46
01:18:46.055 : :Chapter 47
01:20:37.833 : :Chapter 48
01:22:37.411 : :Chapter 49
01:24:38.907 : :Chapter 50
01:26:40.821 : :Chapter 51
01:28:41.816 : :Chapter 52
01:30:43.021 : :Chapter 53
01:32:44.934 : :Chapter 54
01:34:46.139 : :Chapter 55
01:36:46.259 : :Chapter 56
01:38:49.549 : :Chapter 57
01:40:50.294 : :Chapter 58
01:42:51.916 : :Chapter 59
01:44:33.309 : :Chapter 60
Cкриншот1 Белый парень Рик / White Boy Rick (2018) BDRip 1080p [HEVC] 10 bit от HANNIBAL
Загружается...
Cкриншот2 Белый парень Рик / White Boy Rick (2018) BDRip 1080p [HEVC] 10 bit от HANNIBAL
Загружается...
Cкриншот3 Белый парень Рик / White Boy Rick (2018) BDRip 1080p [HEVC] 10 bit от HANNIBAL
Загружается...
Cкриншот4 Белый парень Рик / White Boy Rick (2018) BDRip 1080p [HEVC] 10 bit от HANNIBAL
Загружается...
Сэмпл Торрент🧲 Магнет

Кнопки "Позвать в чате" и "Спасибо" доступны только зарегистрированным/авторизованным пользователям!

Файлы: 1
  • White Boy Rick (2018) BDRip 1080p [HEVC] 10bit.mkv   7.68 ГБ
Поблагодарили: 7
375509, anatol, anderb, andrey9726, bad999, brukvalub, Skropi
HANNIBAL
0115007.68 ГБ

Добавление нового комментария

Добавление комментариев доступно только зарегистрированным/авторизованным пользователям.