Регистрация / Смена пароля

💬 Мини-чат

(Сегодня) Laska020489:
(Сегодня) OldGamer: ADVOKAT69, ✋
(Сегодня) ADVOKAT69: OldGamer, ✋
(Сегодня) ADVOKAT69: joker63, ✋
(Сегодня) joker63: ADVOKAT69, ✋
(Сегодня) OldGamer: NoMaD, что-нибудь да планируется
(Сегодня) NoMaD: OldGamer, а что планируется после Форсажа???
(Сегодня) OldGamer: joker63, ✋
(Сегодня) joker63: OldGamer, ✋
(31.03.2020) Spartanec1308: joker63, ✋
(31.03.2020) joker63: Spartanec1308, ✋
(31.03.2020) makss333: Раздайте, пожалуйста, 22 мили / Mile 22 (2018) BDRip 1080p [HEVC] 10 bit от HANNIBAL
(31.03.2020) Undervest: Раздайте, пожалуйста, Коза Ностра / The Valachi Papers (1972) BDRip 1080p [HEVC] 10 bit от Joker63
(31.03.2020) OldGamer: joker63, ✋
(31.03.2020) joker63: OldGamer, ✋
(31.03.2020) dresden: Раздайте, пожалуйста, Салют-7 (2017) BDRip 1080p [HEVC] 10 bit от M@kSIMus
(30.03.2020) AlexTwitt: joker63, ✌
(30.03.2020) joker63: AlexTwitt, ✋
(30.03.2020) Admin: OldGamer, но я сначала подожду, пока другие скачают.
(30.03.2020) Admin: OldGamer, учитывая незначительную разницу в суммарном объеме (и то из-за оригинальных дорожек), то я у себя в коллекции заменю на твою.
  • Admin
  • DayLight
  • diesel0000
  • Kosten
  • podvoh7
  • silay
Отправка сообщений доступно только зарегистрированным/авторизованным пользователям.
Онлайн (за 10 мин.): 6

Форсаж: Антология / The Fast and the Furious: Anthology (2001-2019) BDRip 1080p [HEVC] 10 bit от HANNIBAL

HEVC
10 bit
Обложка Форсаж: Антология / The Fast and the Furious: Anthology (2001-2019) BDRip 1080p [HEVC] 10 bit от HANNIBAL Год: 2001-2019
Страна: США
Студия: Universal Pictures
Жанр: Боевик, Триллер, Драма, Криминал

1. Форсаж / The Fast and the Furious (2001) BDRip 1080p [HEVC] 10 bit от HANNIBAL
HEVC
10 bit
Обложка Форсаж / The Fast and the Furious (2001) BDRip 1080p [HEVC] 10 bit от HANNIBAL Год: 2001
Страна: США, Германия
Студия: Universal Pictures
Жанр: Боевик, Триллер, Криминал
Продолжительность: 01:46:51

Режиссер: Роб Коэн, Мэл Сити
В ролях: Пол Уокер, Вин Дизель, Мишель Родригес, Джордана Брюстер, Мэтт Шульце, Рик Юн, Чэд Линдберг, Джонни Стронг, Тед Левайн, Том Бэрри

Описание: Его зовут Брайан, и он — фанатик турбин и нитроускорителей. Его цель — быть принятым в автобанду легендарного Доминика Торетто, чемпиона опасных и незаконных уличных гонок. Но это лишь часть правды… Брайан также полицейский, имеющий задание войти в доверие к Торетто, подозреваемому в причастности к дерзким грабежам трейлеров, совершенным прямо «с колес». Но чем больше доверяет нахальному новичку харизматичный Доминик, тем больше проникается герой идеалами «ангелов дорог». И тем меньше ему хочется выполнять свою миссию. И вот, наступает момент, когда Брайану придется выбирать между дружбой и долгом. И выбирать на скорости в 200 километров в час…

КиноПоиск
7.732 142312
IMDb
6.8
332815


Видео: 1920x816, 6207 Kbps
Аудио: AC3, 6 ch, 448 Kbps -
Русский, Дублированный
Субтитры: Русские (форсированные, полные), английские

Медиаинфо
General
Unique ID : 42794589440042860602141220892769665513 (0x2031F0290719FBA82155001B490E41E9)
Complete name : D:\Фильмы\16+\Форсаж\1. Форсаж The Fast and the Furious (2001) BDRip 1080p [HEVC] 10 bit от HANNIBAL.mkv
Format : Matroska
Format version : Version 4 / Version 2
File size : 4.97 GiB
Duration : 1 h 46 min
Overall bit rate : 6 655 kb/s
Encoded date : UTC 2018-06-18 11:41:13
Writing application : mkvmerge v24.0.0 ('Beyond The Pale') 64-bit
Writing library : libebml v1.3.6 + libmatroska v1.4.9
Cover : Yes
Attachments : cover.jpg

Video
ID : 1
Format : HEVC
Format/Info : High Efficiency Video Coding
Format profile : Main 10@L4@Main
Codec ID : V_MPEGH/ISO/HEVC
Duration : 1 h 46 min
Bit rate : 6 207 kb/s
Width : 1 920 pixels
Height : 816 pixels
Display aspect ratio : 2.35:1
Frame rate mode : Constant
Frame rate : 23.976 (24000/1001) FPS
Color space : YUV
Chroma subsampling : 4:2:0
Bit depth : 10 bits
Bits/(Pixel*Frame) : 0.165
Stream size : 4.63 GiB (93%)
Default : Yes
Forced : No
Color range : Limited
Color primaries : BT.709
Transfer characteristics : BT.709
Matrix coefficients : BT.709

Audio
ID : 2
Format : AC-3
Format/Info : Audio Coding 3
Codec ID : A_AC3
Duration : 1 h 46 min
Bit rate mode : Constant
Bit rate : 448 kb/s
Channel(s) : 6 channels
Channel positions : Front: L C R, Side: L R, LFE
Sampling rate : 48.0 kHz
Frame rate : 31.250 FPS (1536 SPF)
Bit depth : 16 bits
Compression mode : Lossy
Stream size : 342 MiB (7%)
Title : Дубляж
Language : Russian
Service kind : Complete Main
Default : Yes
Forced : No

Text #1
ID : 3
Format : UTF-8
Codec ID : S_TEXT/UTF8
Codec ID/Info : UTF-8 Plain Text
Duration : 1 h 9 min
Bit rate : 1 b/s
Count of elements : 15
Stream size : 562 Bytes (0%)
Title : Forced
Language : Russian
Default : Yes
Forced : No

Text #2
ID : 4
Format : UTF-8
Codec ID : S_TEXT/UTF8
Codec ID/Info : UTF-8 Plain Text
Duration : 1 h 45 min
Bit rate : 59 b/s
Count of elements : 832
Stream size : 46.5 KiB (0%)
Title : Full
Language : Russian
Default : No
Forced : No

Text #3
ID : 5
Format : UTF-8
Codec ID : S_TEXT/UTF8
Codec ID/Info : UTF-8 Plain Text
Duration : 1 h 45 min
Bit rate : 39 b/s
Count of elements : 857
Stream size : 30.9 KiB (0%)
Title : Full
Language : English
Default : No
Forced : No

Menu
00:00:00.000 : en:(01)00:00:00:000
00:02:56.885 : en:(02)00:02:56:885
00:10:20.244 : en:(03)00:10:20:244
00:15:07.531 : en:(04)00:15:07:531
00:26:40.473 : en:(05)00:26:40:473
00:29:59.214 : en:(06)00:29:59:214
00:34:42.872 : en:(07)00:34:42:872
00:38:08.494 : en:(08)00:38:08:494
00:44:56.402 : en:(09)00:44:56:402
00:55:26.489 : en:(10)00:55:26:489
00:58:40.433 : en:(11)00:58:40:433
01:01:45.743 : en:(12)01:01:45:743
01:09:25.119 : en:(13)01:09:25:119
01:12:02.026 : en:(14)01:12:02:026
01:15:23.685 : en:(15)01:15:23:685
01:20:44.171 : en:(16)01:20:44:172
01:29:59.811 : en:(17)01:29:59:811
01:34:58.317 : en:(18)01:34:58:317
01:38:05.462 : en:(19)01:38:05:462
01:39:57.992 : en:(20)01:39:57:992
01:46:50.737 : en:(21)01:46:50:737
Cкриншот1 Форсаж / The Fast and the Furious (2001) BDRip 1080p [HEVC] 10 bit от HANNIBAL
Загружается...
Cкриншот2 Форсаж / The Fast and the Furious (2001) BDRip 1080p [HEVC] 10 bit от HANNIBAL
Загружается...
Cкриншот3 Форсаж / The Fast and the Furious (2001) BDRip 1080p [HEVC] 10 bit от HANNIBAL
Загружается...
Cкриншот4 Форсаж / The Fast and the Furious (2001) BDRip 1080p [HEVC] 10 bit от HANNIBAL
Загружается...
2. Двойной форсаж / 2 Fast 2 Furious (2003) BDRip 1080p [HEVC] 10 bit от HANNIBAL
HEVC
10 bit
Обложка Двойной форсаж / 2 Fast 2 Furious (2003) BDRip 1080p [HEVC] 10 bit от HANNIBAL Год: 2003
Страна: США, Германия
Студия: Universal Pictures, Original Film, Mikona Productions GmbH & Co. KG
Жанр: Боевик, Триллер, Криминал
Продолжительность: 01:47:35

Режиссер: Джон Синглтон
В ролях: Пол Уокер, Тайриз Гибсон, Ева Мендес, Коул Хаузер, Лудакрис, Том Бэрри, Джеймс Римар, Девон Аоки, Мэтт Галлини, Роберто «Санс» Санчес

Описание: Бывший полицейский Брайан О`Коннер вместе с напарником Романом Пирсом собираются перевезти крупную сумму «грязных» денег известного мафиози Картера Верона в качестве его подручных. Но на самом деле эта работа является только прикрытием для Брайана, который вместе с тайным агентом Моникой Фуэнтес должны уличить изворотливого преступника…

КиноПоиск
7.173 97205
IMDb
5.9
240755


Видео: 1920x812, 6690 Kbps
Аудио: AC3, 6 ch, 640 Kbps -
Русский, Дублированный
Субтитры: нет

Медиаинфо
General
Unique ID : 181484947669149502158856511991186633689 (0x8888BAC1A2E941E19DDE8A3DCF02B3D9)
Complete name : D:\Фильмы\16+\Форсаж\Двойной форсаж 2 Fast 2 Furious (2003) BDRip 1080p [HEVC] 10 bit от HANNIBAL.mkv
Format : Matroska
Format version : Version 4 / Version 2
File size : 5.51 GiB
Duration : 1 h 47 min
Overall bit rate : 7 325 kb/s
Movie name : 2.Fast.2.Furious.2003.BDRemux.1080p
Encoded date : UTC 2017-08-23 12:59:55
Writing application : mkvmerge v13.0.0 ('The Juggler') 64bit
Writing library : libebml v1.3.4 + libmatroska v1.4.5
Cover : Yes
Attachments : cover.jpg

Video
ID : 1
Format : HEVC
Format/Info : High Efficiency Video Coding
Format profile : Main 10@L4@Main
Codec ID : V_MPEGH/ISO/HEVC
Duration : 1 h 47 min
Bit rate : 6 690 kb/s
Width : 1 920 pixels
Height : 812 pixels
Display aspect ratio : 2.35:1
Frame rate mode : Constant
Frame rate : 23.976 (24000/1001) FPS
Color space : YUV
Chroma subsampling : 4:2:0
Bit depth : 10 bits
Bits/(Pixel*Frame) : 0.179
Stream size : 5.02 GiB (91%)
Default : Yes
Forced : No
Color range : Limited
Color primaries : BT.709
Transfer characteristics : BT.709
Matrix coefficients : BT.709

Audio
ID : 2
Format : AC-3
Format/Info : Audio Coding 3
Codec ID : A_AC3
Duration : 1 h 47 min
Bit rate mode : Constant
Bit rate : 640 kb/s
Channel(s) : 6 channels
Channel positions : Front: L C R, Side: L R, LFE
Sampling rate : 48.0 kHz
Frame rate : 31.250 FPS (1536 SPF)
Bit depth : 16 bits
Compression mode : Lossy
Stream size : 493 MiB (9%)
Language : Russian
Service kind : Complete Main
Default : Yes
Forced : No

Menu
00:00:00.000 : en:(01)00:00:00:000
00:11:29.689 : en:(02)00:11:29:689
00:14:20.818 : en:(03)00:14:20:818
00:16:02.628 : en:(04)00:16:02:628
00:18:57.344 : en:(05)00:18:57:344
00:24:23.545 : en:(06)00:24:23:545
00:28:16.820 : en:(07)00:28:16:820
00:35:14.152 : en:(08)00:35:14:153
00:40:08.322 : en:(09)00:40:08:322
00:46:44.384 : en:(10)00:46:44:384
00:58:55.114 : en:(11)00:58:55:114
01:05:03.190 : en:(12)01:05:03:190
01:10:25.304 : en:(13)01:10:25:304
01:13:38.037 : en:(14)01:13:38:038
01:22:15.639 : en:(15)01:22:15:639
01:29:54.138 : en:(16)01:29:54:138
01:35:17.628 : en:(17)01:35:17:628
01:37:32.972 : en:(18)01:37:32:972
01:40:33.027 : en:(19)01:40:33:027
01:47:35.615 : en:(20)01:47:35:615
Cкриншот1 Двойной форсаж / 2 Fast 2 Furious (2003) BDRip 1080p [HEVC] 10 bit от HANNIBAL
Загружается...
Cкриншот2 Двойной форсаж / 2 Fast 2 Furious (2003) BDRip 1080p [HEVC] 10 bit от HANNIBAL
Загружается...
Cкриншот3 Двойной форсаж / 2 Fast 2 Furious (2003) BDRip 1080p [HEVC] 10 bit от HANNIBAL
Загружается...
Cкриншот4 Двойной форсаж / 2 Fast 2 Furious (2003) BDRip 1080p [HEVC] 10 bit от HANNIBAL
Загружается...
3. Тройной форсаж: Токийский дрифт / The Fast and the Furious: Tokyo Drift (2006) BDRip 1080p [HEVC] 10 bit от HANNIBAL
HEVC
10 bit
Обложка Тройной форсаж: Токийский дрифт / The Fast and the Furious: Tokyo Drift (2006) BDRip 1080p [HEVC] 10 bit от HANNIBAL Год: 2006
Страна: США, Германия, Япония
Студия: Universal Pictures
Жанр: Боевик, Триллер, Криминал
Продолжительность: 01:44:14

Режиссер: Джастин Лин
В ролях: Лукас Блэк, Бау Вау, Сон Ган, Брайан Ти, Натали Келли, Брайан Гудман, Джейсон Дж. Тобин, Кэйко Китагава, Сонни Тиба, Леонардо Нам

Описание: Шон Босуэлл — одинокий парень, который хочет казаться профи уличных гонок. Он бесшабашно гоняется по улицам города, пытаясь убежать от жизненных невзгод и наживая себе врагов среди местных властей. Когда Шону грозит тюрьма, его от греха подальше отсылают к отцу — профессиональному военному, который служит на военной базе в Японии. В незнакомой стране, живущей по своим законам, Шон чувствует себя еще большим изгоем. Однако вскоре его американский приятель Твинки знакомит его с миром подпольного дрифт-рейсинга. Раньше Шон просто тупо гонялся по улицам, а здесь перед ним открылся целый мир своеобразного искусства из металла и резины, дороги которого оказались невообразимо круты на поворотах…

КиноПоиск
6.82 90112
IMDb
6
229504


Видео: 1920x816, 5492 Kbps
Аудио: AC3, 6 ch, 448 Kbps -
Русский, Дублированный
Субтитры: нет

Медиаинфо
General
Unique ID : 191382017033083086976030742690086996608 (0x8FFAD5F33223A4DEBC887106A4134A80)
Complete name : D:\Фильмы\16+\Форсаж\Тройной форсаж Токийский дрифт The Fast and the Furious Tokyo Drift (2006) BDRip 1080p [HEVC] 10 bit от HANNIBAL.mkv
Format : Matroska
Format version : Version 4 / Version 2
File size : 4.33 GiB
Duration : 1 h 44 min
Overall bit rate : 5 941 kb/s
Movie name : The.Fast.And.The.Furious.Tokyo.Drift.2006.BDRemux.1080p
Encoded date : UTC 2017-09-11 08:28:46
Writing application : mkvmerge v8.9.0 ('Father Daughter') 64bit
Writing library : libebml v1.3.3 + libmatroska v1.4.4
Cover : Yes
Attachments : cover.jpg

Video
ID : 1
Format : HEVC
Format/Info : High Efficiency Video Coding
Format profile : Main 10@L4@Main
Codec ID : V_MPEGH/ISO/HEVC
Duration : 1 h 44 min
Bit rate : 5 492 kb/s
Width : 1 920 pixels
Height : 816 pixels
Display aspect ratio : 2.35:1
Frame rate mode : Constant
Frame rate : 23.976 (24000/1001) FPS
Color space : YUV
Chroma subsampling : 4:2:0
Bit depth : 10 bits
Bits/(Pixel*Frame) : 0.146
Stream size : 4.00 GiB (92%)
Default : Yes
Forced : No
Color range : Limited
Color primaries : BT.709
Transfer characteristics : BT.709
Matrix coefficients : BT.709

Audio
ID : 2
Format : AC-3
Format/Info : Audio Coding 3
Codec ID : A_AC3
Duration : 1 h 44 min
Bit rate mode : Constant
Bit rate : 448 kb/s
Channel(s) : 6 channels
Channel positions : Front: L C R, Side: L R, LFE
Sampling rate : 48.0 kHz
Frame rate : 31.250 FPS (1536 SPF)
Bit depth : 16 bits
Compression mode : Lossy
Stream size : 334 MiB (8%)
Language : Russian
Service kind : Complete Main
Default : Yes
Forced : No

Menu
00:00:00.000 : en:(01)00:00:00:000
00:03:04.434 : en:(02)00:03:04:434
00:09:43.499 : en:(03)00:09:43:499
00:12:10.688 : en:(04)00:12:10:688
00:16:15.391 : en:(05)00:16:15:391
00:20:16.840 : en:(06)00:20:16:840
00:26:36.469 : en:(07)00:26:36:469
00:32:56.849 : en:(08)00:32:56:849
00:41:14.305 : en:(09)00:41:14:305
00:46:34.833 : en:(10)00:46:34:833
00:52:55.255 : en:(11)00:52:55:255
00:58:20.121 : en:(12)00:58:20:121
01:01:46.244 : en:(13)01:01:46:244
01:05:50.488 : en:(14)01:05:50:488
01:08:56.090 : en:(15)01:08:56:090
01:16:14.611 : en:(16)01:16:14:611
01:20:31.408 : en:(17)01:20:31:409
01:26:53.249 : en:(18)01:26:53:249
01:34:59.944 : en:(19)01:34:59:944
01:37:33.848 : en:(20)01:37:33:848
01:44:13.872 : en:(21)01:44:13:872
Cкриншот1 Тройной форсаж: Токийский дрифт / The Fast and the Furious: Tokyo Drift (2006) BDRip 1080p [HEVC] 10 bit от HANNIBAL
Загружается...
Cкриншот2 Тройной форсаж: Токийский дрифт / The Fast and the Furious: Tokyo Drift (2006) BDRip 1080p [HEVC] 10 bit от HANNIBAL
Загружается...
Cкриншот3 Тройной форсаж: Токийский дрифт / The Fast and the Furious: Tokyo Drift (2006) BDRip 1080p [HEVC] 10 bit от HANNIBAL
Загружается...
Cкриншот4 Тройной форсаж: Токийский дрифт / The Fast and the Furious: Tokyo Drift (2006) BDRip 1080p [HEVC] 10 bit от HANNIBAL
Загружается...
4. Форсаж 4 / Fast & Furious (2009) BDRip 1080p [HEVC] 10 bit от HANNIBAL
HEVC
10 bit
Обложка Форсаж 4 / Fast & Furious (2009) BDRip 1080p [HEVC] 10 bit от HANNIBAL Год: 2009
Страна: США
Студия: Universal Pictures
Жанр: Боевик, Триллер, Драма, Криминал
Продолжительность: 01:46:50

Режиссер: Джастин Лин
В ролях: Вин Дизель, Пол Уокер, Джордана Брюстер, Галь Гадот, Джон Ортис, Лас Алонсо, Мишель Родригес, Джек Конли, Шей Уигэм, Лиза Лапира

Описание: Когда кривая дорожка заставляет скрывающегося от правосудия Дома Торетто вернуться в Лос-Анджелес, вражда с агентом Брайаном О’Коннером вспыхивает с новой силой. Но у парочки обнаруживается общий противник, и Дому с Брайаном приходится заключить перемирие в надежде одержать над ним победу. Грабя конвои, роя подкопы и пересекая границы, они приходят к идеальной форме отмщения — педали газа, вдавленной до упора.

КиноПоиск
6.951 106020
IMDb
6.6
251760


Видео: 1920x800, 5450 Kbps
Аудио: AC3, 6 ch, 448 Kbps -
Русский, Дублированный
Субтитры: нет

Медиаинфо
General
Unique ID : 221680616575849866468133874167581000482 (0xA6C6223DCAA85A58964BBD8BC0544322)
Complete name : D:\Фильмы\16+\Форсаж\Форсаж 4 Fast & Furious (2009) BDRip 1080p [HEVC] 10 bit от HANNIBAL.mkv
Format : Matroska
Format version : Version 4 / Version 2
File size : 4.40 GiB
Duration : 1 h 46 min
Overall bit rate : 5 899 kb/s
Movie name : Fast.&.Furious.2009.BDRemux.1080p
Encoded date : UTC 2017-09-12 14:54:24
Writing application : mkvmerge v8.9.0 ('Father Daughter') 64bit
Writing library : libebml v1.3.3 + libmatroska v1.4.4
Cover : Yes
Attachments : cover.jpg

Video
ID : 1
Format : HEVC
Format/Info : High Efficiency Video Coding
Format profile : Main 10@L4@Main
Codec ID : V_MPEGH/ISO/HEVC
Duration : 1 h 46 min
Bit rate : 5 450 kb/s
Width : 1 920 pixels
Height : 800 pixels
Display aspect ratio : 2.40:1
Frame rate mode : Constant
Frame rate : 23.976 (24000/1001) FPS
Color space : YUV
Chroma subsampling : 4:2:0
Bit depth : 10 bits
Bits/(Pixel*Frame) : 0.148
Stream size : 4.07 GiB (92%)
Default : Yes
Forced : No
Color range : Limited
Color primaries : BT.709
Transfer characteristics : BT.709
Matrix coefficients : BT.709

Audio
ID : 2
Format : AC-3
Format/Info : Audio Coding 3
Codec ID : A_AC3
Duration : 1 h 46 min
Bit rate mode : Constant
Bit rate : 448 kb/s
Channel(s) : 6 channels
Channel positions : Front: L C R, Side: L R, LFE
Sampling rate : 48.0 kHz
Frame rate : 31.250 FPS (1536 SPF)
Bit depth : 16 bits
Compression mode : Lossy
Stream size : 342 MiB (8%)
Language : Russian
Service kind : Complete Main
Default : Yes
Forced : No

Menu
00:00:00.000 : en:(01)00:00:00:000
00:07:26.529 : en:(02)00:07:26:529
00:11:46.956 : en:(03)00:11:46:956
00:16:46.755 : en:(04)00:16:46:755
00:24:24.087 : en:(05)00:24:24:087
00:29:05.452 : en:(06)00:29:05:452
00:34:05.293 : en:(07)00:34:05:293
00:37:30.790 : en:(08)00:37:30:790
00:46:07.347 : en:(09)00:46:07:347
00:53:37.380 : en:(10)00:53:37:380
00:58:15.158 : en:(11)00:58:15:158
01:04:49.218 : en:(12)01:04:49:218
01:07:29.879 : en:(13)01:07:29:879
01:12:01.859 : en:(14)01:12:01:859
01:14:46.523 : en:(15)01:14:46:523
01:20:36.164 : en:(16)01:20:36:164
01:25:03.264 : en:(17)01:25:03:264
01:29:09.385 : en:(18)01:29:09:385
01:35:54.999 : en:(19)01:35:54:999
01:39:24.957 : en:(20)01:39:24:957
Cкриншот1 Форсаж 4 / Fast & Furious (2009) BDRip 1080p [HEVC] 10 bit от HANNIBAL
Загружается...
Cкриншот2 Форсаж 4 / Fast & Furious (2009) BDRip 1080p [HEVC] 10 bit от HANNIBAL
Загружается...
Cкриншот3 Форсаж 4 / Fast & Furious (2009) BDRip 1080p [HEVC] 10 bit от HANNIBAL
Загружается...
Cкриншот4 Форсаж 4 / Fast & Furious (2009) BDRip 1080p [HEVC] 10 bit от HANNIBAL
Загружается...
5. Форсаж 5 / Fast Five (2011) BDRip 1080p [HEVC] 10 bit от HANNIBAL
HEVC
10 bit
Обложка Форсаж 5 / Fast Five (2011) BDRip 1080p [HEVC] 10 bit от HANNIBAL Год: 2011
Страна: США
Жанр: Боевик, Триллер, Криминал
Продолжительность: 02:10:21

Режиссер: Джастин Лин
В ролях: Вин Дизель, Пол Уокер, Джордана Брюстер, Дуэйн Джонсон, Тайриз Гибсон, Лудакрис, Мэтт Шульце, Сон Ган, Галь Гадот, Эльза Патаки

Описание: Бывший полицейский Брайан О`Коннер вместе с бывалым лихачом Домиником Торетто совсем немного увлеклись жизнью вне закона. После того, как Брайан и Миа Торетто освободили Доминика, они не рискуют долго задерживаться на одном месте, так как являются желанной целью порядком недовольных копов.

КиноПоиск
7.579 133325
IMDb
7.3
340545


Видео: 1920x816, 5529 Kbps
Аудио: AC3, 6 ch, 448 Kbps -
Русский, Дублированный
Субтитры: нет

Медиаинфо
General
Unique ID : 202213124690886418202826248863992793866 (0x9820D4C975A53141A2F7B5CBEE844B0A)
Complete name : D:\Фильмы\16+\Форсаж\Форсаж 5 Fast Five (2011) BDRip 1080p [HEVC] 10 bit от HANNIBAL.mkv
Format : Matroska
Format version : Version 4 / Version 2
File size : 5.44 GiB
Duration : 2 h 10 min
Overall bit rate : 5 971 kb/s
Movie name : Fast.Five.2011.BDRemux.1080p
Encoded date : UTC 2017-09-14 19:18:15
Writing application : mkvmerge v8.9.0 ('Father Daughter') 64bit
Writing library : libebml v1.3.3 + libmatroska v1.4.4
Cover : Yes
Attachments : cover.jpg

Video
ID : 1
Format : HEVC
Format/Info : High Efficiency Video Coding
Format profile : Main 10@L4@Main
Codec ID : V_MPEGH/ISO/HEVC
Duration : 2 h 10 min
Bit rate : 5 529 kb/s
Width : 1 920 pixels
Height : 816 pixels
Display aspect ratio : 2.35:1
Frame rate mode : Constant
Frame rate : 23.976 (24000/1001) FPS
Color space : YUV
Chroma subsampling : 4:2:0
Bit depth : 10 bits
Bits/(Pixel*Frame) : 0.147
Stream size : 5.03 GiB (92%)
Default : Yes
Forced : No
Color range : Limited
Color primaries : BT.709
Transfer characteristics : BT.709
Matrix coefficients : BT.709

Audio
ID : 2
Format : AC-3
Format/Info : Audio Coding 3
Codec ID : A_AC3
Duration : 2 h 10 min
Bit rate mode : Constant
Bit rate : 448 kb/s
Channel(s) : 6 channels
Channel positions : Front: L C R, Side: L R, LFE
Sampling rate : 48.0 kHz
Frame rate : 31.250 FPS (1536 SPF)
Bit depth : 16 bits
Compression mode : Lossy
Stream size : 418 MiB (8%)
Language : Russian
Service kind : Complete Main
Default : Yes
Forced : No

Menu
00:00:00.000 : en:(01)00:00:00:000
00:07:45.715 : en:(02)00:07:45:715
00:17:29.465 : en:(03)00:17:29:465
00:23:01.838 : en:(04)00:23:01:838
00:28:21.574 : en:(05)00:28:21:574
00:34:55.635 : en:(06)00:34:55:635
00:40:46.318 : en:(07)00:40:46:318
00:48:41.585 : en:(08)00:48:41:585
00:55:20.317 : en:(09)00:55:20:317
01:03:09.952 : en:(10)01:03:09:952
01:10:44.657 : en:(11)01:10:44:657
01:18:25.867 : en:(12)01:18:25:867
01:22:36.201 : en:(13)01:22:36:201
01:27:58.731 : en:(14)01:27:58:731
01:31:53.424 : en:(15)01:31:53:424
01:39:13.322 : en:(16)01:39:13:322
01:47:00.747 : en:(17)01:47:00:747
01:54:50.133 : en:(18)01:54:50:133
01:59:15.231 : en:(19)01:59:15:231
02:03:24.397 : en:(20)02:03:24:397
02:10:21.021 : en:(21)02:10:21:021
Cкриншот1 Форсаж 5 / Fast Five (2011) BDRip 1080p [HEVC] 10 bit от HANNIBAL
Загружается...
Cкриншот2 Форсаж 5 / Fast Five (2011) BDRip 1080p [HEVC] 10 bit от HANNIBAL
Загружается...
Cкриншот3 Форсаж 5 / Fast Five (2011) BDRip 1080p [HEVC] 10 bit от HANNIBAL
Загружается...
Cкриншот4 Форсаж 5 / Fast Five (2011) BDRip 1080p [HEVC] 10 bit от HANNIBAL
Загружается...
6. Форсаж 6 / Furious 6 (2013) [Extended Cut] BDRip 1080p [HEVC] 10 bit от HANNIBAL
HEVC
10 bit
Обложка Форсаж 6 / Furious 6 (2013) [Extended Cut] BDRip 1080p [HEVC] 10 bit от HANNIBAL Год: 2013
Страна: США, Япония, Испания
Студия: Universal Pictures
Жанр: Боевик, Триллер, Драма, Криминал
Продолжительность: 02:11:02

Режиссер: Джастин Лин
В ролях: Вин Дизель, Пол Уокер, Дуэйн Джонсон, Мишель Родригес, Люк Эванс, Тайриз Гибсон, Лудакрис, Джина Карано, Джордана Брюстер, Сон Ган

Описание: После того как Доминик и Брайн побывали в Рио, где они ограбили и свергли империю вора в законе, их команда получила 100 миллионов, и наши герои оказались разбросаны по всему миру. Но их привычка вечно жить в бегах не даёт им покоя. Между тем, Хоббс отслеживал организацию смертельно опасных наёмников-водителей по двенадцати странам. Единственный способ остановить эту криминальную группу — это превзойти их на улицах, поэтому Хоббс просит Доминика собрать его элитную команду в Лондоне. За это он обещает полное помилование для Доминика и его друзей, чтобы они смогли наконец вернуться домой к своей семье.

КиноПоиск
7.005 113447
IMDb
7.1
356868


Видео: 1920x816, 5477 Kbps
Аудио: AC3, 6 ch, 448 Kbps -
Русский, Дублированный
Субтитры: нет

Медиаинфо
General
Unique ID : 252677253113926308989473286478563243658 (0xBE17DE69EC61FBD8B2BFADCAFB95F68A)
Complete name : D:\Фильмы\16+\Форсаж\Форсаж 6 Furious 6 (2013) [Extended Cut] BDRip 1080p [HEVC] 10 bit от HANNIBAL.mkv
Format : Matroska
Format version : Version 4 / Version 2
File size : 5.42 GiB
Duration : 2 h 11 min
Overall bit rate : 5 922 kb/s
Movie name : Furious.6.Extended.Cut.2013.BDRemux.1080p
Encoded date : UTC 2017-09-16 10:59:16
Writing application : mkvmerge v8.9.0 ('Father Daughter') 64bit
Writing library : libebml v1.3.3 + libmatroska v1.4.4
Cover : Yes
Attachments : cover.jpg

Video
ID : 1
Format : HEVC
Format/Info : High Efficiency Video Coding
Format profile : Main 10@L4@Main
Codec ID : V_MPEGH/ISO/HEVC
Duration : 2 h 10 min
Bit rate : 5 477 kb/s
Width : 1 920 pixels
Height : 816 pixels
Display aspect ratio : 2.35:1
Frame rate mode : Constant
Frame rate : 23.976 (24000/1001) FPS
Color space : YUV
Chroma subsampling : 4:2:0
Bit depth : 10 bits
Bits/(Pixel*Frame) : 0.146
Stream size : 5.01 GiB (92%)
Default : Yes
Forced : No
Color range : Limited
Color primaries : BT.709
Transfer characteristics : BT.709
Matrix coefficients : BT.709

Audio
ID : 2
Format : AC-3
Format/Info : Audio Coding 3
Codec ID : A_AC3
Duration : 2 h 11 min
Bit rate mode : Constant
Bit rate : 448 kb/s
Channel(s) : 6 channels
Channel positions : Front: L C R, Side: L R, LFE
Sampling rate : 48.0 kHz
Frame rate : 31.250 FPS (1536 SPF)
Bit depth : 16 bits
Compression mode : Lossy
Stream size : 420 MiB (8%)
Language : Russian
Service kind : Complete Main
Default : Yes
Forced : No

Menu
00:00:00.000 : en:(01)00:00:00:000
00:04:21.010 : en:(02)00:04:21:010
00:10:19.118 : en:(03)00:10:19:118
00:15:35.267 : en:(04)00:15:35:267
00:19:18.574 : en:(05)00:19:18:574
00:24:32.721 : en:(06)00:24:32:721
00:30:23.404 : en:(07)00:30:23:404
00:36:28.477 : en:(08)00:36:28:477
00:44:01.305 : en:(09)00:44:01:305
00:50:50.255 : en:(10)00:50:50:255
00:56:54.327 : en:(11)00:56:54:327
01:04:54.056 : en:(12)01:04:54:056
01:10:14.292 : en:(13)01:10:14:293
01:19:13.456 : en:(14)01:19:13:456
01:25:41.177 : en:(15)01:25:41:177
01:34:53.771 : en:(16)01:34:53:771
01:41:48.560 : en:(17)01:41:48:560
01:48:31.838 : en:(18)01:48:31:838
01:57:48.811 : en:(19)01:57:48:811
02:03:04.418 : en:(20)02:03:04:418
02:11:02.646 : en:(21)02:11:02:646
Cкриншот1 Форсаж 6 / Furious 6 (2013) [Extended Cut] BDRip 1080p [HEVC] 10 bit от HANNIBAL
Загружается...
Cкриншот2 Форсаж 6 / Furious 6 (2013) [Extended Cut] BDRip 1080p [HEVC] 10 bit от HANNIBAL
Загружается...
Cкриншот3 Форсаж 6 / Furious 6 (2013) [Extended Cut] BDRip 1080p [HEVC] 10 bit от HANNIBAL
Загружается...
Cкриншот4 Форсаж 6 / Furious 6 (2013) [Extended Cut] BDRip 1080p [HEVC] 10 bit от HANNIBAL
Загружается...
7. Форсаж 7 / Furious Seven (2015) [Extended Cut] BDRip 1080p [HEVC] 10 bit от HANNIBAL
HEVC
10 bit
Обложка Форсаж 7 / Furious Seven (2015) [Extended Cut] BDRip 1080p [HEVC] 10 bit от HANNIBAL Год: 2015
Страна: США
Жанр: Боевик, Триллер, Криминал
Продолжительность: 02:19:54

Режиссер: Джеймс Ван
В ролях: Вин Дизель, Пол Уокер, Джейсон Стэйтем, Мишель Родригес, Дуэйн Джонсон, Тайриз Гибсон, Лудакрис, Натали Эммануэль, Джордана Брюстер, Курт Рассел

Описание: Они покорили Токио и Рио, Лос-Анджелес и Лондон. Но мир больше не играет по их правилам. Зной арабских пустынь, неприлично высокие небоскребы, миллионы долларов на колесах и очень, очень знаменитый злодей. Скорость не знает границ.

КиноПоиск
7.017 120781
IMDb
7.2
346395


Видео: 1920x800, 5476 Kbps
Аудио: AC3, 6 ch, 448 Kbps -
Русский, Дублированный
Субтитры: нет

Медиаинфо
General
Unique ID : 226607791213865162610940390163483135461 (0xAA7B12B4E9E59685A4E1C86693370DE5)
Complete name : D:\Фильмы\16+\Форсаж\Форсаж 7 Furious Seven (2015) [Extended Cut] BDRip 1080p [HEVC] 10 bit от HANNIBAL.mkv
Format : Matroska
Format version : Version 4 / Version 2
File size : 5.79 GiB
Duration : 2 h 19 min
Overall bit rate : 5 922 kb/s
Movie name : Furious.Seven.Extended.Cut.2015.BDRemux.1080р
Encoded date : UTC 2017-09-17 18:52:16
Writing application : mkvmerge v8.9.0 ('Father Daughter') 64bit
Writing library : libebml v1.3.3 + libmatroska v1.4.4
Cover : Yes
Attachments : cover.jpg

Video
ID : 1
Format : HEVC
Format/Info : High Efficiency Video Coding
Format profile : Main 10@L4@Main
Codec ID : V_MPEGH/ISO/HEVC
Duration : 2 h 19 min
Bit rate : 5 476 kb/s
Width : 1 920 pixels
Height : 800 pixels
Display aspect ratio : 2.40:1
Frame rate mode : Constant
Frame rate : 23.976 (24000/1001) FPS
Color space : YUV
Chroma subsampling : 4:2:0
Bit depth : 10 bits
Bits/(Pixel*Frame) : 0.149
Stream size : 5.35 GiB (92%)
Default : Yes
Forced : No
Color range : Limited
Color primaries : BT.709
Transfer characteristics : BT.709
Matrix coefficients : BT.709

Audio
ID : 2
Format : AC-3
Format/Info : Audio Coding 3
Codec ID : A_AC3
Duration : 2 h 19 min
Bit rate mode : Constant
Bit rate : 448 kb/s
Channel(s) : 6 channels
Channel positions : Front: L C R, Side: L R, LFE
Sampling rate : 48.0 kHz
Frame rate : 31.250 FPS (1536 SPF)
Bit depth : 16 bits
Compression mode : Lossy
Stream size : 448 MiB (8%)
Language : Russian
Service kind : Complete Main
Default : Yes
Forced : No

Menu
00:00:00.000 : en:(01)00:00:00:000
00:04:39.946 : en:(02)00:04:39:946
00:11:29.480 : en:(03)00:11:29:480
00:16:39.289 : en:(04)00:16:39:289
00:25:54.052 : en:(05)00:25:54:052
00:33:43.896 : en:(06)00:33:43:896
00:41:44.585 : en:(07)00:41:44:585
00:46:41.006 : en:(08)00:46:41:006
00:52:10.710 : en:(09)00:52:10:710
01:02:31.414 : en:(10)01:02:31:414
01:06:16.680 : en:(11)01:06:16:680
01:14:16.868 : en:(12)01:14:16:868
01:22:34.032 : en:(13)01:22:34:032
01:33:21.137 : en:(14)01:33:21:137
01:38:27.484 : en:(15)01:38:27:484
01:45:40.083 : en:(16)01:45:40:083
01:53:54.452 : en:(17)01:53:54:452
01:58:31.062 : en:(18)01:58:31:062
02:06:19.863 : en:(19)02:06:19:863
02:11:31.174 : en:(20)02:11:31:174
02:19:54.593 : en:(21)02:19:54:594
Cкриншот1 Форсаж 7 / Furious Seven (2015) [Extended Cut] BDRip 1080p [HEVC] 10 bit от HANNIBAL
Загружается...
Cкриншот2 Форсаж 7 / Furious Seven (2015) [Extended Cut] BDRip 1080p [HEVC] 10 bit от HANNIBAL
Загружается...
Cкриншот3 Форсаж 7 / Furious Seven (2015) [Extended Cut] BDRip 1080p [HEVC] 10 bit от HANNIBAL
Загружается...
Cкриншот4 Форсаж 7 / Furious Seven (2015) [Extended Cut] BDRip 1080p [HEVC] 10 bit от HANNIBAL
Загружается...
8. Форсаж 8 / The Fate of the Furious (2017) BDRip 1080p [HEVC] 10 bit от HANNIBAL
HEVC
10 bit
Обложка Форсаж 8 / The Fate of the Furious (2017) BDRip 1080p [HEVC] 10 bit от HANNIBAL Год: 2017
Страна: Китай, США, Япония
Студия: One Race Films, Original Film, Пифагор, Universal Pictures
Жанр: Боевик, Триллер, Криминал
Продолжительность: 02:15:57

Режиссер: Ф. Гэри Грей
В ролях: Вин Дизель, Дуэйн Джонсон, Джейсон Стэйтем, Мишель Родригес, Тайриз Гибсон, Лудакрис, Натали Эммануэль, Курт Рассел, Скотт Иствуд, Шарлиз Терон

Описание: Пристегните ремни — гонка продолжается. Гавана, Берлин, Нью-Йорк — для самой крутой команды в мире нет ничего невозможного, пока они вместе. Но когда на их пути окажется одна из самых красивых женщин на планете и по совместительству королева киберпреступности, дороги друзей разойдутся.

КиноПоиск
6.184 82051
IMDb
6.7
193200


Видео: 1920x800, 5451 Kbps
Аудио: AC3, 6 ch, 448 Kbps -
Русский, Дублированный
Субтитры: нет

Медиаинфо
General
Unique ID : 204534579706076285518626134159174100196 (0x99DFED5B228C3EB99B5BDD6F33C764E4)
Complete name : D:\Фильмы\16+\Форсаж\Форсаж 8 The Fate of the Furious (2017) BDRip 1080p [HEVC] 10 bit от HANNIBAL.mkv
Format : Matroska
Format version : Version 4 / Version 2
File size : 5.60 GiB
Duration : 2 h 15 min
Overall bit rate : 5 894 kb/s
Movie name : The.Fate.of.the.Furious.2017.BDRemux.1080p
Encoded date : UTC 2017-09-21 14:07:44
Writing application : mkvmerge v8.9.0 ('Father Daughter') 64bit
Writing library : libebml v1.3.3 + libmatroska v1.4.4
Cover : Yes
Attachments : cover.jpg

Video
ID : 1
Format : HEVC
Format/Info : High Efficiency Video Coding
Format profile : Main 10@L4@Main
Codec ID : V_MPEGH/ISO/HEVC
Duration : 2 h 15 min
Bit rate : 5 451 kb/s
Width : 1 920 pixels
Height : 800 pixels
Display aspect ratio : 2.40:1
Frame rate mode : Constant
Frame rate : 23.976 (24000/1001) FPS
Color space : YUV
Chroma subsampling : 4:2:0
Bit depth : 10 bits
Bits/(Pixel*Frame) : 0.148
Stream size : 5.17 GiB (92%)
Default : Yes
Forced : No
Color range : Limited
Color primaries : BT.709
Transfer characteristics : BT.709
Matrix coefficients : BT.709

Audio
ID : 2
Format : AC-3
Format/Info : Audio Coding 3
Codec ID : A_AC3
Duration : 2 h 15 min
Bit rate mode : Constant
Bit rate : 448 kb/s
Channel(s) : 6 channels
Channel positions : Front: L C R, Side: L R, LFE
Sampling rate : 48.0 kHz
Frame rate : 31.250 FPS (1536 SPF)
Bit depth : 16 bits
Compression mode : Lossy
Stream size : 436 MiB (8%)
Language : Russian
Service kind : Complete Main
Default : Yes
Forced : No

Menu
00:00:00.000 : en:00:00:00.000
00:13:08.913 : en:00:13:08.913
00:20:30.771 : en:00:20:30.771
00:26:38.639 : en:00:26:38.639
00:32:26.778 : en:00:32:26.778
00:36:40.573 : en:00:36:40.573
00:43:35.612 : en:00:43:35.613
00:47:45.780 : en:00:47:45.780
00:56:00.732 : en:00:56:00.732
01:04:08.303 : en:01:04:08.303
01:09:08.061 : en:01:09:08.061
01:13:24.274 : en:01:13:24.275
01:21:25.714 : en:01:21:25.714
01:29:29.948 : en:01:29:29.948
01:35:12.457 : en:01:35:12.457
01:39:55.781 : en:01:39:55.781
01:45:00.711 : en:01:45:00.711
01:53:01.858 : en:01:53:01.858
02:01:51.262 : en:02:01:51.262
02:06:45.097 : en:02:06:45.097
Cкриншот1 Форсаж 8 / The Fate of the Furious (2017) BDRip 1080p [HEVC] 10 bit от HANNIBAL
Загружается...
Cкриншот2 Форсаж 8 / The Fate of the Furious (2017) BDRip 1080p [HEVC] 10 bit от HANNIBAL
Загружается...
Cкриншот3 Форсаж 8 / The Fate of the Furious (2017) BDRip 1080p [HEVC] 10 bit от HANNIBAL
Загружается...
Cкриншот4 Форсаж 8 / The Fate of the Furious (2017) BDRip 1080p [HEVC] 10 bit от HANNIBAL
Загружается...
9. Форсаж: Хоббс и Шоу / Fast & Furious Presents: Hobbs & Shaw (2019) BDRip 1080p [HEVC] 10 bit от HANNIBAL
HEVC
10 bit
Обложка Форсаж: Хоббс и Шоу / Fast & Furious Presents: Hobbs & Shaw (2019) BDRip 1080p [HEVC] 10 bit от HANNIBAL Год: 2019
Страна: США
Студия: Universal Pictures
Жанр: Боевик, Приключения
Продолжительность: 02:16:42

Режиссер: Дэвид Литч
В ролях: Дуэйн Джонсон, Джейсон Стэйтем, Ванесса Кирби, Идрис Эльба, Эдди Марсан, Хелен Миррен, Райан Рейнольдс, Эйса Гонсалес, Клифф Кёртис, Элиана Суа

Описание: Люк Хоббс — американский элитный спецагент, он любит удобную спортивную одежду, большие пикапы и здоровое питание. Декард Шоу — британский пижон, бывший сотрудник разведки, предпочитает дорогие костюмы, спортивные авто и пабы. Эти двое терпеть друг друга не могут. Но если кто-то угрожает их семьям, они готовы пойти на всё. Даже на работу в команде.

КиноПоиск
6.247 49679
IMDb
6.5
140062


Видео: 1920x802, 5085 Kbps
Аудио1: AC3, 6 ch, 640 Kbps -
Русский, Дублированный (Лицензия)
Аудио2: AC3, 2 ch, 192 Kbps -
Украинский, Дублированный (LeDoyen)
Аудио3: AC3, 6 ch, 448 Kbps -
Английский, Оригинал
Субтитры: Русские (форсированные, полные), английские

Как за пару секунд удалить ненужные аудиодорожки и субтитры (Внимание! После удаления вы не сможете поддержать раздачу)

Медиаинфо
Общее
Уникальный идентификатор : 45077799313663665788929792858860986325 (0x21E9AB1926B2C2F665657D7FB78A9FD5)
Полное имя : R:\Fast & Furious Presents Hobbs & Shaw (2019) BDRip-HEVC 1080p 10 bit (1).mkv
Формат : Matroska
Версия формата : Version 4 / Version 2
Размер файла : 6,08 Гбайт
Продолжительность : 2 ч. 16 м.
Общий поток : 6367 Кбит/сек
Дата кодирования : UTC 2019-11-23 08:17:13
Программа кодирования : mkvmerge v28.2.0 ('The Awakening') 64-bit
Библиотека кодирования : libebml v1.3.6 + libmatroska v1.4.9
Обложка : Yes
Attachments : cover.jpg

Видео
Идентификатор : 1
Формат : HEVC
Формат/Информация : High Efficiency Video Coding
Профиль формата : Main 10@L5.1@High
Идентификатор кодека : V_MPEGH/ISO/HEVC
Продолжительность : 2 ч. 16 м.
Битрейт : 5085 Кбит/сек
Ширина : 1920 пикселей
Высота : 802 пикселя
Соотношение сторон : 2,40:1
Режим частоты кадров : Постоянный
Частота кадров : 23,976 (24000/1001) кадра/сек
Цветовое пространство : YUV
Субдискретизация насыщенности : 4:2:0
Битовая глубина : 10 бит
Бит/(Пиксели*Кадры) : 0.138
Размер потока : 4,85 Гбайт (80%)
Библиотека кодирования : x265 3.1+11-de920e0a3183:[Windows][clang 8.0.0][64 bit] 10bit
Настройки программы : cpuid=1111039 / frame-threads=13 / numa-pools=12 / wpp / no-pmode / no-pme / no-psnr / no-ssim / log-level=3 / input-csp=1 / input-res=1920x802 / interlace=0 / total-frames=0 / level-idc=51 / high-tier=1 / uhd-bd=0 / ref=5 / allow-non-conformance / no-repeat-headers / annexb / no-aud / no-hrd / info / hash=0 / no-temporal-layers / open-gop / min-keyint=24 / keyint=240 / gop-lookahead=0 / bframes=8 / b-adapt=2 / b-pyramid / bframe-bias=0 / rc-lookahead=20 / lookahead-slices=5 / scenecut=40 / radl=0 / no-splice / no-intra-refresh / ctu=64 / min-cu-size=8 / rect / amp / max-tu-size=32 / tu-inter-depth=4 / tu-intra-depth=4 / limit-tu=0 / rdoq-level=2 / dynamic-rd=0.00 / no-ssim-rd / signhide / no-tskip / nr-intra=0 / nr-inter=0 / no-constrained-intra / no-strong-intra-smoothing / max-merge=3 / limit-refs=1 / no-limit-modes / me=3 / subme=7 / merange=57 / temporal-mvp / no-hme / weightp / weightb / no-analyze-src-pics / deblock=-3:-3 / no-sao / no-sao-non-deblock / rd=6 / early-skip / rskip / no-fast-intra / no-tskip-fast / no-cu-lossless / b-intra / no-splitrd-skip / rdpenalty=0 / psy-rd=2.00 / psy-rdoq=1.00 / no-rd-refine / no-lossless / cbqpoffs=0 / crqpoffs=0 / rc=crf / crf=16.5 / qcomp=0.60 / qpstep=4 / stats-write=0 / stats-read=0 / vbv-maxrate=160000 / vbv-bufsize=160000 / vbv-init=0.9 / crf-max=30.0 / crf-min=0.0 / ipratio=1.40 / pbratio=1.30 / aq-mode=1 / aq-strength=1.00 / cutree / zone-count=0 / no-strict-cbr / qg-size=32 / no-rc-grain / qpmax=69 / qpmin=0 / no-const-vbv / sar=1 / overscan=0 / videoformat=5 / range=0 / colorprim=1 / transfer=1 / colormatrix=1 / chromaloc=0 / display-window=0cll=0,0 / min-luma=0 / max-luma=1023 / log2-max-poc-lsb=8 / vui-timing-info / vui-hrd-info / slices=1 / no-opt-qp-pps / no-opt-ref-list-length-pps / no-multi-pass-opt-rps / scenecut-bias=0.05 / no-opt-cu-delta-qp / no-aq-motion / no-hdr / no-hdr-opt / no-dhdr10-opt / no-idr-recovery-sei / analysis-reuse-level=5 / scale-factor=0 / refine-intra=0 / refine-inter=0 / refine-mv=0 / refine-ctu-distortion=0 / no-limit-sao / ctu-info=0 / no-lowpass-dct / refine-analysis-type=0 / copy-pic=1 / max-ausize-factor=1.0 / no-dynamic-refine / no-single-sei / no-hevc-aq / no-svt / no-field / qp-adaptation-range=1.00
Язык : English
Default : Да
Forced : Нет
Цветовой диапазон : Limited
Основные цвета : BT.709
Характеристики трансфера : BT.709
Коэффициенты матрицы : BT.709

Аудио #1
Идентификатор : 2
Формат : AC-3
Формат/Информация : Audio Coding 3
Идентификатор кодека : A_AC3
Продолжительность : 2 ч. 16 м.
Вид битрейта : Постоянный
Битрейт : 640 Кбит/сек
Каналы : 6 каналов
Расположение каналов : Front: L C R, Side: L R, LFE
Частота : 48,0 КГц
Частота кадров : 31,250 кадров/сек (1536 SPF)
Битовая глубина : 16 бит
Метод сжатия : С потерями
Размер потока : 626 Мбайт (10%)
Заголовок : Dub [License]
Язык : Russian
ServiceKind/String : Complete Main
Default : Да
Forced : Да

Аудио #2
Идентификатор : 3
Формат : AC-3
Формат/Информация : Audio Coding 3
Идентификатор кодека : A_AC3
Продолжительность : 2 ч. 16 м.
Вид битрейта : Постоянный
Битрейт : 192 Кбит/сек
Каналы : 2 канала
Расположение каналов : Front: L R
Частота : 48,0 КГц
Частота кадров : 31,250 кадров/сек (1536 SPF)
Битовая глубина : 16 бит
Метод сжатия : С потерями
Размер потока : 188 Мбайт (3%)
Заголовок : Ukr [Dub, LeDoyen]
Язык : Ukrainian
ServiceKind/String : Complete Main
Default : Нет
Forced : Нет

Аудио #3
Идентификатор : 4
Формат : AC-3
Формат/Информация : Audio Coding 3
Идентификатор кодека : A_AC3
Продолжительность : 2 ч. 16 м.
Вид битрейта : Постоянный
Битрейт : 448 Кбит/сек
Каналы : 6 каналов
Расположение каналов : Front: L C R, Side: L R, LFE
Частота : 48,0 КГц
Частота кадров : 31,250 кадров/сек (1536 SPF)
Битовая глубина : 16 бит
Метод сжатия : С потерями
Размер потока : 438 Мбайт (7%)
Заголовок : Original
Язык : English
ServiceKind/String : Complete Main
Default : Нет
Forced : Нет

Текст #1
Идентификатор : 5
Формат : UTF-8
Идентификатор кодека : S_TEXT/UTF8
Идентификатор кодека/Информация : UTF-8 Plain Text
Продолжительность : 1 ч. 57 м.
Битрейт : 0 бит/сек
ElementCount : 19
Размер потока : 778 байт (0%)
Заголовок : Forced [License]
Язык : Russian
Default : Да
Forced : Да

Текст #2
Идентификатор : 6
Формат : UTF-8
Идентификатор кодека : S_TEXT/UTF8
Идентификатор кодека/Информация : UTF-8 Plain Text
Продолжительность : 2 ч. 4 м.
Битрейт : 1 бит/сек
ElementCount : 48
Размер потока : 1,42 Кбайт (0%)
Заголовок : Forced v.2 [seleZen]
Язык : Russian
Default : Нет
Forced : Нет

Текст #3
Идентификатор : 7
Формат : UTF-8
Идентификатор кодека : S_TEXT/UTF8
Идентификатор кодека/Информация : UTF-8 Plain Text
Продолжительность : 2 ч. 4 м.
Битрейт : 86 бит/сек
ElementCount : 1767
Размер потока : 79,4 Кбайт (0%)
Заголовок : Full [License]
Язык : Russian
Default : Нет
Forced : Нет

Текст #4
Идентификатор : 8
Формат : UTF-8
Идентификатор кодека : S_TEXT/UTF8
Идентификатор кодека/Информация : UTF-8 Plain Text
Продолжительность : 2 ч. 1 м.
Битрейт : 61 бит/сек
ElementCount : 1947
Размер потока : 54,9 Кбайт (0%)
Заголовок : Full
Язык : English
Default : Нет
Forced : Нет

Меню
00:00:00.000 : :Chapter 01
00:04:58.131 : :Chapter 02
00:13:43.489 : :Chapter 03
00:19:21.452 : :Chapter 04
00:26:45.979 : :Chapter 05
00:35:41.514 : :Chapter 06
00:40:13.244 : :Chapter 07
00:46:22.029 : :Chapter 08
00:51:34.216 : :Chapter 09
00:57:51.802 : :Chapter 10
01:01:53.251 : :Chapter 11
01:08:45.162 : :Chapter 12
01:14:22.833 : :Chapter 13
01:19:48.075 : :Chapter 14
01:24:59.261 : :Chapter 15
01:32:58.198 : :Chapter 16
01:38:48.923 : :Chapter 17
01:46:32.970 : :Chapter 18
01:53:29.594 : :Chapter 19
02:01:14.809 : :Chapter 20
Cкриншот1 Форсаж: Хоббс и Шоу / Fast & Furious Presents: Hobbs & Shaw (2019) BDRip 1080p [HEVC] 10 bit от HANNIBAL
Загружается...
Cкриншот2 Форсаж: Хоббс и Шоу / Fast & Furious Presents: Hobbs & Shaw (2019) BDRip 1080p [HEVC] 10 bit от HANNIBAL
Загружается...
Cкриншот3 Форсаж: Хоббс и Шоу / Fast & Furious Presents: Hobbs & Shaw (2019) BDRip 1080p [HEVC] 10 bit от HANNIBAL
Загружается...
Cкриншот4 Форсаж: Хоббс и Шоу / Fast & Furious Presents: Hobbs & Shaw (2019) BDRip 1080p [HEVC] 10 bit от HANNIBAL
Загружается...
Сэмпл

Торрент🧲 Магнет

Кнопки "Позвать в чате" и "Спасибо" доступны только зарегистрированным/авторизованным пользователям!

Раздача обновлена!
В "Форсаж: Хоббс и Шоу / Fast & Furious Presents: Hobbs & Shaw (2019)" дубляж заменен на лицензионный. Добавлены русские полные субтитры.

Файлы: 9
  • Форсаж
    • 1. Форсаж The Fast and the Furious (2001) BDRip 1080p [HEVC] 10 bit от HANNIBAL.mkv   4.97 ГБ
    • Двойной форсаж 2 Fast 2 Furious (2003) BDRip 1080p [HEVC] 10 bit от HANNIBAL.mkv   5.51 ГБ
    • Тройной форсаж Токийский дрифт The Fast and the Furious Tokyo Drift (2006) BDRip 1080p [HEVC] 10 bit от HANNIBAL.mkv   4.33 ГБ
    • Форсаж 4 Fast & Furious (2009) BDRip 1080p [HEVC] 10 bit от HANNIBAL.mkv   4.4 ГБ
    • Форсаж 5 Fast Five (2011) BDRip 1080p [HEVC] 10 bit от HANNIBAL.mkv   5.44 ГБ
    • Форсаж 6 Furious 6 (2013) [Extended Cut] BDRip 1080p [HEVC] 10 bit от HANNIBAL.mkv   5.42 ГБ
    • Форсаж 7 Furious Seven (2015) [Extended Cut] BDRip 1080p [HEVC] 10 bit от HANNIBAL.mkv   5.79 ГБ
    • Форсаж 8 The Fate of the Furious (2017) BDRip 1080p [HEVC] 10 bit от HANNIBAL.mkv   5.6 ГБ
    • Форсаж Хоббс и Шоу Fast & Furious Presents Hobbs & Shaw (2019) BDRip 1080p [HEVC] 10 bit от HANNIBAL.mkv   6.08 ГБ
Поблагодарили: 55
375509, A1eksandr1, AD_60, Adagon, Alexeyall, AlexSaprigin, alexyak, and50, Andry26, Chance, cnn, daradan, davidoff_k4, denisptp4, dimasij, Dov, e7e1, F2002, Godspeed, grudich, icesnoop, Imp3rr0r, inet7052, inoy, ivanovdima, ivs5, jacklip48, jhonyfonts, Kiran, Krem_OFF, Laska020489, longhorn, magash, manukas77, mat, maximka, medved2018, MIGRANT, NoMaD, Nuclear70, RDigit, Ruslan, SaN161NeK, sergeich, Sharaman86, Skropi, STATCHEM, svibog123, SwX8, TimAN, VadimM, veRBlut, Vladimir1981, vserginbox, xlxxl
24.11.2019  20:52:19 Admin
9 251 2 1 (9)  47.52 ГБ

Добавление нового комментария

Добавление комментариев доступно только зарегистрированным/авторизованным пользователям.
Аватар Laska020489
  Laska020489  03.03.2020  01:17:20
у меня скорость норм 23 метра
Аватар Laska020489
  Laska020489  03.03.2020  01:16:15
ща скачаю и посижу на раздаче
Аватар Makc1mka
  Makc1mka  25.11.2019  07:39:20
Admin,
раздайте плиз, а то скорости вообще нет(
Аватар Vvulpes
  Vvulpes  29.10.2019  22:51:39
неужели битрейты нормальные, а значит и размер файла. Спасибо, упакуйте всё пожалуйста.
Аватар Admin
  Admin  29.10.2019  18:10:06
AlexSaprigin писал(а):
Можно скорости добавить? докачаю посижу на раздаче на максималке! Спасибо
Встал
Аватар AlexSaprigin
  AlexSaprigin  29.10.2019  13:39:09
Можно скорости добавить? докачаю посижу на раздаче на максималке! Спасибо
Аватар oikosan
  oikosan  29.12.2018  16:24:32
Вси фильми заканчивают на несколько секунд ранше,кроме один!За чем ето нужно?И тоже хочу спроситъ HANNIBAL:что произходитъ с его релийза 'Spartacus'от1960г. в HD Reactor.Я уже два месяца сижу на 16.8%.Можно его поставит здесъ,если не проблем.А иначе качество "Fast&..."отличное.Извините для мой плохой русский.
Аватар HANNIBAL
  HANNIBAL  28.12.2018  18:20:42
OldGamer писал(а):
Как качество?
Да хз ;)
Аватар OldGamer
  OldGamer  28.12.2018  10:19:18
Как качество?