Обложка Шазам! / Shazam! (2019) BDRip 1080p [HEVC] 10 bit от HANNIBALОбложка Девушка, которая застряла в паутине / The Girl in the Spider's Web (2018) BDRip 1080p [HEVC] 10 bit от HANNIBALОбложка Хроники хищных городов / Mortal Engines (2018) BDRip 1080p [HEVC] 10 bit от M@kSIMusОбложка Кинематографическая вселенная Marvel / Marvel Cinematic Universe (2008-2019) BDRip 1080p [HEVC] 10 bit от M@kSIMusОбложка Фантастические твари: Дилогия / Fantastic Beasts: Dilogy (2016-2018) BDRip 1080p [HEVC] 10 bit от Mr. FoxОбложка Мы / Us (2019) BDRip 1080p [HEVC] 10 bit от HANNIBALОбложка Красный воробей / Red Sparrow (2018) BDRip 1080p [HEVC] 10 bit от HANNIBALОбложка Хантер Киллер / Hunter Killer (2018) BDRip 1080p [HEVC] 10 bit от M@kSIMusОбложка Альфа / Alpha (2018) BDRip 1080p [HEVC] 10 bit от HANNIBALОбложка Хроники хищных городов / Mortal Engines (2018) UHD-BDRip 1080p [HEVC] 10 bit [SDR] от M@kSIMus

Авторизация

Смена пароля

captcha

Регистрация

captcha

🔍 Поиск

Мини-чат

(19:28)dixen18: Доброго вечера всем) Скажите а по странам тут нельзя сортировку делать да?
(19:36)OldGamer: dixen18, нет
(20:03)dixen18: OldGamer, ну ничего страшного)
(22:08)PRO-USTAS: привет админ такая идея а можно сделать сортировку по пользевателям типа фильмы только от Mr. Fox и тогдалия
(23:41)Kaban: PRO-USTAS, можно ввести в поиске вместо фильма логин аплоадера и в результате вам выдаст все его раздачи
(10:13)Temir_Nator: Всем привет)) А бывают раздачи в OPEN MATE формате?))) Если есть возможность, делайте и OPEN MATE)))
(10:29)OldGamer: Бывают
(11:22)Kaban: OldGamer, но редко)
(12:32)Temir_Nator: Жаль :(
(14:18)Ярослав: День добрый всем. Александра (Финальная версия) поможет кто раздать?
(14:18)Ярослав: https://hevc-club.video/video-1388/
(14:24)OldGamer: Может Джокер попозже заглянет, его релиз
(20:05)GrandConvoy: Раздайте, пожалуйста, Хищник 2 / Predator 2 (1990) BDRip 1080p [HEVC] 10 bit от HANNIBAL
(23:24)joker63: Ярослав, Перекачай торрент файл по новому,я обновил раздачу постою на ней немного.Ночью не стою.
(19:06)Ярослав: GrandConvoy, Встал на раздачу.
(19:50)GrandConvoy: Раздайте, пожалуйста, Хищник 2 / Predator 2 (1990) BDRip 1080p [HEVC] 10 bit от HANNIBAL
(19:51)GrandConvoy: ЯрославЯрослав, Что то не скачивается(
(19:51)GrandConvoy: Привет
(19:51)GrandConvoy: У меня на NAS торент стоит уже второй день( Загрузки нет(
  • OldGamer
  • Brooklyn
  • dimon48p
  • Filin505
  • vserginbox
Онлайн: 5
Отправка сообщений доступно только зарегистрированным/авторизованным пользователям.

Хантер Киллер / Hunter Killer (2018) BDRip 1080p [HEVC] 10 bit от M@kSIMus

HEVC
10 bit
Обложка Хантер Киллер / Hunter Killer (2018) BDRip 1080p [HEVC] 10 bit от M@kSIMus Год: 2018
Страна: США
Студия: Hunter Killer Productions, G-BASE, Hishow Entertainment
Жанр: Боевик, Триллер
Продолжительность: 02:01:42

Режиссер: Донован Марш
В ролях: Джерард Батлер, Гари Олдман, Коммон, Зейн Холц, Микаэл Нюквист, Тоби Стивенс, Линда Карделлини, Этан Бейрд, Джейкоб Скипио, Демпси Бовелл

Описание: Американская атомная подлодка «Хантер Киллер» вместе с подразделением военно-морских сил США вступает в крайне рискованную боевую авантюру по спасению мира от катастрофы. Когда время на исходе и каждая минута на счету, элитной команде придется совершить невозможное, чтобы предотвратить конфликт мирового масштаба.


5.8647564
6.6
41724


Формат: MKV
Видео: 1920x808, 6459 Kbps
Аудио1: AC3, 6 ch, 384 Kbps -
Русский, Дублированный (iTunes)

Аудио2: AC3, 6 ch, 448 Kbps -
Английский, Оригинал

Субтитры: Английские

Как за пару секунд удалить ненужные аудиодорожки и субтитры (Внимание! После удаления вы не сможете поддержать раздачу)

Медиаинфо
Общее
Уникальный идентификатор : 327150375706870996033451020659386939682 (0xF61EDED86052B1D8CEDC1ADDDD82F922)
Полное имя : Хантер Киллер (2018) BDRip 1080p [HEVC] 10 bit.mkv
Формат : Matroska
Версия формата : Version 4 / Version 2
Размер файла : 6,20 Гбайт
Продолжительность : 2 ч. 1 м.
Общий поток : 7293 Кбит/сек
Название фильма : Rip_by_M@kSIMus
Дата кодирования : UTC 2019-01-25 08:57:44
Программа кодирования : mkvmerge v30.1.0 ('Forever And More') 64-bit
Библиотека кодирования : libebml v1.3.6 + libmatroska v1.4.9
Обложка : Yes
Attachments : cover.jpg

Видео
Идентификатор : 1
Формат : HEVC
Формат/Информация : High Efficiency Video Coding
Профиль формата : Main 10@L4.1@High
Идентификатор кодека : V_MPEGH/ISO/HEVC
Продолжительность : 2 ч. 1 м.
Битрейт : 6459 Кбит/сек
Ширина : 1920 пикселей
Высота : 808 пикселей
Соотношение сторон : 2,40:1
Режим частоты кадров : Постоянный
Частота кадров : 23,976 (24000/1001) кадра/сек
Цветовое пространство : YUV
Субдискретизация насыщенности : 4:2:0
Битовая глубина : 10 бит
Бит/(Пиксели*Кадры) : 0.174
Размер потока : 5,49 Гбайт (89%)
Библиотека кодирования : x265 2.9+9-f74003e88622:[Windows][GCC 8.2.0][64 bit] 10bit
Настройки программы : cpuid=1049583 / frame-threads=5 / numa-pools=4 / wpp / no-pmode / no-pme / no-psnr / no-ssim / log-level=3 / input-csp=1 / input-res=1920x808 / interlace=0 / total-frames=0 / level-idc=41 / high-tier=1 / uhd-bd=0 / ref=5 / allow-non-conformance / no-repeat-headers / annexb / no-aud / no-hrd / info / hash=0 / no-temporal-layers / open-gop / min-keyint=24 / keyint=240 / gop-lookahead=0 / bframes=8 / b-adapt=2 / b-pyramid / bframe-bias=0 / rc-lookahead=40 / lookahead-slices=5 / scenecut=40 / radl=0 / no-intra-refresh / ctu=64 / min-cu-size=8 / no-rect / no-amp / max-tu-size=32 / tu-inter-depth=1 / tu-intra-depth=1 / limit-tu=0 / rdoq-level=0 / dynamic-rd=0.00 / no-ssim-rd / signhide / no-tskip / nr-intra=0 / nr-inter=0 / no-constrained-intra / strong-intra-smoothing / max-merge=2 / limit-refs=3 / no-limit-modes / me=3 / subme=7 / merange=57 / temporal-mvp / weightp / no-weightb / no-analyze-src-pics / deblock=-3:-3 / no-sao / no-sao-non-deblock / rd=3 / no-early-skip / rskip / no-fast-intra / no-tskip-fast / no-cu-lossless / no-b-intra / no-splitrd-skip / rdpenalty=0 / psy-rd=2.00 / psy-rdoq=0.00 / no-rd-refine / no-lossless / cbqpoffs=0 / crqpoffs=0 / rc=crf / crf=16.5 / qcomp=0.70 / qpstep=4 / stats-write=0 / stats-read=0 / vbv-maxrate=50000 / vbv-bufsize=50000 / vbv-init=0.9 / crf-max=0.0 / crf-min=0.0 / ipratio=1.40 / pbratio=1.30 / aq-mode=1 / aq-strength=1.00 / cutree / zone-count=0 / no-strict-cbr / qg-size=32 / no-rc-grain / qpmax=69 / qpmin=0 / no-const-vbv / sar=1 / overscan=0 / videoformat=5 / range=0 / colorprim=1 / transfer=1 / colormatrix=1 / chromaloc=0 / display-window=0 / max-cll=0,0 / min-luma=0 / max-luma=1023 / log2-max-poc-lsb=8 / vui-timing-info / vui-hrd-info / slices=1 / no-opt-qp-pps / no-opt-ref-list-length-pps / no-multi-pass-opt-rps / scenecut-bias=0.05 / no-opt-cu-delta-qp / no-aq-motion / no-hdr / no-hdr-opt / no-dhdr10-opt / no-idr-recovery-sei / analysis-reuse-level=5 / scale-factor=0 / refine-intra=0 / refine-inter=0 / refine-mv=0 / no-limit-sao / ctu-info=0 / no-lowpass-dct / refine-mv-type=0 / copy-pic=1 / max-ausize-factor=1.0 / no-dynamic-refine / no-single-sei
Язык : English
Default : Да
Forced : Нет
Цветовой диапазон : Limited
Основные цвета : BT.709
Характеристики трансфера : BT.709
Коэффициенты матрицы : BT.709

Аудио #1
Идентификатор : 2
Формат : AC-3
Формат/Информация : Audio Coding 3
Идентификатор кодека : A_AC3
Продолжительность : 2 ч. 1 м.
Вид битрейта : Постоянный
Битрейт : 384 Кбит/сек
Каналы : 6 каналов
Расположение каналов : Front: L C R, Side: L R, LFE
Частота : 48,0 КГц
Частота кадров : 31,250 кадров/сек (1536 SPF)
Битовая глубина : 16 бит
Метод сжатия : С потерями
Размер потока : 334 Мбайт (5%)
Заголовок : DUB | iTunes
Язык : Russian
ServiceKind/String : Complete Main
Default : Да
Forced : Нет

Аудио #2
Идентификатор : 3
Формат : AC-3
Формат/Информация : Audio Coding 3
Идентификатор кодека : A_AC3
Продолжительность : 2 ч. 1 м.
Вид битрейта : Постоянный
Битрейт : 448 Кбит/сек
Каналы : 6 каналов
Расположение каналов : Front: L C R, Side: L R, LFE
Частота : 48,0 КГц
Частота кадров : 31,250 кадров/сек (1536 SPF)
Битовая глубина : 16 бит
Метод сжатия : С потерями
Размер потока : 390 Мбайт (6%)
Заголовок : Оригинал
Язык : English
ServiceKind/String : Complete Main
Default : Нет
Forced : Нет

Текст
Идентификатор : 4
Формат : UTF-8
Идентификатор кодека : S_TEXT/UTF8
Идентификатор кодека/Информация : UTF-8 Plain Text
Продолжительность : 1 ч. 49 м.
Битрейт : 47 бит/сек
ElementCount : 1224
Размер потока : 38,3 Кбайт (0%)
Заголовок : Full
Язык : English
Default : Нет
Forced : Нет

Меню
00:00:00.000 : :Chapter 1
00:06:19.629 : :Chapter 2
00:14:56.353 : :Chapter 3
00:20:00.449 : :Chapter 4
00:28:19.322 : :Chapter 5
00:38:31.183 : :Chapter 6
00:46:29.077 : :Chapter 7
00:54:15.752 : :Chapter 8
01:00:26.080 : :Chapter 9
01:09:39.967 : :Chapter 10
01:15:48.919 : :Chapter 11
01:23:29.087 : :Chapter 12
01:30:17.662 : :Chapter 13
01:39:23.248 : :Chapter 14
01:44:53.954 : :Chapter 15
01:51:35.689 : :Chapter 16
Cкриншот1 Хантер Киллер / Hunter Killer (2018) BDRip 1080p [HEVC] 10 bit от M@kSIMus
Загружается...
Cкриншот2 Хантер Киллер / Hunter Killer (2018) BDRip 1080p [HEVC] 10 bit от M@kSIMus
Загружается...
Cкриншот3 Хантер Киллер / Hunter Killer (2018) BDRip 1080p [HEVC] 10 bit от M@kSIMus
Загружается...
Cкриншот4 Хантер Киллер / Hunter Killer (2018) BDRip 1080p [HEVC] 10 bit от M@kSIMus
Загружается...
СэмплТоррентМагнет

Кнопки "Позвать в чате", "Спасибо" и "Пожертвование" доступны только зарегистрированным/авторизованным пользователям!

Поблагодарили: 21
375509, aacg, antaures, Boogerman, brukvalub, cdmitry, FireIce, Kaban, kalpak-1970, mikos, nazarvlad, olegvp, robert, sakurarec, serg1962, SERGIY, Sharaman86, Shuzer, svibog123, VardO, vlad55
26.01.2019  00:58:48
7
456
0
0
6.2 ГБ

Добавление нового комментария

Добавление комментариев доступно только зарегистрированным/авторизованным пользователям.
Аватар vlad55
  vlad55  27.01.2019  08:47:18
Спасибо за работу Но фильм конечно отстой.Пиндоская пропоганда.Опять о всемогущих пиндосах которые,как всегда спасают мир.А русские как всегда злые и хотят только войны
Аватар Boogerman
  Boogerman  27.01.2019  07:55:47
OldGamer писал(а):
ну уж нет :) лет 15 назад может быть и посмотрел бы, а сейчас подвиги этих разносчиков демократии не вызывают интереса
Ну и зря.
Аватар OldGamer
  OldGamer  27.01.2019  07:26:21
Boogerman писал(а):
Посмотри, узнаешь.
ну уж нет :) лет 15 назад может быть и посмотрел бы, а сейчас подвиги этих разносчиков демократии не вызывают интереса
Аватар Boogerman
  Boogerman  27.01.2019  07:10:44
OldGamer писал(а):
небось клюква по мотивам Тома Кленси ?
Посмотри, узнаешь.
Аватар OldGamer
  OldGamer  27.01.2019  07:06:27
небось клюква по мотивам Тома Кленси ?
Аватар Boogerman
  Boogerman  27.01.2019  07:02:39
Cthulhu писал(а):
Фильм до конца досмотреть так и не смог. Хорошие актеры этот бред не спасли.
Фильм на самом деле очень хорош. (Это лучше чем сраные Ёлки смотреть). Джерард Батлер как всегда показал что он мужик со стальными яицами.
Аватар Cthulhu
  Cthulhu  27.01.2019  01:17:03
Фильм до конца досмотреть так и не смог. Хорошие актеры этот бред не спасли.