Обложка Оно / It (2017) BDRip 1080p [HEVC] 10 bit от HANNIBALОбложка Rammstein - Paris (2017) BDRip 1080p [HEVC] 8 bit от CthulhuОбложка Миссия невыполнима: Последствия / Mission: Impossible - Fallout (2018) [IMAX Edition] BDRip 1080p [HEVC] 10 bit от HANNIBALОбложка Робин Гуд / Robin Hood (2010) [Director's Cut] BDRip 1080p [HEVC] 10 bit от CthulhuОбложка Эквилибриум / Equilibrium (2002) [Open Matte] BDRip 1080p [HEVC] 10 bit от HANNIBALОбложка Отступники / The Departed (2006) [FR Transfer] BDRip 1080p [HEVC] 10 bit от CthulhuОбложка Хакеры / Hackers (1995) [Remastered] BDRip 1080p [HEVC] 10 bit от CthulhuОбложка Великий уравнитель 2 / The Equalizer 2 (2018) BDRip 1080p [HEVC] 10 bit от HANNIBALОбложка Кинематографическая вселенная Marvel / Marvel Cinematic Universe (2008-2018) BDRip 1080p [HEVC] 10 bit от M@kSIMusОбложка Другой мир: Антология / Underworld: Anthology (2003-2016) BDRip 1080р [HEVC] 10 bit от Cthulhu

Авторизация

Смена пароля

captcha

Регистрация

captcha

Поиск

Университет монстров / Monsters University (2013) BDRip 1080p [HEVC] 10 bit от Мичман

HEVC
10 bit
Обложка Университет монстров / Monsters University (2013) BDRip 1080p [HEVC] 10 bit от Мичман Год: 2013
Страна: США
Жанр: Мультфильм, Фэнтези, Комедия, Приключения
Продолжительность: 01:44:17

Режиссер: Дэн Скэнлон
В ролях: Джон Гудман, Билли Кристал, Стив Бушеми, Хелен Миррен

Описание: Майк и Салли — самые опытные пугатели в Монстрополисе, но так было далеко не всегда. Когда они встретились впервые, эти монстры терпеть друг друга не могли. «Университет Монстров» — история о том, как наши старые знакомые прошли путь от взаимной неприязни к крепкой дружбе.


7.56387712
7.3
271937


Формат: MKV
Видео: 1920x1080, 6130 Kbps
Аудио1: AC3, 6 ch, 640 Kbps - Русский, Дублированный (Лицензия)
Аудио2: AC3, 6 ch, 640 Kbps - Английский, Оригинал
Субтитры: Русские, английские

Медиаинфо
Общее
Уникальный идентификатор : 7056206507906134669429365224202320320 (0x54EF9D7408674F06107C22F3D9039C0)
Полное имя : F:\РАЗДАЧИ\Университет монстров. 2013. 1080p. HEVC. 10 bit.mkv
Формат : Matroska
Версия формата : Version 4 / Version 2
Размер файла : 5,40 Гбайт
Продолжительность : 1 ч. 44 м.
Общий поток : 7414 Кбит/сек
Дата кодирования : UTC 2018-10-18 04:54:44
Программа кодирования : mkvmerge v27.0.0 ('Metropolis') 64-bit
Библиотека кодирования : libebml v1.3.6 + libmatroska v1.4.9
Обложка : Yes
Attachments : cover.jpg

Видео
Идентификатор : 1
Формат : HEVC
Формат/Информация : High Efficiency Video Coding
Профиль формата : Main 10@L5.1@High
Идентификатор кодека : V_MPEGH/ISO/HEVC
Продолжительность : 1 ч. 44 м.
Битрейт : 6130 Кбит/сек
Ширина : 1920 пикселей
Высота : 1080 пикселей
Соотношение сторон : 16:9
Режим частоты кадров : Постоянный
Частота кадров : 23,976 (23976/1000) кадра/сек
Частота кадров в оригинале : 23,976 (24000/1001) кадра/сек
Цветовое пространство : YUV
Субдискретизация насыщенности : 4:2:0
Битовая глубина : 10 бит
Бит/(Пиксели*Кадры) : 0.123
Размер потока : 4,47 Гбайт (83%)
Библиотека кодирования : x265 2.8+19-bcdc610cf5f0:[Windows][GCC 7.3.0][64 bit] 10bit
Настройки программы : cpuid=1111039 / frame-threads=13 / numa-pools=12 / wpp / no-pmode / no-pme / no-psnr / no-ssim / log-level=3 / input-csp=1 / input-res=1920x1080 / interlace=0 / total-frames=0 / level-idc=51 / high-tier=1 / uhd-bd=0 / ref=6 / allow-non-conformance / no-repeat-headers / annexb / no-aud / no-hrd / info / hash=0 / no-temporal-layers / open-gop / min-keyint=24 / keyint=240 / gop-lookahead=0 / bframes=10 / b-adapt=2 / b-pyramid / bframe-bias=0 / rc-lookahead=60 / lookahead-slices=6 / scenecut=40 / radl=0 / no-intra-refresh / ctu=64 / min-cu-size=8 / no-rect / no-amp / max-tu-size=32 / tu-inter-depth=3 / tu-intra-depth=3 / limit-tu=0 / rdoq-level=0 / dynamic-rd=0.00 / no-ssim-rd / signhide / no-tskip / nr-intra=0 / nr-inter=0 / no-constrained-intra / strong-intra-smoothing / max-merge=3 / limit-refs=3 / no-limit-modes / me=3 / subme=7 / merange=64 / temporal-mvp / weightp / weightb / no-analyze-src-pics / deblock=-3:-3 / no-sao / no-sao-non-deblock / rd=4 / no-early-skip / rskip / no-fast-intra / no-tskip-fast / no-cu-lossless / no-b-intra / no-splitrd-skip / rdpenalty=0 / psy-rd=2.00 / psy-rdoq=0.00 / no-rd-refine / no-lossless / cbqpoffs=0 / crqpoffs=0 / rc=crf / crf=16.0 / qcomp=0.60 / qpstep=1 / stats-write=0 / stats-read=0 / vbv-maxrate=160000 / vbv-bufsize=160000 / vbv-init=0.9 / crf-max=30.0 / crf-min=0.0 / ipratio=1.40 / pbratio=1.30 / aq-mode=3 / aq-strength=0.80 / cutree / zone-count=0 / no-strict-cbr / qg-size=32 / no-rc-grain / qpmax=69 / qpmin=0 / no-const-vbv / sar=1 / overscan=0 / videoformat=5 / range=0 / colorprim=2 / transfer=2 / colormatrix=2 / chromaloc=0 / display-window=0 / max-cll=0,0 / min-luma=0 / max-luma=1023 / log2-max-poc-lsb=8 / vui-timing-info / vui-hrd-info / slices=1 / no-opt-qp-pps / no-opt-ref-list-length-pps / no-multi-pass-opt-rps / scenecut-bias=0.05 / no-opt-cu-delta-qp / no-aq-motion / no-hdr / no-hdr-opt / no-dhdr10-opt / no-idr-recovery-sei / analysis-reuse-level=5 / scale-factor=0 / refine-intra=0 / refine-inter=0 / refine-mv=0 / no-limit-sao / ctu-info=0 / no-lowpass-dct / refine-mv-type=0 / copy-pic=1 / max-ausize-factor=1.0 / no-dynamic-refine / no-single-sei
Default : Да
Forced : Нет

Аудио #1
Идентификатор : 2
Формат : AC-3
Формат/Информация : Audio Coding 3
Идентификатор кодека : A_AC3
Продолжительность : 1 ч. 44 м.
Вид битрейта : Постоянный
Битрейт : 640 Кбит/сек
Каналы : 6 каналов
Расположение каналов : Front: L C R, Side: L R, LFE
Частота : 48,0 КГц
Частота кадров : 31,250 кадров/сек (1536 SPF)
Битовая глубина : 16 бит
Метод сжатия : С потерями
Размер потока : 478 Мбайт (9%)
Заголовок : DD Audio 5.1 / 48 kHz / 640 kbps
Язык : Russian
ServiceKind/String : Complete Main
Default : Да
Forced : Нет

Аудио #2
Идентификатор : 3
Формат : AC-3
Формат/Информация : Audio Coding 3
Идентификатор кодека : A_AC3
Продолжительность : 1 ч. 44 м.
Вид битрейта : Постоянный
Битрейт : 640 Кбит/сек
Каналы : 6 каналов
Расположение каналов : Front: L C R, Side: L R, LFE
Частота : 48,0 КГц
Частота кадров : 31,250 кадров/сек (1536 SPF)
Битовая глубина : 16 бит
Метод сжатия : С потерями
Размер потока : 478 Мбайт (9%)
Заголовок : DD Audio 5.1 / 48 kHz / 640 kbps
Язык : English
ServiceKind/String : Complete Main
Default : Нет
Forced : Нет

Текст #1
Идентификатор : 4
Формат : UTF-8
Идентификатор кодека : S_TEXT/UTF8
Идентификатор кодека/Информация : UTF-8 Plain Text
Продолжительность : 1 ч. 42 м.
Битрейт : 86 бит/сек
ElementCount : 1211
Размер потока : 65,3 Кбайт (0%)
Заголовок : Full
Язык : Russian
Default : Нет
Forced : Нет

Текст #2
Идентификатор : 5
Формат : UTF-8
Идентификатор кодека : S_TEXT/UTF8
Идентификатор кодека/Информация : UTF-8 Plain Text
Продолжительность : 1 ч. 42 м.
Битрейт : 55 бит/сек
ElementCount : 1366
Размер потока : 41,8 Кбайт (0%)
Язык : English
Default : Нет
Forced : Нет
Cкриншот1 Университет монстров / Monsters University (2013) BDRip 1080p [HEVC] 10 bit от Мичман
Загружается...
Cкриншот2 Университет монстров / Monsters University (2013) BDRip 1080p [HEVC] 10 bit от Мичман
Загружается...
Cкриншот3 Университет монстров / Monsters University (2013) BDRip 1080p [HEVC] 10 bit от Мичман
Загружается...
Cкриншот4 Университет монстров / Monsters University (2013) BDRip 1080p [HEVC] 10 bit от Мичман
Загружается...
Сэмпл

Ссылки для скачивания доступны только зарегистрированным/авторизованным пользователям!

18.10.2018  21:22:08
1
246
5
0
5.4 ГБ

Добавление нового комментария

Добавление комментариев доступно только зарегистрированным/авторизованным пользователям.
Аватар NRK888
  NRK888  19.10.2018  14:21:26
За мультики отдельное спасибо!