Обложка Оно / It (2017) BDRip 1080p [HEVC] 10 bit от HANNIBALОбложка Отступники / The Departed (2006) [FR Transfer] BDRip 1080p [HEVC] 10 bit от CthulhuОбложка Робин Гуд / Robin Hood (2010) [Director's Cut] BDRip 1080p [HEVC] 10 bit от CthulhuОбложка Веном / Venom (2018) BDRip 1080p [HEVC] 10 bit от M@kSIMusОбложка Красная жара / Red Heat (1988) BDRip 1080p [HEVC] 10 bit от OldGamerОбложка Эквилибриум / Equilibrium (2002) [Open Matte] BDRip 1080p [HEVC] 10 bit от HANNIBALОбложка Знакомство с родителями / Meet the Parents (2000) BDRip 1080p [HEVC] 10 bit от M@kSIMusОбложка Rammstein - Paris (2017) BDRip 1080p [HEVC] 8 bit от CthulhuОбложка В пасти безумия / In The Mouth Of Madness (1994) BDRip 1080p [HEVC] 10 bit от CthulhuОбложка Хакеры / Hackers (1995) [Remastered] BDRip 1080p [HEVC] 10 bit от Cthulhu

Авторизация

Смена пароля

captcha

Регистрация

captcha

🔍 Поиск

Тело Дженнифер / Jennifer's Body (2009) [Unrated Cut] BDRip 1080p [HEVC] 10 bit от XuMuK

HEVC
10 bit
Обложка Тело Дженнифер / Jennifer's Body (2009) [Unrated Cut] BDRip 1080p [HEVC] 10 bit от XuMuK Год: 2009
Страна: США
Студия: Dune Entertainment, Fox Atomic, Hard C
Жанр: Ужасы, Комедия
Продолжительность: 01:47:29

Режиссер: Карин Кусама
В ролях: Меган Фокс, Аманда Сайфред, Джонни Симмонс, Адам Броди, Дж.К. Симмонс, Кайл Галлнер, Крис Прэтт, Хуан Ридингер

Описание: Захолустный американский городок замер от ужаса: в Главную героиню — участницу команды болельщиц — вселился бес, и она, по никому неизвестным причинам, убивает парней. На хрупкие плечи ее лучшей подруги ложится непосильная ноша — она должна найти способ остановить адски разбушевавшуюся убийцу.


5.61248041
5.2
101321


Формат: MKV
Видео: 1920x1036, 6972 Kbps
Аудио1: AC3, 6 ch, 448 Kbps - Русский, Дублированный
Аудио2: AC3, 6 ch, 448 Kbps - Русский, Одноголосый (Яроцкий)
Аудио3: AC3, 6 ch, 448 Kbps - Английский, Оригинал
Субтитры: Русские, английские

Медиаинфо
Общее
Уникальный идентификатор : 212989560334733438939071947167988768001 (0xA03C4C15E47CDA29EDDA043DFD1CDD01)
Полное имя : H:HEVC 210 BITJennifer's Body_UNRATED_2009_BDRip_1080p_[HEVC]_10bit.mkv
Формат : Matroska
Версия формата : Version 4 / Version 2
Размер файла : 6,25 Гбайт
Продолжительность : 1 ч. 47 м.
Общий поток : 8319 Кбит/сек
Название фильма : HEVC by XuMuK
Дата кодирования : UTC 2018-04-06 16:25:24
Программа кодирования : mkvmerge v21.0.0 ('Tardigrades Will Inherit The Earth') 64-bit
Библиотека кодирования : libebml v1.3.5 + libmatroska v1.4.8
Обложка : Yes
Attachments : cover.jpg

Видео
Идентификатор : 1
Формат : HEVC
Формат/Информация : High Efficiency Video Coding
Профиль формата : Main 10@L4.1@High
Идентификатор кодека : V_MPEGH/ISO/HEVC
Продолжительность : 1 ч. 47 м.
Битрейт : 6972 Кбит/сек
Ширина : 1920 пикселей
Высота : 1036 пикселей
Соотношение сторон : 1,85:1
Режим частоты кадров : Постоянный
Частота кадров : 23,976 (24000/1001) кадра/сек
Цветовое пространство : YUV
Субдискретизация насыщенности : 4:2:0
Битовая глубина : 10 бит
Бит/(Пиксели*Кадры) : 0.146
Размер потока : 5,24 Гбайт (84%)
Библиотека кодирования : x265 2.7+17-2e370d98c806:[Windows][GCC 8.0.1][64 bit] 10bit
Настройки программы : cpuid=1173503 / frame-threads=4 / numa-pools=16 / wpp / no-pmode / no-pme / no-psnr / no-ssim / log-level=2 / input-csp=1 / input-res=1920x1036 / interlace=0 / total-frames=154634 / level-idc=41 / high-tier=1 / uhd-bd=0 / ref=5 / no-allow-non-conformance / no-repeat-headers / annexb / no-aud / no-hrd / info / hash=0 / no-temporal-layers / open-gop / min-keyint=23 / keyint=240 / gop-lookahead=0 / bframes=6 / b-adapt=2 / no-b-pyramid / bframe-bias=0 / rc-lookahead=60 / lookahead-slices=4 / scenecut=40 / radl=0 / no-intra-refresh / ctu=64 / min-cu-size=8 / rect / amp / max-tu-size=32 / tu-inter-depth=4 / tu-intra-depth=4 / limit-tu=1 / rdoq-level=2 / dynamic-rd=0.00 / no-ssim-rd / signhide / no-tskip / nr-intra=0 / nr-inter=0 / no-constrained-intra / no-strong-intra-smoothing / max-merge=3 / limit-refs=2 / limit-modes / me=3 / subme=7 / merange=92 / temporal-mvp / weightp / weightb / no-analyze-src-pics / deblock=-3:-3 / no-sao / no-sao-non-deblock / rd=6 / no-early-skip / rskip / no-fast-intra / no-tskip-fast / no-cu-lossless / b-intra / no-splitrd-skip / rdpenalty=0 / psy-rd=2.00 / psy-rdoq=1.00 / no-rd-refine / no-lossless / cbqpoffs=-2 / crqpoffs=-2 / rc=crf / crf=19.0 / qcomp=0.60 / qpstep=4 / stats-write=0 / stats-read=0 / vbv-maxrate=50000 / vbv-bufsize=50000 / vbv-init=0.9 / crf-max=0.0 / crf-min=0.0 / ipratio=1.40 / pbratio=1.30 / aq-mode=1 / aq-strength=0.80 / cutree / zone-count=1 / zones: / start-frame=148790 / end-frame=154634 / qp=35 / no-strict-cbr / qg-size=32 / no-rc-grain / qpmax=69 / qpmin=0 / no-const-vbv / sar=1 / overscan=0 / videoformat=5 / range=0 / colorprim=1 / transfer=1 / colormatrix=1 / chromaloc=0 / display-window=0 / max-cll=0,0 / min-luma=0 / max-luma=1023 / log2-max-poc-lsb=8 / vui-timing-info / vui-hrd-info / slices=1 / no-opt-qp-pps / no-opt-ref-list-length-pps / no-multi-pass-opt-rps / scenecut-bias=0.05 / no-opt-cu-delta-qp / no-aq-motion / no-hdr / no-hdr-opt / no-dhdr10-opt / no-idr-recovery-sei / analysis-reuse-level=5 / scale-factor=0 / refine-intra=0 / refine-inter=0 / refine-mv=0 / no-limit-sao / ctu-info=0 / no-lowpass-dct / refine-mv-type=0 / copy-pic=1 / max-ausize-factor=1.0 / no-dynamic-refine
Default : Да
Forced : Нет
Цветовой диапазон : Limited
Основные цвета : BT.709
Характеристики трансфера : BT.709
Коэффициенты матрицы : BT.709

Аудио #1
Идентификатор : 2
Формат : AC-3
Формат/Информация : Audio Coding 3
Идентификатор кодека : A_AC3
Продолжительность : 1 ч. 47 м.
Вид битрейта : Постоянный
Битрейт : 448 Кбит/сек
Каналы : 6 каналов
Расположение каналов : Front: L C R, Side: L R, LFE
Частота : 48,0 КГц
Частота кадров : 31,250 кадров/сек (1536 SPF)
Битовая глубина : 16 бит
Метод сжатия : С потерями
Размер потока : 344 Мбайт (5%)
Заголовок : Дубляж
Язык : Russian
ServiceKind : Complete Main
Default : Да
Forced : Нет

Аудио #2
Идентификатор : 3
Формат : AC-3
Формат/Информация : Audio Coding 3
Идентификатор кодека : A_AC3
Продолжительность : 1 ч. 47 м.
Вид битрейта : Постоянный
Битрейт : 448 Кбит/сек
Каналы : 6 каналов
Расположение каналов : Front: L C R, Side: L R, LFE
Частота : 48,0 КГц
Частота кадров : 31,250 кадров/сек (1536 SPF)
Битовая глубина : 16 бит
Метод сжатия : С потерями
Размер потока : 344 Мбайт (5%)
Заголовок : AVO Яроцкий
Язык : Russian
ServiceKind : Complete Main
Default : Нет
Forced : Нет

Аудио #3
Идентификатор : 4
Формат : AC-3
Формат/Информация : Audio Coding 3
Идентификатор кодека : A_AC3
Продолжительность : 1 ч. 47 м.
Вид битрейта : Постоянный
Битрейт : 448 Кбит/сек
Каналы : 6 каналов
Расположение каналов : Front: L C R, Side: L R, LFE
Частота : 48,0 КГц
Частота кадров : 31,250 кадров/сек (1536 SPF)
Битовая глубина : 16 бит
Метод сжатия : С потерями
Размер потока : 344 Мбайт (5%)
Заголовок : Оригинал
Язык : English
ServiceKind : Complete Main
Default : Нет
Forced : Нет

Текст #1
Идентификатор : 5
Формат : UTF-8
Идентификатор кодека : S_TEXT/UTF8
Идентификатор кодека/Информация : UTF-8 Plain Text
Продолжительность : 1 ч. 42 м.
Битрейт : 86 бит/сек
ElementCount : 1101
Размер потока : 65,0 Кбайт (0%)
Заголовок : RUS
Язык : Russian
Default : Нет
Forced : Нет

Текст #2
Идентификатор : 6
Формат : UTF-8
Идентификатор кодека : S_TEXT/UTF8
Идентификатор кодека/Информация : UTF-8 Plain Text
Продолжительность : 1 ч. 46 м.
Битрейт : 57 бит/сек
ElementCount : 1260
Размер потока : 45,2 Кбайт (0%)
Заголовок : ENG
Язык : English
Default : Нет
Forced : Нет

Меню
00:00:00.000 : :Chapter 01
00:05:23.448 : :Chapter 02
00:09:56.262 : :Chapter 03
00:14:58.022 : :Chapter 04
00:20:05.537 : :Chapter 05
00:23:23.276 : :Chapter 06
00:25:53.343 : :Chapter 07
00:31:20.253 : :Chapter 08
00:34:53.591 : :Chapter 09
00:37:26.953 : :Chapter 10
00:41:07.172 : :Chapter 11
00:44:25.204 : :Chapter 12
00:47:15.123 : :Chapter 13
00:51:32.297 : :Chapter 14
00:59:09.671 : :Chapter 15
01:06:43.082 : :Chapter 16
01:10:43.655 : :Chapter 17
01:13:10.969 : :Chapter 18
01:19:22.882 : :Chapter 19
01:25:54.273 : :Chapter 20
01:30:31.926 : :Chapter 21
01:33:23.639 : :Chapter 22
01:38:18.142 : :Chapter 23
01:41:09.980 : :Chapter 24
01:47:29.275 : :Chapter 25
Cкриншот1 Тело Дженнифер / Jennifer's Body (2009) [Unrated Cut] BDRip 1080p [HEVC] 10 bit от XuMuK
Загружается...
Cкриншот2 Тело Дженнифер / Jennifer's Body (2009) [Unrated Cut] BDRip 1080p [HEVC] 10 bit от XuMuK
Загружается...
Cкриншот3 Тело Дженнифер / Jennifer's Body (2009) [Unrated Cut] BDRip 1080p [HEVC] 10 bit от XuMuK
Загружается...
Cкриншот4 Тело Дженнифер / Jennifer's Body (2009) [Unrated Cut] BDRip 1080p [HEVC] 10 bit от XuMuK
Загружается...
Ссылки для скачивания доступны только зарегистрированным/авторизованным пользователям!

12.10.2018  11:28:31
0
55
0
0
6.25 ГБ

Добавление нового комментария

Добавление комментариев доступно только зарегистрированным/авторизованным пользователям.