Обложка Оно / It (2017) BDRip 1080p [HEVC] 10 bit от HANNIBALОбложка Храбрая сердцем / Brave (2012) BDRip 1080p [HEVC] 10 bit от МичманОбложка Эквилибриум / Equilibrium (2002) [Open Matte] BDRip 1080p [HEVC] 10 bit от HANNIBALОбложка Корпорация монстров / Monsters, Inc. (2001) BDRip 1080p [HEVC] 10 bit от МичманОбложка Университет монстров / Monsters University (2013) BDRip 1080p [HEVC] 10 bit от МичманОбложка Rammstein - Paris (2017) BDRip 1080p [HEVC] 8 bit от CthulhuОбложка Вольт / Bolt (2008) BDRip 1080p [HEVC] 10 bit от МичманОбложка Другой мир: Антология / Underworld: Anthology (2003-2016) BDRip 1080р [HEVC] 10 bit от CthulhuОбложка Хакеры / Hackers (1995) [Remastered] BDRip 1080p [HEVC] 10 bit от CthulhuОбложка Перл-Харбор / Pearl Harbor (2001) BDRip 1080p [HEVC] 10 bit от HANNIBAL

Авторизация

Смена пароля

captcha

Регистрация

captcha

Поиск

Коллекторы / The Debt Collector (2018) BDRip 1080p [HEVC] 10 bit от M@kSIMus

HEVC
10 bit
Обложка Коллекторы / The Debt Collector (2018) BDRip 1080p [HEVC] 10 bit от M@kSIMus Год: 2018
Страна: Великобритания, США
Студия: Tarzana Product
Жанр: Боевик
Продолжительность: 01:35:56

Режиссер: Джесси Джонсон
В ролях: Скотт Эдкинс, Майкл Паре, Тони Тодд, Владимир Кулих, Роберт Раслер, Луис Мэндилор, Селина Ло, Нихан Гар, Сара Финли, Ессам Феррис

Описание: Небольшая бойцовская школа, которой управляет мастер боевых искусств по имени Фрэнч, переживает не лучшие времена. Чтобы решить материальные проблемы, Фрэнч на время оставляет спортивную карьеру и нанимается коллектором к криминальному авторитету Большому Томми. Такая работа ему по плечу и по нраву, и он с напарником с азартом метелит должников босса. Пока крутой гангстер из Лос-Анджелеса не поручает им найти любовника его жены, и парни сталкиваются с проблемой, которую дракой не решить…


5.816774
5.6
1932


Формат: MKV
Видео: 1920x816, 7319 Kbps
Аудио1: AC3, 6 ch, 384 Kbps - Русский, Дублированный (iTunes)
Аудио2: AC3, 6 ch, 448 Kbps - Английский, Оригинал
Субтитры: нет

Медиаинфо
Общее
Уникальный идентификатор : 97550907408801808896501491989021338493 (0x49639F11FA6C5DB093B4F3B25F522B7D)
Полное имя : E:\Фильмы\Коллекторы (2018) BDRip 1080p [HEVC] 10 bit.mkv
Формат : Matroska
Версия формата : Version 4
Размер файла : 5,46 Гбайт
Продолжительность : 1 ч. 35 м.
Общий поток : 8153 Кбит/сек
Название фильма : Rip_by_M@kSIMus
Дата кодирования : UTC 2018-10-12 02:07:25
Программа кодирования : mkvmerge v19.0.0 ('Brave Captain') 64-bit
Библиотека кодирования : libebml v1.3.5 + libmatroska v1.4.8
Обложка : Yes
Attachments : cover.jpg

Видео
Идентификатор : 1
Формат : HEVC
Формат/Информация : High Efficiency Video Coding
Профиль формата : Main 10@L4.1@High
Идентификатор кодека : V_MPEGH/ISO/HEVC
Продолжительность : 1 ч. 35 м.
Битрейт : 7319 Кбит/сек
Ширина : 1920 пикселей
Высота : 816 пикселей
Соотношение сторон : 2,35:1
Режим частоты кадров : Постоянный
Частота кадров : 23,976 (24000/1001) кадра/сек
Цветовое пространство : YUV
Субдискретизация насыщенности : 4:2:0
Битовая глубина : 10 бит
Бит/(Пиксели*Кадры) : 0.195
Размер потока : 4,90 Гбайт (90%)
Библиотека кодирования : x265 2.8+19-bcdc610cf5f0:[Windows][GCC 7.3.0][64 bit] 10bit
Настройки программы : cpuid=1049583 / frame-threads=5 / numa-pools=4 / wpp / no-pmode / no-pme / no-psnr / no-ssim / log-level=3 / input-csp=1 / input-res=1920x816 / interlace=0 / total-frames=0 / level-idc=41 / high-tier=1 / uhd-bd=0 / ref=5 / allow-non-conformance / no-repeat-headers / annexb / no-aud / no-hrd / info / hash=0 / no-temporal-layers / open-gop / min-keyint=24 / keyint=240 / gop-lookahead=0 / bframes=8 / b-adapt=2 / b-pyramid / bframe-bias=0 / rc-lookahead=40 / lookahead-slices=5 / scenecut=40 / radl=0 / no-intra-refresh / ctu=64 / min-cu-size=8 / no-rect / no-amp / max-tu-size=32 / tu-inter-depth=1 / tu-intra-depth=1 / limit-tu=0 / rdoq-level=0 / dynamic-rd=0.00 / no-ssim-rd / signhide / no-tskip / nr-intra=0 / nr-inter=0 / no-constrained-intra / strong-intra-smoothing / max-merge=2 / limit-refs=3 / no-limit-modes / me=3 / subme=7 / merange=57 / temporal-mvp / weightp / no-weightb / no-analyze-src-pics / deblock=-3:-3 / no-sao / no-sao-non-deblock / rd=3 / no-early-skip / rskip / no-fast-intra / no-tskip-fast / no-cu-lossless / no-b-intra / no-splitrd-skip / rdpenalty=0 / psy-rd=2.00 / psy-rdoq=0.00 / no-rd-refine / no-lossless / cbqpoffs=0 / crqpoffs=0 / rc=crf / crf=16.0 / qcomp=0.75 / qpstep=4 / stats-write=0 / stats-read=0 / vbv-maxrate=50000 / vbv-bufsize=50000 / vbv-init=0.9 / crf-max=0.0 / crf-min=0.0 / ipratio=1.40 / pbratio=1.30 / aq-mode=1 / aq-strength=1.00 / cutree / zone-count=0 / no-strict-cbr / qg-size=32 / no-rc-grain / qpmax=69 / qpmin=0 / no-const-vbv / sar=1 / overscan=0 / videoformat=5 / range=0 / colorprim=1 / transfer=1 / colormatrix=1 / chromaloc=0 / display-window=0 / max-cll=0,0 / min-luma=0 / max-luma=1023 / log2-max-poc-lsb=8 / vui-timing-info / vui-hrd-info / slices=1 / no-opt-qp-pps / no-opt-ref-list-length-pps / no-multi-pass-opt-rps / scenecut-bias=0.05 / no-opt-cu-delta-qp / no-aq-motion / no-hdr / no-hdr-opt / no-dhdr10-opt / no-idr-recovery-sei / analysis-reuse-level=5 / scale-factor=0 / refine-intra=0 / refine-inter=0 / refine-mv=0 / no-limit-sao / ctu-info=0 / no-lowpass-dct / refine-mv-type=0 / copy-pic=1 / max-ausize-factor=1.0 / no-dynamic-refine / no-single-sei
Язык : English
Default : Да
Forced : Нет
Цветовой диапазон : Limited
Основные цвета : BT.709
Характеристики трансфера : BT.709
Коэффициенты матрицы : BT.709

Аудио #1
Идентификатор : 2
Формат : AC-3
Формат/Информация : Audio Coding 3
Коммерческое название : Dolby Digital
Идентификатор кодека : A_AC3
Продолжительность : 1 ч. 35 м.
Вид битрейта : Постоянный
Битрейт : 384 Кбит/сек
Каналы : 6 каналов
Channel layout : L R C LFE Ls Rs
Частота : 48,0 КГц
Частота кадров : 31,250 кадров/сек (1536 SPF)
Битовая глубина : 16 бит
Метод сжатия : С потерями
Размер потока : 263 Мбайт (5%)
Заголовок : iTunes
Язык : Russian
ServiceKind/String : Complete Main
Default : Да
Forced : Нет

Аудио #2
Идентификатор : 3
Формат : AC-3
Формат/Информация : Audio Coding 3
Коммерческое название : Dolby Digital
Идентификатор кодека : A_AC3
Продолжительность : 1 ч. 35 м.
Вид битрейта : Постоянный
Битрейт : 448 Кбит/сек
Каналы : 6 каналов
Channel layout : L R C LFE Ls Rs
Частота : 48,0 КГц
Частота кадров : 31,250 кадров/сек (1536 SPF)
Битовая глубина : 16 бит
Метод сжатия : С потерями
Размер потока : 307 Мбайт (5%)
Заголовок : Оригинал
Язык : English
ServiceKind/String : Complete Main
Default : Нет
Forced : Нет

Меню
00:00:00.000 : :Глава 1
00:02:04.623 : :Глава 2
00:11:30.648 : :Глава 3
00:21:04.471 : :Глава 4
00:32:42.669 : :Глава 5
00:42:33.925 : :Глава 6
00:47:42.483 : :Глава 7
00:53:09.894 : :Глава 8
01:02:11.059 : :Глава 9
01:09:34.962 : :Глава 10
01:24:34.944 : :Глава 11
01:32:50.273 : :Глава 12
01:35:55.791 : :Глава 13
Cкриншот1 Коллекторы / The Debt Collector (2018) BDRip 1080p [HEVC] 10 bit от M@kSIMus
Загружается...
Cкриншот2 Коллекторы / The Debt Collector (2018) BDRip 1080p [HEVC] 10 bit от M@kSIMus
Загружается...
Cкриншот3 Коллекторы / The Debt Collector (2018) BDRip 1080p [HEVC] 10 bit от M@kSIMus
Загружается...
Cкриншот4 Коллекторы / The Debt Collector (2018) BDRip 1080p [HEVC] 10 bit от M@kSIMus
Загружается...
Сэмпл

Ссылки для скачивания доступны только зарегистрированным/авторизованным пользователям!

12.10.2018
0
97
0
0
5.46 ГБ

Добавление нового комментария

Добавление комментариев доступно только зарегистрированным/авторизованным пользователям.