Обложка Оно / It (2017) BDRip 1080p [HEVC] 10 bit от HANNIBALОбложка Робин Гуд / Robin Hood (2010) [Director's Cut] BDRip 1080p [HEVC] 10 bit от CthulhuОбложка Отступники / The Departed (2006) [FR Transfer] BDRip 1080p [HEVC] 10 bit от CthulhuОбложка Rammstein - Paris (2017) BDRip 1080p [HEVC] 8 bit от CthulhuОбложка Эквилибриум / Equilibrium (2002) [Open Matte] BDRip 1080p [HEVC] 10 bit от HANNIBALОбложка Веном / Venom (2018) BDRip 1080p [HEVC] 10 bit от M@kSIMusОбложка Красная жара / Red Heat (1988) BDRip 1080p [HEVC] 10 bit от OldGamerОбложка Знакомство с родителями / Meet the Parents (2000) BDRip 1080p [HEVC] 10 bit от M@kSIMusОбложка Исходный код / Source Code (2011) BDRip 1080p [HEVC] 10 bit от OldGamerОбложка Васаби / Wasabi (2001) BDRip 1080p [HEVC] 10 bit от Cthulhu

Авторизация

Смена пароля

captcha

Регистрация

captcha

🔍 Поиск

Эдвард руки-ножницы / Edward Scissorhands (1990) BDRip 1080p [HEVC] 10 bit от HANNIBAL

HEVC
10 bit
Обложка Эдвард руки-ножницы / Edward Scissorhands (1990) BDRip 1080p [HEVC] 10 bit от HANNIBAL Год: 1990
Страна: США
Студия: Twentieth Century Fox Film Corporation
Жанр: Фэнтези, Драма, Мелодрама
Продолжительность: 01:45:00

Режиссер: Тим Бёртон
В ролях: Джонни Депп, Вайнона Райдер, Дайэнн Уист, Энтони Майкл Холл, Кэти Бейкер, Роберт Оливери, Кончата Феррелл, Кэролайн Аарон, Дик Энтони Уильямс

Описание: Старый и одинокий учёный создал человеческое существо. Но не успел доделать его до конца и умер. У сотворённого им молодого человека не хватает рук — вместо них у него нечто вроде ножниц, и он вынужден жить в заброшенном доме в полном одиночестве. Но вот однажды он знакомится с прекрасной девушкой, которая смогла оценить его доброе сердце.


7.998143902
7.9
403392


Формат: MKV
Видео: 1920x1036, 11.6 Mbps
Аудио: AC3, 6 ch, 448 Kbps - Русский, Многоголосый (ОРТ)
Субтитры: нет

Медиаинфо
General
Unique ID : 237216710094020329202870118483236616231 (0xB27646CA8879B81542BDC80EF659F827)
Complete name : E:\Edward Scissorhands (1990) BDRip 1080p [HEVC] 10bit.mkv
Format : Matroska
Format version : Version 4 / Version 2
File size : 9.04 GiB
Duration : 1 h 45 min
Overall bit rate : 12.3 Mb/s
Movie name : Эдвард руки-ножницы
Track name/Position : 1/5
Description : Жил-был однажды в замке высоко на холме изобретатель, величайшим творением которого стал Эдвард. Несмотря на то, что Эдвард был удивительно мил, он не был идеален. Внезапная смерть создателя оставила Эдварда незавершенным: с острыми металлическими лезвиями вместо рук. Долго жил несчастный Эдвард в темноте и одиночестве, пока однажды добрая женщина не взяла его в свою семью. Так началась новая жизнь Эдварда. Волшебная сказка, рассказанная Тимом Бертоном в исполнении великолепных актеров - Джонни Деппа и Вайноны Райдер.
Writing application : XviD4PSP 7.0.457 DAILY
Writing library : Lavf57.71.100
ErrorDetectionType : Per level 1
Attachments : poster.jpg
ALBUM : Family Night 5 Movies
DATE : 1990-12-07
DISC : 1/1
ENCODING_INFO : MPEGTS > MKV 1080p 10-bit / H264 > X265 CRF 19.5 Medium / DTS > AC3 CBR 448kbps
GENRE : Научная фантастика и фэнтези
HD_VIDEO : 1
ITUNEXTC : ru-movie|18+|400|
Language : und
MEDIA_TYPE : 9
ORIGINAL_TITLE : Edward Scissorhands
PUBLISHER : 20th Century Fox Film
SYNOPSIS : Жил-был однажды в замке высоко на холме изобретатель, величайшим творением которого стал Эдвард. Несмотря на то, что Эдвард был удивительно мил, он не был идеален. Внезапная смерть создателя оставила Эдварда незавершенным: с острыми металлическими лезвиями вместо рук. Долго жил несчастный Эдвард в темноте и одиночестве, пока однажды добрая женщина не взяла его в свою семью. Так началась новая жизнь Эдварда. Волшебная сказка, рассказанная Тимом Бертоном в исполнении великолепных актеров - Джонни Деппа и Вайноны Райдер.

Video
ID : 1
Format : HEVC
Format/Info : High Efficiency Video Coding
Format profile : Main 10@L5.1@High
Codec ID : V_MPEGH/ISO/HEVC
Duration : 1 h 45 min
Bit rate : 11.6 Mb/s
Width : 1 920 pixels
Height : 1 036 pixels
Display aspect ratio : 1.85:1
Frame rate mode : Constant
Frame rate : 23.976 (24000/1001) FPS
Color space : YUV
Chroma subsampling : 4:2:0
Bit depth : 10 bits
Bits/(Pixel*Frame) : 0.244
Stream size : 8.53 GiB (94%)
Writing library : x265 2.8+19-bcdc610cf5f0:[Windows][GCC 7.3.0][64 bit] 10bit
Encoding settings : cpuid=1111039 / frame-threads=13 / numa-pools=12 / wpp / no-pmode / no-pme / no-psnr / no-ssim / log-level=3 / input-csp=1 / input-res=1920x1036 / interlace=0 / total-frames=0 / level-idc=51 / high-tier=1 / uhd-bd=0 / ref=3 / allow-non-conformance / no-repeat-headers / annexb / no-aud / no-hrd / info / hash=0 / no-temporal-layers / open-gop / min-keyint=24 / keyint=240 / gop-lookahead=0 / bframes=7 / b-adapt=2 / b-pyramid / bframe-bias=0 / rc-lookahead=40 / lookahead-slices=6 / scenecut=40 / radl=0 / no-intra-refresh / ctu=64 / min-cu-size=8 / rect / amp / max-tu-size=32 / tu-inter-depth=1 / tu-intra-depth=1 / limit-tu=0 / rdoq-level=0 / dynamic-rd=0.00 / no-ssim-rd / signhide / no-tskip / nr-intra=0 / nr-inter=0 / no-constrained-intra / no-strong-intra-smoothing / max-merge=2 / limit-refs=3 / no-limit-modes / me=3 / subme=7 / merange=57 / temporal-mvp / weightp / no-weightb / no-analyze-src-pics / deblock=-3:-3 / no-sao / no-sao-non-deblock / rd=3 / no-early-skip / rskip / no-fast-intra / no-tskip-fast / no-cu-lossless / no-b-intra / no-splitrd-skip / rdpenalty=0 / psy-rd=2.00 / psy-rdoq=0.00 / no-rd-refine / no-lossless / cbqpoffs=0 / crqpoffs=0 / rc=crf / crf=19.5 / qcomp=0.70 / qpstep=4 / stats-write=0 / stats-read=0 / vbv-maxrate=160000 / vbv-bufsize=160000 / vbv-init=0.9 / crf-max=0.0 / crf-min=0.0 / ipratio=1.40 / pbratio=1.30 / aq-mode=1 / aq-strength=1.00 / cutree / zone-count=0 / no-strict-cbr / qg-size=32 / no-rc-grain / qpmax=69 / qpmin=0 / no-const-vbv / sar=1 / overscan=0 / videoformat=5 / range=0 / colorprim=1 / transfer=1 / colormatrix=1 / chromaloc=0 / display-window=0 / max-cll=0,0 / min-luma=0 / max-luma=1023 / log2-max-poc-lsb=8 / vui-timing-info / vui-hrd-info / slices=1 / no-opt-qp-pps / no-opt-ref-list-length-pps / no-multi-pass-opt-rps / scenecut-bias=0.05 / no-opt-cu-delta-qp / no-aq-motion / no-hdr / no-hdr-opt / no-dhdr10-opt / no-idr-recovery-sei / analysis-reuse-level=5 / scale-factor=0 / refine-intra=0 / refine-inter=0 / refine-mv=0 / no-limit-sao / ctu-info=0 / no-lowpass-dct / refine-mv-type=0 / copy-pic=1 / max-ausize-factor=1.0 / no-dynamic-refine / no-single-sei
Default : Yes
Forced : No
Color range : Limited
Color primaries : BT.709
Transfer characteristics : BT.709
Matrix coefficients : BT.709

Audio
ID : 2
Format : AC-3
Format/Info : Audio Coding 3
Commercial name : Dolby Digital
Codec ID : A_AC3
Duration : 1 h 45 min
Bit rate mode : Constant
Bit rate : 448 kb/s
Channel(s) : 6 channels
Channel layout : L R C LFE Ls Rs
Sampling rate : 48.0 kHz
Frame rate : 31.250 FPS (1536 SPF)
Bit depth : 16 bits
Compression mode : Lossy
Stream size : 336 MiB (4%)
Service kind : Complete Main
Default : Yes
Forced : No
Сэмпл
Cкриншот1 Эдвард руки-ножницы / Edward Scissorhands (1990) BDRip 1080p [HEVC] 10 bit от HANNIBAL
Загружается...
Cкриншот2 Эдвард руки-ножницы / Edward Scissorhands (1990) BDRip 1080p [HEVC] 10 bit от HANNIBAL
Загружается...
Cкриншот3 Эдвард руки-ножницы / Edward Scissorhands (1990) BDRip 1080p [HEVC] 10 bit от HANNIBAL
Загружается...
Cкриншот4 Эдвард руки-ножницы / Edward Scissorhands (1990) BDRip 1080p [HEVC] 10 bit от HANNIBAL
Загружается...
Ссылки для скачивания доступны только зарегистрированным/авторизованным пользователям!

11.10.2018  15:34:13
0
30
0
0
9.04 ГБ

Добавление нового комментария

Добавление комментариев доступно только зарегистрированным/авторизованным пользователям.