Обложка Оно / It (2017) BDRip 1080p [HEVC] 10 bit от HANNIBALОбложка Отступники / The Departed (2006) [FR Transfer] BDRip 1080p [HEVC] 10 bit от CthulhuОбложка Робин Гуд / Robin Hood (2010) [Director's Cut] BDRip 1080p [HEVC] 10 bit от CthulhuОбложка Rammstein - Paris (2017) BDRip 1080p [HEVC] 8 bit от CthulhuОбложка Веном / Venom (2018) BDRip 1080p [HEVC] 10 bit от M@kSIMusОбложка Эквилибриум / Equilibrium (2002) [Open Matte] BDRip 1080p [HEVC] 10 bit от HANNIBALОбложка Красная жара / Red Heat (1988) BDRip 1080p [HEVC] 10 bit от OldGamerОбложка Знакомство с родителями / Meet the Parents (2000) BDRip 1080p [HEVC] 10 bit от M@kSIMusОбложка Доктор Голливуд / Doc Hollywood (1991) BDRip 1080p [HEVC] 10 bit от OldGamerОбложка Исходный код / Source Code (2011) BDRip 1080p [HEVC] 10 bit от OldGamer

Авторизация

Смена пароля

captcha

Регистрация

captcha

🔍 Поиск

Судный день / Doomsday (2008) [Unrated Cut] BDRip 1080p [HEVC] 10 bit от M@kSIMus

HEVC
10 bit
Обложка Судный день / Doomsday (2008) [Unrated Cut] BDRip 1080p [HEVC] 10 bit от M@kSIMus Год: 2008
Страна: Великобритания, США, ЮАР, Германия
Студия: Crystal Sky Pictures, Scion Films Limited, Intrepid Pictures
Жанр: Фантастика, Боевик, Триллер
Продолжительность: 01:52:50

Режиссер: Нил Маршалл
В ролях: Кэрин Петерсон, Эмма Клисби, Кристин Томлинсон, Дэниэл Рид, Стефен Хьюз, Джейсон Коуп, Райан Крюгер, Натан Уитли, Сесил Картер, Джереми Кратчли

Описание: Великобритания, недалёкое будущее. Смертельный и совершенно неизученный вирус, названный «Жнецом» («Reaper Virus») обрушился на страну, убивая десятки и сотни тысяч жителей. Не имея возможности решить проблему, правительство решает изолировать очаг заразы от не инфицированной местности, построив вокруг территории буйства «Жнеца» стену. Проходит 30 лет, но вирус снова заявил о себе. Тогда было решено послать в заражённую область первоклассную команду спецназа для поисков возможных методов борьбы с вирусом. Ради выполнения цели и сохранения жизней ребятам придется пробиваться через настоящий оживший кошмар…


6.22621817
6
63452


Формат: MKV
Видео: 1920x818, 6873 Kbps
Аудио1: AC3, 6 ch, 448 Kbps - Русский, Дублированный, без перевода расширенных сцен
Аудио2: AC3, 6 ch, 448 Kbps - Английский, Оригинал
Субтитры: Русские (полные)

Медиаинфо
Общее
Уникальный идентификатор : 48190388836427472835580346119219018405 (0x2441219C2AD4A9DF4594B13C17FF7AA5)
Полное имя : E:\Фильмы\Судный день (2008) [Unrated Cut] BDRip 1080p [HEVC] 10 bit.mkv
Формат : Matroska
Версия формата : Version 4
Размер файла : 6,13 Гбайт
Продолжительность : 1 ч. 52 м.
Общий поток : 7772 Кбит/сек
Название фильма : Rip_by_M@kSIMus
Дата кодирования : UTC 2018-10-10 08:09:52
Программа кодирования : mkvmerge v19.0.0 ('Brave Captain') 64-bit
Библиотека кодирования : libebml v1.3.5 + libmatroska v1.4.8
Обложка : Yes
Attachments : cover.jpg

Видео
Идентификатор : 1
Формат : HEVC
Формат/Информация : High Efficiency Video Coding
Профиль формата : Main 10@L4.1@High
Идентификатор кодека : V_MPEGH/ISO/HEVC
Продолжительность : 1 ч. 52 м.
Битрейт : 6873 Кбит/сек
Ширина : 1920 пикселей
Высота : 818 пикселей
Соотношение сторон : 2,35:1
Режим частоты кадров : Постоянный
Частота кадров : 23,976 (24000/1001) кадра/сек
Цветовое пространство : YUV
Субдискретизация насыщенности : 4:2:0
Битовая глубина : 10 бит
Бит/(Пиксели*Кадры) : 0.183
Размер потока : 5,42 Гбайт (88%)
Библиотека кодирования : x265 2.8+19-bcdc610cf5f0:[Windows][GCC 7.3.0][64 bit] 10bit
Настройки программы : cpuid=1049583 / frame-threads=5 / numa-pools=4 / wpp / no-pmode / no-pme / no-psnr / no-ssim / log-level=3 / input-csp=1 / input-res=1920x818 / interlace=0 / total-frames=0 / level-idc=41 / high-tier=1 / uhd-bd=0 / ref=5 / allow-non-conformance / no-repeat-headers / annexb / no-aud / no-hrd / info / hash=0 / no-temporal-layers / open-gop / min-keyint=24 / keyint=240 / gop-lookahead=0 / bframes=8 / b-adapt=2 / b-pyramid / bframe-bias=0 / rc-lookahead=40 / lookahead-slices=5 / scenecut=40 / radl=0 / no-intra-refresh / ctu=64 / min-cu-size=8 / no-rect / no-amp / max-tu-size=32 / tu-inter-depth=1 / tu-intra-depth=1 / limit-tu=0 / rdoq-level=0 / dynamic-rd=0.00 / no-ssim-rd / signhide / no-tskip / nr-intra=0 / nr-inter=0 / no-constrained-intra / strong-intra-smoothing / max-merge=2 / limit-refs=3 / no-limit-modes / me=3 / subme=7 / merange=57 / temporal-mvp / weightp / no-weightb / no-analyze-src-pics / deblock=-3:-3 / no-sao / no-sao-non-deblock / rd=3 / no-early-skip / rskip / no-fast-intra / no-tskip-fast / no-cu-lossless / no-b-intra / no-splitrd-skip / rdpenalty=0 / psy-rd=2.00 / psy-rdoq=0.00 / no-rd-refine / no-lossless / cbqpoffs=0 / crqpoffs=0 / rc=crf / crf=20.0 / qcomp=0.75 / qpstep=4 / stats-write=0 / stats-read=0 / vbv-maxrate=50000 / vbv-bufsize=50000 / vbv-init=0.9 / crf-max=0.0 / crf-min=0.0 / ipratio=1.40 / pbratio=1.30 / aq-mode=1 / aq-strength=1.00 / cutree / zone-count=0 / no-strict-cbr / qg-size=32 / no-rc-grain / qpmax=69 / qpmin=0 / no-const-vbv / sar=1 / overscan=0 / videoformat=5 / range=0 / colorprim=1 / transfer=1 / colormatrix=1 / chromaloc=0 / display-window=0 / max-cll=0,0 / min-luma=0 / max-luma=1023 / log2-max-poc-lsb=8 / vui-timing-info / vui-hrd-info / slices=1 / no-opt-qp-pps / no-opt-ref-list-length-pps / no-multi-pass-opt-rps / scenecut-bias=0.05 / no-opt-cu-delta-qp / no-aq-motion / no-hdr / no-hdr-opt / no-dhdr10-opt / no-idr-recovery-sei / analysis-reuse-level=5 / scale-factor=0 / refine-intra=0 / refine-inter=0 / refine-mv=0 / no-limit-sao / ctu-info=0 / no-lowpass-dct / refine-mv-type=0 / copy-pic=1 / max-ausize-factor=1.0 / no-dynamic-refine / no-single-sei
Язык : English
Default : Да
Forced : Нет
Цветовой диапазон : Limited
Основные цвета : BT.709
Характеристики трансфера : BT.709
Коэффициенты матрицы : BT.709

Аудио #1
Идентификатор : 2
Формат : AC-3
Формат/Информация : Audio Coding 3
Коммерческое название : Dolby Digital
Идентификатор кодека : A_AC3
Продолжительность : 1 ч. 52 м.
Вид битрейта : Постоянный
Битрейт : 448 Кбит/сек
Каналы : 6 каналов
Channel layout : L R C LFE Ls Rs
Частота : 48,0 КГц
Частота кадров : 31,250 кадров/сек (1536 SPF)
Битовая глубина : 16 бит
Метод сжатия : С потерями
Размер потока : 362 Мбайт (6%)
Заголовок : Дубляж
Язык : Russian
ServiceKind/String : Complete Main
Default : Да
Forced : Нет

Аудио #2
Идентификатор : 3
Формат : AC-3
Формат/Информация : Audio Coding 3
Коммерческое название : Dolby Digital
Идентификатор кодека : A_AC3
Продолжительность : 1 ч. 52 м.
Вид битрейта : Постоянный
Битрейт : 448 Кбит/сек
Каналы : 6 каналов
Channel layout : L R C LFE Ls Rs
Частота : 48,0 КГц
Частота кадров : 31,250 кадров/сек (1536 SPF)
Битовая глубина : 16 бит
Метод сжатия : С потерями
Размер потока : 362 Мбайт (6%)
Заголовок : Оригинал
Язык : English
ServiceKind/String : Complete Main
Default : Нет
Forced : Нет

Текст
Идентификатор : 4
Формат : UTF-8
Идентификатор кодека : S_TEXT/UTF8
Идентификатор кодека/Информация : UTF-8 Plain Text
Продолжительность : 1 ч. 44 м.
Битрейт : 66 бит/сек
ElementCount : 856
Размер потока : 50,8 Кбайт (0%)
Заголовок : Full
Язык : Russian
Default : Нет
Forced : Нет

Меню
00:00:00.000 : :Reaper Virus (Main Titles)
00:06:13.122 : :Laws Of Nature
00:13:25.638 : :Find A Cure
00:17:57.076 : :No Rules, No Back Up
00:25:27.400 : :Take Us In
00:30:53.142 : :We Got A Live One
00:36:41.782 : :Emergency Evacuation
00:44:33.045 : :Passeport To The Promised Land
00:50:11.383 : :Give 'Em Hell
00:57:18.351 : :Get Me Out Of Here
01:00:12.483 : :On The Move
01:06:41.747 : :Natural Selection
01:13:17.684 : :Inside The Hot Zone
01:16:58.780 : :Nothing To Lose
01:22:59.808 : :Under Attack
01:28:33.683 : :Follow The Prize
01:32:31.837 : :Here They Come
01:37:48.320 : :Just A Job
01:41:31.960 : :Hero Of The Hour
01:45:05.841 : :End Titles
Сэмпл
Cкриншот1 Судный день / Doomsday (2008) [Unrated Cut] BDRip 1080p [HEVC] 10 bit от M@kSIMus
Загружается...
Cкриншот2 Судный день / Doomsday (2008) [Unrated Cut] BDRip 1080p [HEVC] 10 bit от M@kSIMus
Загружается...
Cкриншот3 Судный день / Doomsday (2008) [Unrated Cut] BDRip 1080p [HEVC] 10 bit от M@kSIMus
Загружается...
Cкриншот4 Судный день / Doomsday (2008) [Unrated Cut] BDRip 1080p [HEVC] 10 bit от M@kSIMus
Загружается...
Ссылки для скачивания доступны только зарегистрированным/авторизованным пользователям!

11.10.2018  15:01:50
0
78
1
0
6.13 ГБ

Добавление нового комментария

Добавление комментариев доступно только зарегистрированным/авторизованным пользователям.