Обложка Оно / It (2017) BDRip 1080p [HEVC] 10 bit от HANNIBALОбложка Храбрая сердцем / Brave (2012) BDRip 1080p [HEVC] 10 bit от МичманОбложка Корпорация монстров / Monsters, Inc. (2001) BDRip 1080p [HEVC] 10 bit от МичманОбложка Эквилибриум / Equilibrium (2002) [Open Matte] BDRip 1080p [HEVC] 10 bit от HANNIBALОбложка Rammstein - Paris (2017) BDRip 1080p [HEVC] 8 bit от CthulhuОбложка Университет монстров / Monsters University (2013) BDRip 1080p [HEVC] 10 bit от МичманОбложка Другой мир: Антология / Underworld: Anthology (2003-2016) BDRip 1080р [HEVC] 10 bit от CthulhuОбложка Вольт / Bolt (2008) BDRip 1080p [HEVC] 10 bit от МичманОбложка Хакеры / Hackers (1995) [Remastered] BDRip 1080p [HEVC] 10 bit от CthulhuОбложка Отступники / The Departed (2006) [FR Transfer] BDRip 1080p [HEVC] 10 bit от Cthulhu

Авторизация

Смена пароля

captcha

Регистрация

captcha

Поиск

Величайший шоумен / The Greatest Showman (2017) BDRip 1080p [HEVC] 10 bit от XuMuK

HEVC
10 bit
Обложка Величайший шоумен / The Greatest Showman (2017) BDRip 1080p [HEVC] 10 bit от XuMuK Год: 2017
Страна: США
Студия: TSG Entertainment
Жанр: Драма, Биография, Мюзикл
Продолжительность: 01:44:49

Режиссер: Майкл Грэйси
В ролях: Хью Джекман, Зак Эфрон, Мишель Уильямс, Ребекка Фергюсон (II), Зендея, Кила Сеттл, Яхья Абдул-Матин II, Остин Джонсон, Эллис Рубин, Скайлар Данн

Описание: Финеас Тейлор Барнум всегда мечтал войти в историю, но все его занятия не приносили ему удовольствия. И когда, казалось, весь мир обернулся против него, он решает пойти вслед за своей мечтой. Барнум создает завораживающее представление-сенсацию, которое стало рождением мирового шоу-бизнеса.


7.57946306
7.7
155668


Формат: MKV
Видео: 1920x800, 4956 Kbps
Аудио1: AC3, 6 ch, 448 Kbps - Русский, Дублированный (Лицензия)
Аудио2: AC3, 6 ch, 448 Kbps - Английский, Оригинал
Субтитры: Русские (форсированные, на песни, полные), английские

Медиаинфо
Общее
Уникальный идентификатор : 183175115954823532587690360227319048370 (0x89CE3E7C93CECD71358A37857234E8B2)
Полное имя : H:HEVC 210 BITThe Greatest Showman_2017_BDRip_1080p_[HEVC]_10bit.mkv
Формат : Matroska
Версия формата : Version 4 / Version 2
Размер файла : 4,29 Гбайт
Продолжительность : 1 ч. 44 м.
Общий поток : 5855 Кбит/сек
Название фильма : HEVC by XuMuK
Дата кодирования : UTC 2018-04-25 16:05:33
Программа кодирования : mkvmerge v21.0.0 ('Tardigrades Will Inherit The Earth') 64-bit
Библиотека кодирования : libebml v1.3.5 + libmatroska v1.4.8
Обложка : Yes
Attachments : cover.jpg

Видео
Идентификатор : 1
Формат : HEVC
Формат/Информация : High Efficiency Video Coding
Профиль формата : Main 10@L4.1@High
Идентификатор кодека : V_MPEGH/ISO/HEVC
Продолжительность : 1 ч. 44 м.
Битрейт : 4956 Кбит/сек
Ширина : 1920 пикселей
Высота : 800 пикселей
Соотношение сторон : 2,40:1
Режим частоты кадров : Постоянный
Частота кадров : 23,976 (24000/1001) кадра/сек
Цветовое пространство : YUV
Субдискретизация насыщенности : 4:2:0
Битовая глубина : 10 бит
Бит/(Пиксели*Кадры) : 0.135
Размер потока : 3,63 Гбайт (85%)
Библиотека кодирования : x265 2.7+17-2e370d98c806:[Windows][GCC 8.0.1][64 bit] 10bit
Настройки программы : cpuid=1173503 / frame-threads=4 / numa-pools=16 / wpp / no-pmode / no-pme / no-psnr / no-ssim / log-level=2 / input-csp=1 / input-res=1920x800 / interlace=0 / total-frames=150792 / level-idc=41 / high-tier=1 / uhd-bd=0 / ref=5 / no-allow-non-conformance / no-repeat-headers / annexb / no-aud / no-hrd / info / hash=0 / no-temporal-layers / open-gop / min-keyint=23 / keyint=240 / gop-lookahead=0 / bframes=8 / b-adapt=2 / no-b-pyramid / bframe-bias=0 / rc-lookahead=60 / lookahead-slices=4 / scenecut=40 / radl=0 / no-intra-refresh / ctu=32 / min-cu-size=8 / rect / amp / max-tu-size=32 / tu-inter-depth=3 / tu-intra-depth=3 / limit-tu=1 / rdoq-level=2 / dynamic-rd=0.00 / no-ssim-rd / signhide / no-tskip / nr-intra=0 / nr-inter=0 / no-constrained-intra / no-strong-intra-smoothing / max-merge=3 / limit-refs=2 / limit-modes / me=3 / subme=7 / merange=57 / temporal-mvp / weightp / weightb / no-analyze-src-pics / deblock=-3:-3 / no-sao / no-sao-non-deblock / rd=6 / no-early-skip / rskip / no-fast-intra / no-tskip-fast / no-cu-lossless / b-intra / no-splitrd-skip / rdpenalty=0 / psy-rd=2.00 / psy-rdoq=1.00 / no-rd-refine / no-lossless / cbqpoffs=-2 / crqpoffs=-2 / rc=crf / crf=17.0 / qcomp=0.60 / qpstep=4 / stats-write=0 / stats-read=0 / vbv-maxrate=50000 / vbv-bufsize=50000 / vbv-init=0.9 / crf-max=0.0 / crf-min=0.0 / ipratio=1.40 / pbratio=1.30 / aq-mode=1 / aq-strength=1.00 / cutree / zone-count=1 / zones: / start-frame=139466 / end-frame=150792 / qp=35 / no-strict-cbr / qg-size=32 / no-rc-grain / qpmax=69 / qpmin=0 / no-const-vbv / sar=1 / overscan=0 / videoformat=5 / range=0 / colorprim=1 / transfer=1 / colormatrix=1 / chromaloc=0 / display-window=0 / max-cll=0,0 / min-luma=0 / max-luma=1023 / log2-max-poc-lsb=8 / vui-timing-info / vui-hrd-info / slices=1 / no-opt-qp-pps / no-opt-ref-list-length-pps / no-multi-pass-opt-rps / scenecut-bias=0.05 / no-opt-cu-delta-qp / no-aq-motion / no-hdr / no-hdr-opt / no-dhdr10-opt / no-idr-recovery-sei / analysis-reuse-level=5 / scale-factor=0 / refine-intra=0 / refine-inter=0 / refine-mv=0 / no-limit-sao / ctu-info=0 / no-lowpass-dct / refine-mv-type=0 / copy-pic=1 / max-ausize-factor=1.0 / no-dynamic-refine
Default : Да
Forced : Нет
Цветовой диапазон : Limited
Основные цвета : BT.709
Характеристики трансфера : BT.709
Коэффициенты матрицы : BT.709

Аудио #1
Идентификатор : 2
Формат : AC-3
Формат/Информация : Audio Coding 3
Идентификатор кодека : A_AC3
Продолжительность : 1 ч. 44 м.
Вид битрейта : Постоянный
Битрейт : 448 Кбит/сек
Каналы : 6 каналов
Расположение каналов : Front: L C R, Side: L R, LFE
Частота : 48,0 КГц
Частота кадров : 31,250 кадров/сек (1536 SPF)
Битовая глубина : 16 бит
Метод сжатия : С потерями
Размер потока : 336 Мбайт (8%)
Заголовок : Дубляж лицензия
Язык : Russian
ServiceKind : Complete Main
Default : Да
Forced : Нет

Аудио #2
Идентификатор : 3
Формат : AC-3
Формат/Информация : Audio Coding 3
Идентификатор кодека : A_AC3
Продолжительность : 1 ч. 44 м.
Вид битрейта : Постоянный
Битрейт : 448 Кбит/сек
Каналы : 6 каналов
Расположение каналов : Front: L C R, Side: L R, LFE
Частота : 48,0 КГц
Частота кадров : 31,250 кадров/сек (1536 SPF)
Битовая глубина : 16 бит
Метод сжатия : С потерями
Размер потока : 336 Мбайт (8%)
Заголовок : Оригинал
Язык : English
ServiceKind : Complete Main
Default : Нет
Forced : Нет

Текст #1
Идентификатор : 4
Формат : UTF-8
Идентификатор кодека : S_TEXT/UTF8
Идентификатор кодека/Информация : UTF-8 Plain Text
Продолжительность : 28 м. 20 с.
Битрейт : 1 бит/сек
ElementCount : 11
Размер потока : 424 байт (0%)
Заголовок : Forced
Язык : Russian
Default : Да
Forced : Нет

Текст #2
Идентификатор : 5
Формат : UTF-8
Идентификатор кодека : S_TEXT/UTF8
Идентификатор кодека/Информация : UTF-8 Plain Text
Продолжительность : 1 ч. 36 м.
Битрейт : 45 бит/сек
ElementCount : 535
Размер потока : 31,7 Кбайт (0%)
Заголовок : Forced (songs)
Язык : Russian
Default : Нет
Forced : Нет

Текст #3
Идентификатор : 6
Формат : UTF-8
Идентификатор кодека : S_TEXT/UTF8
Идентификатор кодека/Информация : UTF-8 Plain Text
Продолжительность : 1 ч. 36 м.
Битрейт : 112 бит/сек
ElementCount : 1605
Размер потока : 78,8 Кбайт (0%)
Заголовок : Full
Язык : Russian
Default : Нет
Forced : Нет

Текст #4
Идентификатор : 7
Формат : UTF-8
Идентификатор кодека : S_TEXT/UTF8
Идентификатор кодека/Информация : UTF-8 Plain Text
Продолжительность : 1 ч. 36 м.
Битрейт : 77 бит/сек
ElementCount : 1335
Размер потока : 54,5 Кбайт (0%)
Заголовок : Full
Язык : English
Default : Нет
Forced : Нет

Текст #5
Идентификатор : 8
Формат : UTF-8
Идентификатор кодека : S_TEXT/UTF8
Идентификатор кодека/Информация : UTF-8 Plain Text
Продолжительность : 1 ч. 43 м.
Битрейт : 77 бит/сек
ElementCount : 1864
Размер потока : 58,7 Кбайт (0%)
Заголовок : SDH
Язык : English
Default : Нет
Forced : Нет

Меню
00:00:00.000 : en:00:00:00.000
00:03:21.618 : en:00:03:21.618
00:11:33.985 : en:00:11:33.985
00:16:21.314 : en:00:16:21.314
00:21:13.731 : en:00:21:13.731
00:25:04.169 : en:00:25:04.169
00:32:10.178 : en:00:32:10.178
00:36:09.626 : en:00:36:09.626
00:41:38.413 : en:00:41:38.413
00:44:41.053 : en:00:44:41.053
00:48:24.151 : en:00:48:24.151
00:53:11.146 : en:00:53:11.146
00:56:20.711 : en:00:56:20.711
01:01:34.816 : en:01:01:34.816
01:07:33.883 : en:01:07:33.883
01:12:00.983 : en:01:12:00.983
01:18:23.699 : en:01:18:23.699
01:22:07.131 : en:01:22:07.131
01:29:04.798 : en:01:29:04.798
01:37:09.449 : en:01:37:09.449
Cкриншот1 Величайший шоумен / The Greatest Showman (2017) BDRip 1080p [HEVC] 10 bit от XuMuK
Загружается...
Cкриншот2 Величайший шоумен / The Greatest Showman (2017) BDRip 1080p [HEVC] 10 bit от XuMuK
Загружается...
Cкриншот3 Величайший шоумен / The Greatest Showman (2017) BDRip 1080p [HEVC] 10 bit от XuMuK
Загружается...
Cкриншот4 Величайший шоумен / The Greatest Showman (2017) BDRip 1080p [HEVC] 10 bit от XuMuK
Загружается...


Ссылки для скачивания доступны только зарегистрированным/авторизованным пользователям!

11.10.2018
0
38
0
0
4.29 ГБ

Добавление нового комментария

Добавление комментариев доступно только зарегистрированным/авторизованным пользователям.