Обложка Оно / It (2017) BDRip 1080p [HEVC] 10 bit от HANNIBALОбложка Робин Гуд / Robin Hood (2010) [Director's Cut] BDRip 1080p [HEVC] 10 bit от CthulhuОбложка Отступники / The Departed (2006) [FR Transfer] BDRip 1080p [HEVC] 10 bit от CthulhuОбложка Rammstein - Paris (2017) BDRip 1080p [HEVC] 8 bit от CthulhuОбложка Веном / Venom (2018) BDRip 1080p [HEVC] 10 bit от M@kSIMusОбложка Красная жара / Red Heat (1988) BDRip 1080p [HEVC] 10 bit от OldGamerОбложка Эквилибриум / Equilibrium (2002) [Open Matte] BDRip 1080p [HEVC] 10 bit от HANNIBALОбложка Знакомство с родителями / Meet the Parents (2000) BDRip 1080p [HEVC] 10 bit от M@kSIMusОбложка Исходный код / Source Code (2011) BDRip 1080p [HEVC] 10 bit от OldGamerОбложка Васаби / Wasabi (2001) BDRip 1080p [HEVC] 10 bit от Cthulhu

Авторизация

Смена пароля

captcha

Регистрация

captcha

🔍 Поиск

Внезапный удар / Sudden Impact (1983) BDRip 1080p [HEVC] 10 bit от joker63

HEVC
10 bit
Обложка Внезапный удар / Sudden Impact (1983) BDRip 1080p [HEVC] 10 bit от joker63 Год: 1983
Страна: США
Жанр: Боевик, Триллер, Криминал
Продолжительность: 01:57:09

Режиссер: Клинт Иствуд
В ролях: Клинт Иствуд, Сондра Лок, Пэт Хингл, Брэдфорд Диллман, Пол Дрэйк, Одри Дж. Нинэн, Джек Тибо, Майкл Керри, Альберт Попвелл, Кевин Мейджор Ховард, Бетт Форд,

Описание: Четвертый фильм о полицейском Гарри Каллахэне по кличке «Грязный». Такое необычное прозвище он получил не случайно: Гарри не гнушается никакими методами, борясь с преступным миром. Убийство для него — норма. Местный шеф полиции пытается охладить свирепого подчиненного, но Гарри не собирается менять свои стиль. Власти Сан-Франциско обескуражены подобным поведением Калахэна и, от греха подальше, отправляют сыщика расследовать дело в Сан-Пауло.


6.8061901
6.6
36051


Формат: MKV
Видео: 1920x796, 5017 Kbps
Аудио1: AC3, 2 ch, 192 Kbps - Русский, Дублированный
Аудио2: AC3, 6 ch, 448 Kbps - Русский, Многоголосый (Нота для тк Россия
Субтитры: Нет

Медиаинфо
Общее
Уникальный идентификатор : 91982785521412835786885067505395999760 (0x45333D77380008DC97543CEF8E46A410)
Полное имя : D:\Клинт Иствуд\Грязный Гарри 4 Внезапный удар Dirty Harry 4 Sudden Impact (1983)BDRip 1080p [HEVC] 10 bit.mkv
Формат : Matroska
Версия формата : Version 4
Размер файла : 4,42 Гбайт
Продолжительность : 1 ч. 57 м.
Общий поток : 5402 Кбит/сек
Название фильма : Grjaznyj Garri (1983) Vnezapnyj udar рип от Joker63
Дата кодирования : UTC 2018-09-07 09:02:46
Программа кодирования : mkvmerge v26.0.0 ('In The Game') 64-bit
Библиотека кодирования : libebml v1.3.6 + libmatroska v1.4.9
Обложка : Yes
Attachments : cover.jpg

Видео
Идентификатор : 1
Формат : HEVC
Формат/Информация : High Efficiency Video Coding
Профиль формата : Main 10@L5.1@Main
Идентификатор кодека : V_MPEGH/ISO/HEVC
Продолжительность : 1 ч. 57 м.
Битрейт : 5017 Кбит/сек
Ширина : 1920 пикселей
Высота : 796 пикселей
Соотношение сторон : 2,40:1
Режим частоты кадров : Постоянный
Частота кадров : 23,976 (24000/1001) кадра/сек
Цветовое пространство : YUV
Субдискретизация насыщенности : 4:2:0
Битовая глубина : 10 бит
Бит/(Пиксели*Кадры) : 0.137
Размер потока : 4,11 Гбайт (93%)
Заголовок : Grjaznyj Garri (1983) Vnezapnyj udar
Библиотека кодирования : x265 2.8+19-bcdc610cf5f0:[Windows][GCC 7.3.0][64 bit] 10bit
Настройки программы : cpuid=1049583 / frame-threads=5 / numa-pools=4 / wpp / no-pmode / no-pme / no-psnr / no-ssim / log-level=3 / input-csp=1 / input-res=1920x796 / interlace=0 / total-frames=0 / level-idc=51 / high-tier=1 / uhd-bd=0 / ref=5 / allow-non-conformance / no-repeat-headers / annexb / no-aud / no-hrd / info / hash=0 / no-temporal-layers / open-gop / min-keyint=24 / keyint=240 / gop-lookahead=0 / bframes=4 / b-adapt=2 / b-pyramid / bframe-bias=0 / rc-lookahead=20 / lookahead-slices=5 / scenecut=40 / radl=0 / no-intra-refresh / ctu=64 / min-cu-size=8 / no-rect / no-amp / max-tu-size=32 / tu-inter-depth=1 / tu-intra-depth=1 / limit-tu=0 / rdoq-level=0 / dynamic-rd=0.00 / no-ssim-rd / signhide / no-tskip / nr-intra=0 / nr-inter=0 / no-constrained-intra / strong-intra-smoothing / max-merge=2 / limit-refs=3 / no-limit-modes / me=1 / subme=2 / merange=57 / temporal-mvp / weightp / no-weightb / no-analyze-src-pics / deblock=-2:-2 / sao / no-sao-non-deblock / rd=3 / no-early-skip / rskip / no-fast-intra / no-tskip-fast / no-cu-lossless / no-b-intra / no-splitrd-skip / rdpenalty=0 / psy-rd=2.00 / psy-rdoq=0.00 / no-rd-refine / no-lossless / cbqpoffs=0 / crqpoffs=0 / rc=abr / bitrate=5000 / qcomp=0.60 / qpstep=4 / stats-write=0 / stats-read=0 / ipratio=1.40 / pbratio=1.30 / aq-mode=1 / aq-strength=1.00 / cutree / zone-count=0 / no-strict-cbr / qg-size=32 / no-rc-grain / qpmax=69 / qpmin=0 / no-const-vbv / sar=1 / overscan=0 / videoformat=5 / range=0 / colorprim=1 / transfer=1 / colormatrix=1 / chromaloc=0 / display-window=0 / max-cll=0,0 / min-luma=0 / max-luma=1023 / log2-max-poc-lsb=8 / vui-timing-info / vui-hrd-info / slices=1 / no-opt-qp-pps / no-opt-ref-list-length-pps / no-multi-pass-opt-rps / scenecut-bias=0.05 / no-opt-cu-delta-qp / no-aq-motion / no-hdr / no-hdr-opt / no-dhdr10-opt / no-idr-recovery-sei / analysis-reuse-level=5 / scale-factor=0 / refine-intra=0 / refine-inter=0 / refine-mv=0 / no-limit-sao / ctu-info=0 / no-lowpass-dct / refine-mv-type=0 / copy-pic=1 / max-ausize-factor=1.0 / no-dynamic-refine / no-single-sei
Default : Да
Forced : Нет
Цветовой диапазон : Limited
Основные цвета : BT.709
Характеристики трансфера : BT.709
Коэффициенты матрицы : BT.709

Аудио #1
Идентификатор : 2
Формат : AC-3
Формат/Информация : Audio Coding 3
Коммерческое название : Dolby Digital
Идентификатор кодека : A_AC3
Продолжительность : 1 ч. 57 м.
Вид битрейта : Постоянный
Битрейт : 192 Кбит/сек
Каналы : 2 канала
Channel layout : L R
Частота : 48,0 КГц
Частота кадров : 31,250 кадров/сек (1536 SPF)
Битовая глубина : 16 бит
Метод сжатия : С потерями
Размер потока : 161 Мбайт (4%)
Заголовок : Дубляж
Язык : Russian
ServiceKind/String : Complete Main
Default : Да
Forced : Нет

Аудио #2
Идентификатор : 3
Формат : AC-3
Формат/Информация : Audio Coding 3
Коммерческое название : Dolby Digital
Идентификатор кодека : A_AC3
Продолжительность : 1 ч. 56 м.
Вид битрейта : Постоянный
Битрейт : 192 Кбит/сек
Каналы : 2 канала
Channel layout : L R
Частота : 48,0 КГц
Частота кадров : 31,250 кадров/сек (1536 SPF)
Битовая глубина : 16 бит
Метод сжатия : С потерями
Размер потока : 161 Мбайт (4%)
Заголовок : Многоголосый (Нота для тк Россия)
Язык : Russian
ServiceKind/String : Complete Main
Default : Нет
Forced : Нет

Меню
00:00:00.000 : :1 глава
00:10:00.000 : :2 глава
00:20:00.000 : :3 глава
00:30:00.000 : :4 глава
00:40:00.000 : :5 глава
00:50:00.000 : :6 глава
01:00:00.000 : :7 глава
01:10:00.000 : :8 глава
01:20:00.000 : :9 глава
01:30:00.000 : :10 глава
01:40:00.000 : :11 глава
01:50:00.000 : :12 глава
Сэмпл
Cкриншот1 Внезапный удар / Sudden Impact (1983) BDRip 1080p [HEVC] 10 bit от joker63
Загружается...
Cкриншот2 Внезапный удар / Sudden Impact (1983) BDRip 1080p [HEVC] 10 bit от joker63
Загружается...
Cкриншот3 Внезапный удар / Sudden Impact (1983) BDRip 1080p [HEVC] 10 bit от joker63
Загружается...
Cкриншот4 Внезапный удар / Sudden Impact (1983) BDRip 1080p [HEVC] 10 bit от joker63
Загружается...
Ссылки для скачивания доступны только зарегистрированным/авторизованным пользователям!

10.10.2018  23:32:48
0
48
0
0
4.42 ГБ

Добавление нового комментария

Добавление комментариев доступно только зарегистрированным/авторизованным пользователям.