Обложка Оно / It (2017) BDRip 1080p [HEVC] 10 bit от HANNIBALОбложка Rammstein - Paris (2017) BDRip 1080p [HEVC] 8 bit от CthulhuОбложка Корпорация монстров / Monsters, Inc. (2001) BDRip 1080p [HEVC] 10 bit от МичманОбложка Храбрая сердцем / Brave (2012) BDRip 1080p [HEVC] 10 bit от МичманОбложка Эквилибриум / Equilibrium (2002) [Open Matte] BDRip 1080p [HEVC] 10 bit от HANNIBALОбложка Другой мир: Антология / Underworld: Anthology (2003-2016) BDRip 1080р [HEVC] 10 bit от CthulhuОбложка Университет монстров / Monsters University (2013) BDRip 1080p [HEVC] 10 bit от МичманОбложка Троя / Troy (2004) BDRip 1080p [HEVC] 10 bit от chema1982Обложка Хакеры / Hackers (1995) [Remastered] BDRip 1080p [HEVC] 10 bit от CthulhuОбложка Перл-Харбор / Pearl Harbor (2001) BDRip 1080p [HEVC] 10 bit от HANNIBAL

Авторизация

Смена пароля

captcha

Регистрация

captcha

Поиск

Человек-муравей и Оса / Ant-Man and the Wasp (2018) BDRip 1080p [HEVC] 10 bit от M@kSIMus

HEVC
10 bit
Обложка Человек-муравей и Оса / Ant-Man and the Wasp (2018) BDRip 1080p [HEVC] 10 bit от M@kSIMus Год: 2018
Страна: США
Студия: Marvel Studios
Жанр: Фантастика, Боевик, Приключения
Продолжительность: 01:58:06

Режиссер: Пейтон Рид
В ролях: Пол Радд, Эванджелин Лилли, Майкл Дуглас, Майкл Пенья, Уолтон Гоггинс, Бобби Каннавейл, Джуди Грир, Ти Ай, Давид Дастмалчян, Ханна Джон-Кэймен, Эбби Райдер Фортсон

Описание: Скотт Лэнг, известный также как Человек-муравей, уже заслужил право оказаться в команде Мстителей. Но желание быть ближе к дочери удерживает его в родном Сан-Франциско — до тех пор, пока доктор Хэнк Пим, создавший когда-то изменяющий размеры своего владельца чудо-костюм, не призывает Скотта присоединиться к новой опасной миссии. А помогать в противостоянии с коварным врагом Человеку-муравью будет новая напарница — Оса.


7.01643885
7.2
126332


Формат: MKV
Видео: 1920x804, 5344 Kbps
Аудио1: AC3, 6 ch, 384 Kbps - Русский, Дублированный (iTunes)
Аудио2: AC3, 6 ch, 448 Kbps - Английский, Оригинал
Субтитры: Русские (форсированные, полные), английские

Медиаинфо
Общее
Уникальный идентификатор : 143420110470415815492110271406933356749 (0x6BE5B562C2ED73CEF236338189B530CD)
Полное имя : E:\Фильмы\Вселенная MARVEL\20. Человек-муравей и Оса (2018) BDRip 1080p [HEVC] 10 bit.mkv
Формат : Matroska
Версия формата : Version 4
Размер файла : 5,10 Гбайт
Продолжительность : 1 ч. 58 м.
Общий поток : 6158 Кбит/сек
Название фильма : Rip_by_M@kSIMus
Дата кодирования : UTC 2018-10-07 23:24:14
Программа кодирования : mkvmerge v19.0.0 ('Brave Captain') 64-bit
Библиотека кодирования : libebml v1.3.5 + libmatroska v1.4.8
Обложка : Yes
Attachments : cover 4.jpg

Видео
Идентификатор : 1
Формат : HEVC
Формат/Информация : High Efficiency Video Coding
Профиль формата : Main 10@L4.1@High
Идентификатор кодека : V_MPEGH/ISO/HEVC
Продолжительность : 1 ч. 58 м.
Битрейт : 5344 Кбит/сек
Ширина : 1920 пикселей
Высота : 804 пикселя
Соотношение сторон : 2,40:1
Режим частоты кадров : Постоянный
Частота кадров : 23,976 (24000/1001) кадра/сек
Цветовое пространство : YUV
Субдискретизация насыщенности : 4:2:0
Битовая глубина : 10 бит
Бит/(Пиксели*Кадры) : 0.144
Размер потока : 4,41 Гбайт (86%)
Библиотека кодирования : x265 2.8+19-bcdc610cf5f0:[Windows][GCC 7.3.0][64 bit] 10bit
Настройки программы : cpuid=1049583 / frame-threads=5 / numa-pools=4 / wpp / no-pmode / no-pme / no-psnr / no-ssim / log-level=3 / input-csp=1 / input-res=1920x804 / interlace=0 / total-frames=0 / level-idc=41 / high-tier=1 / uhd-bd=0 / ref=5 / allow-non-conformance / no-repeat-headers / annexb / no-aud / no-hrd / info / hash=0 / no-temporal-layers / open-gop / min-keyint=24 / keyint=240 / gop-lookahead=0 / bframes=8 / b-adapt=2 / b-pyramid / bframe-bias=0 / rc-lookahead=40 / lookahead-slices=5 / scenecut=40 / radl=0 / no-intra-refresh / ctu=64 / min-cu-size=8 / no-rect / no-amp / max-tu-size=32 / tu-inter-depth=1 / tu-intra-depth=1 / limit-tu=0 / rdoq-level=0 / dynamic-rd=0.00 / no-ssim-rd / signhide / no-tskip / nr-intra=0 / nr-inter=0 / no-constrained-intra / strong-intra-smoothing / max-merge=2 / limit-refs=3 / no-limit-modes / me=3 / subme=7 / merange=57 / temporal-mvp / weightp / no-weightb / no-analyze-src-pics / deblock=-3:-3 / no-sao / no-sao-non-deblock / rd=3 / no-early-skip / rskip / no-fast-intra / no-tskip-fast / no-cu-lossless / no-b-intra / no-splitrd-skip / rdpenalty=0 / psy-rd=2.00 / psy-rdoq=0.00 / no-rd-refine / no-lossless / cbqpoffs=0 / crqpoffs=0 / rc=crf / crf=16.0 / qcomp=0.75 / qpstep=4 / stats-write=0 / stats-read=0 / vbv-maxrate=50000 / vbv-bufsize=50000 / vbv-init=0.9 / crf-max=0.0 / crf-min=0.0 / ipratio=1.40 / pbratio=1.30 / aq-mode=1 / aq-strength=1.00 / cutree / zone-count=0 / no-strict-cbr / qg-size=32 / no-rc-grain / qpmax=69 / qpmin=0 / no-const-vbv / sar=1 / overscan=0 / videoformat=5 / range=0 / colorprim=1 / transfer=1 / colormatrix=1 / chromaloc=0 / display-window=0 / max-cll=0,0 / min-luma=0 / max-luma=1023 / log2-max-poc-lsb=8 / vui-timing-info / vui-hrd-info / slices=1 / no-opt-qp-pps / no-opt-ref-list-length-pps / no-multi-pass-opt-rps / scenecut-bias=0.05 / no-opt-cu-delta-qp / no-aq-motion / no-hdr / no-hdr-opt / no-dhdr10-opt / no-idr-recovery-sei / analysis-reuse-level=5 / scale-factor=0 / refine-intra=0 / refine-inter=0 / refine-mv=0 / no-limit-sao / ctu-info=0 / no-lowpass-dct / refine-mv-type=0 / copy-pic=1 / max-ausize-factor=1.0 / no-dynamic-refine / no-single-sei
Язык : English
Default : Да
Forced : Нет
Цветовой диапазон : Limited
Основные цвета : BT.709
Характеристики трансфера : BT.709
Коэффициенты матрицы : BT.709

Аудио #1
Идентификатор : 2
Формат : AC-3
Формат/Информация : Audio Coding 3
Коммерческое название : Dolby Digital
Идентификатор кодека : A_AC3
Продолжительность : 1 ч. 58 м.
Вид битрейта : Постоянный
Битрейт : 384 Кбит/сек
Каналы : 6 каналов
Channel layout : L R C LFE Ls Rs
Частота : 48,0 КГц
Частота кадров : 31,250 кадров/сек (1536 SPF)
Битовая глубина : 16 бит
Метод сжатия : С потерями
Размер потока : 326 Мбайт (6%)
Заголовок : iTunes
Язык : Russian
ServiceKind/String : Complete Main
Default : Да
Forced : Нет

Аудио #2
Идентификатор : 3
Формат : AC-3
Формат/Информация : Audio Coding 3
Коммерческое название : Dolby Digital
Идентификатор кодека : A_AC3
Продолжительность : 1 ч. 58 м.
Вид битрейта : Постоянный
Битрейт : 448 Кбит/сек
Каналы : 6 каналов
Channel layout : L R C LFE Ls Rs
Частота : 48,0 КГц
Частота кадров : 31,250 кадров/сек (1536 SPF)
Битовая глубина : 16 бит
Метод сжатия : С потерями
Размер потока : 378 Мбайт (7%)
Заголовок : Оригинал
Язык : English
ServiceKind/String : Complete Main
Default : Нет
Forced : Нет

Текст #1
Идентификатор : 4
Формат : UTF-8
Идентификатор кодека : S_TEXT/UTF8
Идентификатор кодека/Информация : UTF-8 Plain Text
Продолжительность : 1 ч. 54 м.
Битрейт : 0 бит/сек
ElementCount : 6
Размер потока : 337 байт (0%)
Заголовок : Forced
Язык : Russian
Default : Да
Forced : Нет

Текст #2
Идентификатор : 5
Формат : UTF-8
Идентификатор кодека : S_TEXT/UTF8
Идентификатор кодека/Информация : UTF-8 Plain Text
Продолжительность : 1 ч. 57 м.
Битрейт : 103 бит/сек
ElementCount : 2152
Размер потока : 89,7 Кбайт (0%)
Заголовок : Full
Язык : Russian
Default : Нет
Forced : Нет

Меню
00:00:00.000 : :00:00:00.000
00:04:03.034 : :00:04:03.034
00:10:16.407 : :00:10:16.407
00:13:39.861 : :00:13:39.861
00:21:25.451 : :00:21:25.451
00:29:07.829 : :00:29:07.829
00:36:09.084 : :00:36:09.084
00:40:56.579 : :00:40:56.579
00:50:17.431 : :00:50:17.431
00:58:59.077 : :00:58:59.077
01:04:56.434 : :01:04:56.434
01:12:54.287 : :01:12:54.287
01:18:32.124 : :01:18:32.124
01:24:44.913 : :01:24:44.913
01:29:47.340 : :01:29:47.340
01:36:16.270 : :01:36:16.270
01:43:35.334 : :01:43:35.334
01:46:59.830 : :01:46:59.830
Cкриншот1 Человек-муравей и Оса / Ant-Man and the Wasp (2018) BDRip 1080p [HEVC] 10 bit от M@kSIMus
Загружается...
Cкриншот2 Человек-муравей и Оса / Ant-Man and the Wasp (2018) BDRip 1080p [HEVC] 10 bit от M@kSIMus
Загружается...
Cкриншот3 Человек-муравей и Оса / Ant-Man and the Wasp (2018) BDRip 1080p [HEVC] 10 bit от M@kSIMus
Загружается...
Cкриншот4 Человек-муравей и Оса / Ant-Man and the Wasp (2018) BDRip 1080p [HEVC] 10 bit от M@kSIMus
Загружается...
Сэмпл

Ссылки для скачивания доступны только зарегистрированным/авторизованным пользователям!

08.10.2018
0
250
4
0
5.1 ГБ

Добавление нового комментария

Добавление комментариев доступно только зарегистрированным/авторизованным пользователям.