Обложка Оно / It (2017) BDRip 1080p [HEVC] 10 bit от HANNIBALОбложка Отступники / The Departed (2006) [FR Transfer] BDRip 1080p [HEVC] 10 bit от CthulhuОбложка Робин Гуд / Robin Hood (2010) [Director's Cut] BDRip 1080p [HEVC] 10 bit от CthulhuОбложка Rammstein - Paris (2017) BDRip 1080p [HEVC] 8 bit от CthulhuОбложка Красная жара / Red Heat (1988) BDRip 1080p [HEVC] 10 bit от OldGamerОбложка Веном / Venom (2018) BDRip 1080p [HEVC] 10 bit от M@kSIMusОбложка Эквилибриум / Equilibrium (2002) [Open Matte] BDRip 1080p [HEVC] 10 bit от HANNIBALОбложка Исходный код / Source Code (2011) BDRip 1080p [HEVC] 10 bit от OldGamerОбложка Знакомство с родителями / Meet the Parents (2000) BDRip 1080p [HEVC] 10 bit от M@kSIMusОбложка Доктор Голливуд / Doc Hollywood (1991) BDRip 1080p [HEVC] 10 bit от OldGamer

Авторизация

Смена пароля

captcha

Регистрация

captcha

🔍 Поиск

Бэтмен: Начало / Batman Begins (2005) BDRip 1080p [HEVC] 10 bit от M@kSIMus

HEVC
10 bit
Обложка Бэтмен: Начало / Batman Begins (2005) BDRip 1080p [HEVC] 10 bit от M@kSIMus Год: 2005
Страна: США, Великобритания
Студия: DC Comics, Legendary Pictures, Patalex Productions
Жанр: Боевик, Приключения, Фантастика, Драма
Продолжительность: 02:20:03

Режиссер: Кристофер Нолан
В ролях: Кристиан Бэйл, Майкл Кейн, Лиам Нисон, Кэти Холмс, Гэри Олдман, Киллиан Мёрфи, Морган Фримен, Том Уилкинсон, Рутгер Хауэр, Кен Ватанабе, Марк Бун Джуниор

Описание: В детстве юный наследник огромного состояния Брюс Уэйн оказался свидетелем убийства своих родителей, и тогда он решил бороться с преступностью. Спустя годы он отправляется в путешествие по миру, чтобы найти способ восстановить справедливость. Обучение у мудрого наставника боевым искусствам дает ему силу и смелость. Вернувшись в родной город, Уэйн становится Бэтменом и ведет борьбу со злом.


7.906183824
8.3
1117718


Формат: MKV
Видео: 1920x800, 5348 Kbps
Аудио1: AC3, 6 ch, 640 Kbps - Русский, Дублированный (Лицензия)
Аудио2: AC3, 6 ch, 448 Kbps - Английский, Оригинал
Субтитры: Русские (полные)

Медиаинфо
Общее
Уникальный идентификатор : 160768731357355299519460473887788159813 (0x78F2EE6F325E4E17EC45313D9990D345)
Полное имя : E:\Фильмы\Batman\Бэтмен - Начало (2005) BDRip 1080p [HEVC] 10 bit.mkv
Формат : Matroska
Версия формата : Version 4
Размер файла : 6,30 Гбайт
Продолжительность : 2 ч. 20 м.
Общий поток : 6438 Кбит/сек
Название фильма : Rip_by_M@kSIMus
Дата кодирования : UTC 2018-10-04 01:49:53
Программа кодирования : mkvmerge v19.0.0 ('Brave Captain') 64-bit
Библиотека кодирования : libebml v1.3.5 + libmatroska v1.4.8
Обложка : Yes
Attachments : cover.jpg

Видео
Идентификатор : 1
Формат : HEVC
Формат/Информация : High Efficiency Video Coding
Профиль формата : Main 10@L4.1@High
Идентификатор кодека : V_MPEGH/ISO/HEVC
Продолжительность : 2 ч. 20 м.
Битрейт : 5348 Кбит/сек
Ширина : 1920 пикселей
Высота : 800 пикселей
Соотношение сторон : 2,40:1
Режим частоты кадров : Постоянный
Частота кадров : 23,976 (24000/1001) кадра/сек
Цветовое пространство : YUV
Субдискретизация насыщенности : 4:2:0
Битовая глубина : 10 бит
Бит/(Пиксели*Кадры) : 0.145
Размер потока : 5,23 Гбайт (83%)
Библиотека кодирования : x265 2.8+19-bcdc610cf5f0:[Windows][GCC 7.3.0][64 bit] 10bit
Настройки программы : cpuid=1049583 / frame-threads=5 / numa-pools=4 / wpp / no-pmode / no-pme / no-psnr / no-ssim / log-level=3 / input-csp=1 / input-res=1920x800 / interlace=0 / total-frames=0 / level-idc=41 / high-tier=1 / uhd-bd=0 / ref=5 / allow-non-conformance / no-repeat-headers / annexb / no-aud / no-hrd / info / hash=0 / no-temporal-layers / open-gop / min-keyint=24 / keyint=240 / gop-lookahead=0 / bframes=8 / b-adapt=2 / b-pyramid / bframe-bias=0 / rc-lookahead=40 / lookahead-slices=5 / scenecut=40 / radl=0 / no-intra-refresh / ctu=64 / min-cu-size=8 / no-rect / no-amp / max-tu-size=32 / tu-inter-depth=1 / tu-intra-depth=1 / limit-tu=0 / rdoq-level=0 / dynamic-rd=0.00 / no-ssim-rd / signhide / no-tskip / nr-intra=0 / nr-inter=0 / no-constrained-intra / strong-intra-smoothing / max-merge=2 / limit-refs=3 / no-limit-modes / me=3 / subme=7 / merange=57 / temporal-mvp / weightp / no-weightb / no-analyze-src-pics / deblock=-3:-3 / no-sao / no-sao-non-deblock / rd=3 / no-early-skip / rskip / no-fast-intra / no-tskip-fast / no-cu-lossless / no-b-intra / no-splitrd-skip / rdpenalty=0 / psy-rd=2.00 / psy-rdoq=0.00 / no-rd-refine / no-lossless / cbqpoffs=0 / crqpoffs=0 / rc=crf / crf=18.0 / qcomp=0.75 / qpstep=4 / stats-write=0 / stats-read=0 / vbv-maxrate=50000 / vbv-bufsize=50000 / vbv-init=0.9 / crf-max=0.0 / crf-min=0.0 / ipratio=1.40 / pbratio=1.30 / aq-mode=1 / aq-strength=1.00 / cutree / zone-count=0 / no-strict-cbr / qg-size=32 / no-rc-grain / qpmax=69 / qpmin=0 / no-const-vbv / sar=1 / overscan=0 / videoformat=5 / range=0 / colorprim=1 / transfer=1 / colormatrix=1 / chromaloc=0 / display-window=0 / max-cll=0,0 / min-luma=0 / max-luma=1023 / log2-max-poc-lsb=8 / vui-timing-info / vui-hrd-info / slices=1 / no-opt-qp-pps / no-opt-ref-list-length-pps / no-multi-pass-opt-rps / scenecut-bias=0.05 / no-opt-cu-delta-qp / no-aq-motion / no-hdr / no-hdr-opt / no-dhdr10-opt / no-idr-recovery-sei / analysis-reuse-level=5 / scale-factor=0 / refine-intra=0 / refine-inter=0 / refine-mv=0 / no-limit-sao / ctu-info=0 / no-lowpass-dct / refine-mv-type=0 / copy-pic=1 / max-ausize-factor=1.0 / no-dynamic-refine / no-single-sei
Язык : English
Default : Да
Forced : Нет
Цветовой диапазон : Limited
Основные цвета : BT.709
Характеристики трансфера : BT.709
Коэффициенты матрицы : BT.709

Аудио #1
Идентификатор : 2
Формат : AC-3
Формат/Информация : Audio Coding 3
Коммерческое название : Dolby Digital
Идентификатор кодека : A_AC3
Продолжительность : 2 ч. 20 м.
Вид битрейта : Постоянный
Битрейт : 640 Кбит/сек
Каналы : 6 каналов
Channel layout : L R C LFE Ls Rs
Частота : 48,0 КГц
Частота кадров : 31,250 кадров/сек (1536 SPF)
Битовая глубина : 16 бит
Метод сжатия : С потерями
Размер потока : 641 Мбайт (10%)
Заголовок : Дубляж
Язык : Russian
ServiceKind/String : Complete Main
Default : Да
Forced : Нет

Аудио #2
Идентификатор : 3
Формат : AC-3
Формат/Информация : Audio Coding 3
Коммерческое название : Dolby Digital
Идентификатор кодека : A_AC3
Продолжительность : 2 ч. 20 м.
Вид битрейта : Постоянный
Битрейт : 448 Кбит/сек
Каналы : 6 каналов
Channel layout : L R C LFE Ls Rs
Частота : 48,0 КГц
Частота кадров : 31,250 кадров/сек (1536 SPF)
Битовая глубина : 16 бит
Метод сжатия : С потерями
Размер потока : 449 Мбайт (7%)
Заголовок : Оригинал
Язык : English
ServiceKind/String : Complete Main
Default : Нет
Forced : Нет

Текст
Идентификатор : 4
Формат : UTF-8
Идентификатор кодека : S_TEXT/UTF8
Идентификатор кодека/Информация : UTF-8 Plain Text
Продолжительность : 2 ч. 19 м.
Битрейт : 69 бит/сек
ElementCount : 1397
Размер потока : 71,3 Кбайт (0%)
Заголовок : Full
Язык : Russian
Default : Нет
Forced : Нет

Меню
00:00:00.000 : :Chapter 01
00:03:39.219 : :Chapter 03
00:07:31.117 : :Chapter 06
00:11:34.026 : :Chapter 08
00:16:15.641 : :Chapter 11
00:19:44.349 : :Chapter 13
00:24:19.291 : :Chapter 15
00:28:24.703 : :Chapter 17
00:31:25.383 : :Chapter 19
00:35:53.818 : :Chapter 22
00:38:24.635 : :Chapter 24
00:41:14.638 : :Chapter 25
00:43:08.252 : :Chapter 27
00:46:57.981 : :Chapter 29
00:49:43.981 : :Chapter 31
00:53:26.203 : :Chapter 34
00:55:55.018 : :Chapter 37
00:58:02.145 : :Chapter 39
01:03:31.808 : :Chapter 41
01:05:53.115 : :Chapter 43
01:08:38.781 : :Chapter 45
01:11:25.781 : :Chapter 46
01:13:19.561 : :Chapter 48
01:16:16.238 : :Chapter 50
01:19:50.285 : :Chapter 52
01:23:54.362 : :Chapter 54
01:29:02.670 : :Chapter 56
01:32:36.717 : :Chapter 58
01:37:49.029 : :Chapter 60
01:40:33.694 : :Chapter 62
01:45:08.969 : :Chapter 64
01:49:32.065 : :Chapter 66
01:51:29.182 : :Chapter 67
01:54:49.048 : :Chapter 69
01:58:11.084 : :Chapter 71
02:01:54.974 : :Chapter 73
02:05:01.160 : :Chapter 74
02:06:06.892 : :Chapter 76
02:09:18.417 : :Chapter 77
02:10:57.015 : :Chapter 79
02:20:02.769 : :Chapter 80
Сэмпл
Cкриншот1 Бэтмен: Начало / Batman Begins (2005) BDRip 1080p [HEVC] 10 bit от M@kSIMus
Загружается...
Cкриншот2 Бэтмен: Начало / Batman Begins (2005) BDRip 1080p [HEVC] 10 bit от M@kSIMus
Загружается...
Cкриншот3 Бэтмен: Начало / Batman Begins (2005) BDRip 1080p [HEVC] 10 bit от M@kSIMus
Загружается...
Cкриншот4 Бэтмен: Начало / Batman Begins (2005) BDRip 1080p [HEVC] 10 bit от M@kSIMus
Загружается...
Ссылки для скачивания доступны только зарегистрированным/авторизованным пользователям!

04.10.2018  17:29:11
9
272
1
0
6.3 ГБ

Добавление нового комментария

Добавление комментариев доступно только зарегистрированным/авторизованным пользователям.
Аватар Vvulpes
  Vvulpes  18.10.2018  22:16:29
Студень писал(а):
Спасибо за мыло. Для мобилки самое-то
я и говорю - надо ремастер. там картинка чёткая
Аватар Студень
  Студень  06.10.2018  13:51:38
Спасибо за мыло. Для мобилки самое-то
Аватар Vvulpes
  Vvulpes  05.10.2018  14:40:54
PRO-USTAS писал(а):
А по скриншотам не видно?
А нормально ответить слабо? Может я с телефона смотрел? По скриншотам я делаю вывод, что это НЕ ремастер. Можете тогда СДЕЛАТЬ рип с ремастера?
Аватар PRO-USTAS
  PRO-USTAS  05.10.2018  05:02:41
Vvulpes писал(а):
Это ремастер или обычная версия?
А по скриншотам не видно?
Аватар Vvulpes
  Vvulpes  05.10.2018  03:47:40
Это ремастер или обычная версия?
Аватар Spays2017
  Spays2017  04.10.2018  21:14:26
спасибо огромное, жду остальные части с большим нетерпением....
Аватар PRO-USTAS
  PRO-USTAS  04.10.2018  18:52:06
Максимус спасибо за качество.
Аватар torrentzulu
  torrentzulu  04.10.2018  17:52:49
Огромное спасибо, M@kSIMus!
Аватар Priest2017
  Priest2017  04.10.2018  17:42:29
Спасибо Максу супер рип))