Обложка Аквамен / Aquaman (2018) [IMAX] BDRip 1080p [HEVC] 10 bit от Mr. FoxОбложка Человек-паук: Через вселенные / Spider-Man: Into the Spider-Verse (2018) [Локализованная версия] BDRip 1080p [HEVC] 10 bit от M@kSIMusОбложка Богемская рапсодия / Bohemian Rhapsody (2018) BDRip 1080p [HEVC] 10 bit от M@kSIMusОбложка Крутые меры / Bastille Day (2016) BDRip 1080p [HEVC] 10 bit от OldGamerОбложка Клаустрофобы / Escape Room (2019) BDRip 1080p [HEVC] 10 bit от M@kSIMusОбложка Оно / It (2017) BDRip 1080p [HEVC] 10 bit от HANNIBALОбложка Человек на Луне / First Man (2018) [IMAX Edition] BDRip 1080p [HEVC] 10 bit от M@kSIMusОбложка Царство небесное / Kingdom of Heaven (2005) [Director's Cut] BDRip 1080p [HEVC] 10 bit от CthulhuОбложка Ральф против интернета / Ralph Breaks the Internet (2018) BDRip 1080p [HEVC] 10 bit от M@kSIMusОбложка Мир Дикого Запада / Westworld (2018) [2 сезон] BDRip 1080p [HEVC] 10 bit от OldGamer

Авторизация

Смена пароля

captcha

Регистрация

captcha

Мини-чат

(16:16) Kaban: Сообщение удалено (OldGamer)
(16:17) ADVOKAT69: Сообщение удалено (OldGamer)
(16:17) ADVOKAT69: Сообщение удалено (OldGamer)
(16:18) Kaban: Сообщение удалено (OldGamer)
(16:19) Kaban: Сообщение удалено (OldGamer)
(16:21) OldGamer: Пользователь ADVOKAT69 забанен до 22.06.2019 16:21 (мск)
(16:21) OldGamer: Пользователь Kaban забанен до 22.06.2019 16:21 (мск)
(17:53) DSIO: Да уж, сначала Макс, теперь Кабан, почему лучшие уходят первыми?
(18:46) PRO-USTAS: потому что я говорю тут чат не нужен что бы тут сорится чей тут рип луче или хуже
(18:48) PRO-USTAS: просто могли бы сделать так что бы делали фильм но не сорились в чатах чат удалить а зритель найдет то что ему подуше
(18:51) Студень: походу я пропустил что-то интересное
(18:52) PRO-USTAS: тут сорились ADVOKAT69 и Kaban
(18:59) PRO-USTAS: мой вам совет удалите чат что бы больше не сорились между собой кто чей рип луче
(20:10) AlexTwitt: И будут ссориться в комментариях😀
(22:05) Атения: Что бы такое взять? :)
(22:09) Атения: Зря, кстати, не делаете 720p.
(23:30) ko1ob: Атения, мне кажется это логичным. Мой старый комп не тянул даже 264 1080р, не говоря уже про HEVC, поэтому я качал только 720р. А теперь, когда комп тянет 265, то и 1080р уже не проблема. При том, что размер рипов х264-720р и х265-1080р часто сопостовим. смысла в х265-720р практически нет (как мне кажется). Но не боги горшки обжигают. Кодируйте во что вам нужно и выкладывайте для общего пользования. Получите свои плюсы в карму :)
(23:48) Атения: ko1ob, мне не дают здесь выкладывать!
(00:03) Студень: Атения, и слава богу, что не дают
(00:50) Gampeldor: Ооу май, да у вас тут жара. Даже интересно, че такое говорит максимка, что его навечно грохают.
  • alexyak
  • Papawalun
Онлайн: 2
Отправка сообщений доступно только зарегистрированным/авторизованным пользователям.

🔍 Поиск

Мир Юрского периода / Jurassic World (2015) BDRip 1080p [HEVC] 10 bit от M@kSIMus

HEVC
10 bit
Обложка Мир Юрского периода / Jurassic World (2015) BDRip 1080p [HEVC] 10 bit от M@kSIMus Год: 2015
Страна: США
Студия: Amblin Entertainment
Жанр: Фантастика, Приключения, Боевик
Продолжительность: 02:04:23

Режиссер: Колин Треворроу
В ролях: Крис Пратт, Брайс Даллас Ховард, Ник Дж. Робинсон, Тай Симпкинс, Винсент Д’Онофрио, Ирфан Кхан, Омар Си, Б.Д. Вонг, Джейк Джонсон, Джуди Грир

Описание: Тысячи людей спешат увидеть Мир Юрского периода, но безопасное на первый взгляд развлечение может обернуться угрозой для жизни.


6.855119524
7
540014


Формат: MKV
Видео: 1920x960, 7987 Kbps
Аудио1: AC3, 6 ch, 640 Kbps -
Дублированный (Лицензия)

Аудио2: AC3, 6 ch, 448 Kbps -
Оригинал

Субтитры: Русские (форсированные, полные)

Как за пару секунд удалить ненужные аудиодорожки и субтитры (Внимание! После удаления вы не сможете поддержать раздачу)

Медиаинфо
Общее
Уникальный идентификатор : 51652534136940322352688054211306578291 (0x26DBEA8D612E77F004BDACC0FDE3E173)
Полное имя : E:\Фильмы\Мир Юрского периода (2018) BDRip 1080p [HEVC] 10 bit Rip_by_M@kSIMus.mkv
Формат : Matroska
Версия формата : Version 4
Размер файла : 7,88 Гбайт
Продолжительность : 2 ч. 4 м.
Общий поток : 9077 Кбит/сек
Название фильма : Rip_by_M@kSIMus
Дата кодирования : UTC 2018-09-15 00:11:23
Программа кодирования : mkvmerge v19.0.0 ('Brave Captain') 64-bit
Библиотека кодирования : libebml v1.3.5 + libmatroska v1.4.8
Обложка : Yes
Attachments : cover.jpg

Видео
Идентификатор : 1
Формат : HEVC
Формат/Информация : High Efficiency Video Coding
Профиль формата : Main 10@L5.1@High
Идентификатор кодека : V_MPEGH/ISO/HEVC
Продолжительность : 2 ч. 4 м.
Битрейт : 7987 Кбит/сек
Ширина : 1920 пикселей
Высота : 960 пикселей
Соотношение сторон : 2,000
Режим частоты кадров : Постоянный
Частота кадров : 23,976 (24000/1001) кадра/сек
Цветовое пространство : YUV
Субдискретизация насыщенности : 4:2:0
Битовая глубина : 10 бит
Бит/(Пиксели*Кадры) : 0.181
Размер потока : 6,94 Гбайт (88%)
Библиотека кодирования : x265 2.8+19-bcdc610cf5f0:[Windows][GCC 7.3.0][64 bit] 10bit
Настройки программы : cpuid=1049583 / frame-threads=5 / numa-pools=4 / wpp / no-pmode / no-pme / no-psnr / no-ssim / log-level=3 / input-csp=1 / input-res=1920x960 / interlace=0 / total-frames=0 / level-idc=51 / high-tier=1 / uhd-bd=0 / ref=5 / allow-non-conformance / no-repeat-headers / annexb / no-aud / no-hrd / info / hash=0 / no-temporal-layers / open-gop / min-keyint=24 / keyint=240 / gop-lookahead=0 / bframes=8 / b-adapt=2 / b-pyramid / bframe-bias=0 / rc-lookahead=40 / lookahead-slices=6 / scenecut=40 / radl=0 / no-intra-refresh / ctu=64 / min-cu-size=8 / no-rect / no-amp / max-tu-size=32 / tu-inter-depth=1 / tu-intra-depth=1 / limit-tu=0 / rdoq-level=0 / dynamic-rd=0.00 / no-ssim-rd / signhide / no-tskip / nr-intra=0 / nr-inter=0 / no-constrained-intra / strong-intra-smoothing / max-merge=2 / limit-refs=3 / no-limit-modes / me=3 / subme=7 / merange=57 / temporal-mvp / weightp / no-weightb / no-analyze-src-pics / deblock=-3:-3 / no-sao / no-sao-non-deblock / rd=3 / no-early-skip / rskip / no-fast-intra / no-tskip-fast / no-cu-lossless / no-b-intra / no-splitrd-skip / rdpenalty=0 / psy-rd=2.00 / psy-rdoq=0.00 / no-rd-refine / no-lossless / cbqpoffs=0 / crqpoffs=0 / rc=crf / crf=21.0 / qcomp=0.75 / qpstep=4 / stats-write=0 / stats-read=0 / vbv-maxrate=160000 / vbv-bufsize=160000 / vbv-init=0.9 / crf-max=0.0 / crf-min=0.0 / ipratio=1.40 / pbratio=1.30 / aq-mode=1 / aq-strength=1.00 / cutree / zone-count=0 / no-strict-cbr / qg-size=32 / no-rc-grain / qpmax=69 / qpmin=0 / no-const-vbv / sar=1 / overscan=0 / videoformat=5 / range=0 / colorprim=1 / transfer=1 / colormatrix=1 / chromaloc=0 / display-window=0 / max-cll=0,0 / min-luma=0 / max-luma=1023 / log2-max-poc-lsb=8 / vui-timing-info / vui-hrd-info / slices=1 / no-opt-qp-pps / no-opt-ref-list-length-pps / no-multi-pass-opt-rps / scenecut-bias=0.05 / no-opt-cu-delta-qp / no-aq-motion / no-hdr / no-hdr-opt / no-dhdr10-opt / no-idr-recovery-sei / analysis-reuse-level=5 / scale-factor=0 / refine-intra=0 / refine-inter=0 / refine-mv=0 / no-limit-sao / ctu-info=0 / no-lowpass-dct / refine-mv-type=0 / copy-pic=1 / max-ausize-factor=1.0 / no-dynamic-refine / no-single-sei
Язык : English
Default : Да
Forced : Нет
Цветовой диапазон : Limited
Основные цвета : BT.709
Характеристики трансфера : BT.709
Коэффициенты матрицы : BT.709

Аудио #1
Идентификатор : 2
Формат : AC-3
Формат/Информация : Audio Coding 3
Коммерческое название : Dolby Digital
Идентификатор кодека : A_AC3
Продолжительность : 2 ч. 4 м.
Вид битрейта : Постоянный
Битрейт : 640 Кбит/сек
Каналы : 6 каналов
Channel layout : L R C LFE Ls Rs
Частота : 48,0 КГц
Частота кадров : 31,250 кадров/сек (1536 SPF)
Битовая глубина : 16 бит
Метод сжатия : С потерями
Размер потока : 569 Мбайт (7%)
Заголовок : Дубляж
Язык : Russian
ServiceKind/String : Complete Main
Default : Да
Forced : Нет

Аудио #2
Идентификатор : 3
Формат : AC-3
Формат/Информация : Audio Coding 3
Коммерческое название : Dolby Digital
Идентификатор кодека : A_AC3
Продолжительность : 2 ч. 4 м.
Вид битрейта : Постоянный
Битрейт : 448 Кбит/сек
Каналы : 6 каналов
Channel layout : L R C LFE Ls Rs
Частота : 48,0 КГц
Частота кадров : 31,250 кадров/сек (1536 SPF)
Битовая глубина : 16 бит
Метод сжатия : С потерями
Размер потока : 398 Мбайт (5%)
Заголовок : Оригинал
Язык : English
ServiceKind/String : Complete Main
Default : Нет
Forced : Нет

Текст #1
Идентификатор : 4
Формат : UTF-8
Идентификатор кодека : S_TEXT/UTF8
Идентификатор кодека/Информация : UTF-8 Plain Text
Продолжительность : 2 ч. 0 м.
Битрейт : 0 бит/сек
ElementCount : 19
Размер потока : 628 байт (0%)
Заголовок : Forced
Язык : Russian
Default : Да
Forced : Нет

Текст #2
Идентификатор : 5
Формат : UTF-8
Идентификатор кодека : S_TEXT/UTF8
Идентификатор кодека/Информация : UTF-8 Plain Text
Продолжительность : 2 ч. 2 м.
Битрейт : 73 бит/сек
ElementCount : 1227
Размер потока : 65,9 Кбайт (0%)
Заголовок : Full
Язык : Russian
Default : Нет
Forced : Нет

Меню
00:00:00.000 : :Глава 1
00:06:59.168 : :Глава 2
00:11:01.826 : :Глава 3
00:18:28.440 : :Глава 4
00:25:34.865 : :Глава 5
00:31:20.836 : :Глава 6
00:39:23.860 : :Глава 7
00:44:07.853 : :Глава 8
00:48:57.224 : :Глава 9
00:55:51.056 : :Глава 10
01:01:21.344 : :Глава 11
01:09:50.560 : :Глава 12
01:15:25.479 : :Глава 13
01:23:51.859 : :Глава 14
01:30:14.698 : :Глава 15
01:36:45.423 : :Глава 16
01:41:15.652 : :Глава 17
01:47:35.282 : :Глава 18
01:53:06.029 : :Глава 19
01:55:37.555 : :Глава 20
02:04:20.869 : :Глава 21
Cкриншот1 Мир Юрского периода / Jurassic World (2015) BDRip 1080p [HEVC] 10 bit от M@kSIMus
Загружается...
Cкриншот2 Мир Юрского периода / Jurassic World (2015) BDRip 1080p [HEVC] 10 bit от M@kSIMus
Загружается...
Cкриншот3 Мир Юрского периода / Jurassic World (2015) BDRip 1080p [HEVC] 10 bit от M@kSIMus
Загружается...
Cкриншот4 Мир Юрского периода / Jurassic World (2015) BDRip 1080p [HEVC] 10 bit от M@kSIMus
Загружается...
СэмплТоррентМагнетКнопки для благодарностей доступны только зарегистрированным/авторизованным пользователям!

Поблагодарили: 6
alleon, Boogerman, cdmitry, D16T, EAGLEDOC, Kaban
21.09.2018  15:24:54
0
4773
10
0
7.88 ГБ

Добавление нового комментария

Добавление комментариев доступно только зарегистрированным/авторизованным пользователям.