Обложка Оно / It (2017) BDRip 1080p [HEVC] 10 bit от HANNIBALОбложка Миссия невыполнима: Последствия / Mission: Impossible - Fallout (2018) [IMAX Edition] BDRip 1080p [HEVC] 10 bit от HANNIBALОбложка Робин Гуд / Robin Hood (2010) [Director's Cut] BDRip 1080p [HEVC] 10 bit от CthulhuОбложка Rammstein - Paris (2017) BDRip 1080p [HEVC] 8 bit от CthulhuОбложка Эквилибриум / Equilibrium (2002) [Open Matte] BDRip 1080p [HEVC] 10 bit от HANNIBALОбложка Хакеры / Hackers (1995) [Remastered] BDRip 1080p [HEVC] 10 bit от CthulhuОбложка Отступники / The Departed (2006) [FR Transfer] BDRip 1080p [HEVC] 10 bit от CthulhuОбложка Кинематографическая вселенная Marvel / Marvel Cinematic Universe (2008-2018) BDRip 1080p [HEVC] 10 bit от M@kSIMusОбложка Другой мир: Антология / Underworld: Anthology (2003-2016) BDRip 1080р [HEVC] 10 bit от CthulhuОбложка Великий уравнитель 2 / The Equalizer 2 (2018) BDRip 1080p [HEVC] 10 bit от HANNIBAL

Авторизация

Смена пароля

captcha

Регистрация

captcha

Поиск

Чужие / Aliens (1986) [Special Edition] BDRip 1080p [HEVC] 10 bit от HANNIBAL

HEVC
10 bit
Обложка Чужие / Aliens (1986) [Special Edition] BDRip 1080p [HEVC] 10 bit от HANNIBAL Год: 1986
Страна: США, Великобритания
Жанр: Боевик, Фантастика, Ужасы
Продолжительность: 02:34:26

Режиссер: Джеймс Кэмерон
В ролях: Сигурни Уивер, Кэрри Хенн, Майкл Бьен, Лэнс Хенриксен, Пол Райзер, Билл Пэкстон, Уильям Хоуп, Дженетт Голдстин, Эл Мэтьюз, Марк Ролстон

Описание: Чужой - совершенный организм. Идеальная машина для убийства, чье физическое превосходство сочетается с его феноменальной жаждой уничтожения. Офицер Элен Рипли и команда космического корабля Ностромо один раз уже встретилась с такой тварью. В живых осталась только Элен. Капсула с Элен найдена спасателями после многих лет блуждания в космосе. Ей сообщают, что планета L.V. 426 колонизирована, и ей придется вернуться туда, где начался ее кошмар, ибо связь с колонистами прервалась. И вот в составе группы космического десанта Рипли отправляется на проклятую планету. Но теперь их там поджидает не один Чужой, а тысячи. Кто сможет выжить в этой войне: чудовища, способные только убивать, или люди, способные мыслить?


Формат: MKV
Видео: 1920x1036, 18.3 Mbps
Аудио1: AC3, 6 ch, 640 Kbps - Русский, Дублированный (Лицензия)
Аудио2: AC3, 6 ch, 640 Kbps - Английский, Оригинал
Субтитры: нет

Медиаинфо
General
Unique ID : 262504387079432643212190509996097225725 (0xC57C8186A7CE2D609770AB93D63943FD)
Complete name : E:\Alien [HEVC]\Aliens [Special Edition] (1986) BDRip 1080p [HEVC] 10bit.mkv
Format : Matroska
Format version : Version 4 / Version 2
File size : 21.1 GiB
Duration : 2 h 34 min
Overall bit rate : 19.5 Mb/s
Encoded date : UTC 2018-09-12 14:20:09
Writing application : mkvmerge v25.0.0 ('Prog Noir') 64-bit
Writing library : libebml v1.3.6 + libmatroska v1.4.9 / Lavf57.71.100
Cover : Yes
Attachments : cover.jpg
ENCODING_INFO : MPEGTS > MKV 1080p 10-bit / H264 > X265 CRF 20.0 Medium

Video
ID : 1
Format : HEVC
Format/Info : High Efficiency Video Coding
Format profile : Main 10@L5.1@High
Codec ID : V_MPEGH/ISO/HEVC
Duration : 2 h 34 min
Bit rate : 18.3 Mb/s
Width : 1 920 pixels
Height : 1 036 pixels
Display aspect ratio : 1.85:1
Frame rate mode : Constant
Frame rate : 23.976 (24000/1001) FPS
Color space : YUV
Chroma subsampling : 4:2:0
Bit depth : 10 bits
Bits/(Pixel*Frame) : 0.383
Stream size : 19.7 GiB (93%)
Writing library : x265 2.8+19-bcdc610cf5f0:[Windows][GCC 7.3.0][64 bit] 10bit
Encoding settings : cpuid=1111039 / frame-threads=13 / numa-pools=12 / wpp / no-pmode / no-pme / no-psnr / no-ssim / log-level=3 / input-csp=1 / input-res=1920x1036 / interlace=0 / total-frames=0 / level-idc=51 / high-tier=1 / uhd-bd=0 / ref=5 / allow-non-conformance / no-repeat-headers / annexb / no-aud / no-hrd / info / hash=0 / no-temporal-layers / open-gop / min-keyint=24 / keyint=240 / gop-lookahead=0 / bframes=8 / b-adapt=2 / b-pyramid / bframe-bias=0 / rc-lookahead=40 / lookahead-slices=6 / scenecut=40 / radl=0 / no-intra-refresh / ctu=64 / min-cu-size=8 / no-rect / no-amp / max-tu-size=32 / tu-inter-depth=1 / tu-intra-depth=1 / limit-tu=0 / rdoq-level=0 / dynamic-rd=0.00 / no-ssim-rd / signhide / no-tskip / nr-intra=0 / nr-inter=0 / no-constrained-intra / strong-intra-smoothing / max-merge=2 / limit-refs=3 / no-limit-modes / me=3 / subme=7 / merange=57 / temporal-mvp / weightp / no-weightb / no-analyze-src-pics / deblock=-3:-3 / no-sao / no-sao-non-deblock / rd=3 / no-early-skip / rskip / no-fast-intra / no-tskip-fast / no-cu-lossless / no-b-intra / no-splitrd-skip / rdpenalty=0 / psy-rd=2.00 / psy-rdoq=0.00 / no-rd-refine / no-lossless / cbqpoffs=0 / crqpoffs=0 / rc=crf / crf=20.0 / qcomp=0.70 / qpstep=4 / stats-write=0 / stats-read=0 / vbv-maxrate=160000 / vbv-bufsize=160000 / vbv-init=0.9 / crf-max=0.0 / crf-min=0.0 / ipratio=1.40 / pbratio=1.30 / aq-mode=1 / aq-strength=1.00 / cutree / zone-count=0 / no-strict-cbr / qg-size=32 / no-rc-grain / qpmax=69 / qpmin=0 / no-const-vbv / sar=1 / overscan=0 / videoformat=5 / range=0 / colorprim=1 / transfer=1 / colormatrix=1 / chromaloc=0 / display-window=0 / max-cll=0,0 / min-luma=0 / max-luma=1023 / log2-max-poc-lsb=8 / vui-timing-info / vui-hrd-info / slices=1 / no-opt-qp-pps / no-opt-ref-list-length-pps / no-multi-pass-opt-rps / scenecut-bias=0.05 / no-opt-cu-delta-qp / no-aq-motion / no-hdr / no-hdr-opt / no-dhdr10-opt / no-idr-recovery-sei / analysis-reuse-level=5 / scale-factor=0 / refine-intra=0 / refine-inter=0 / refine-mv=0 / no-limit-sao / ctu-info=0 / no-lowpass-dct / refine-mv-type=0 / copy-pic=1 / max-ausize-factor=1.0 / no-dynamic-refine / no-single-sei
Default : Yes
Forced : No
Color range : Limited
Color primaries : BT.709
Transfer characteristics : BT.709
Matrix coefficients : BT.709

Audio #1
ID : 2
Format : AC-3
Format/Info : Audio Coding 3
Commercial name : Dolby Digital
Codec ID : A_AC3
Duration : 2 h 34 min
Bit rate mode : Constant
Bit rate : 640 kb/s
Channel(s) : 6 channels
Channel layout : L R C LFE Ls Rs
Sampling rate : 48.0 kHz
Frame rate : 31.250 FPS (1536 SPF)
Bit depth : 16 bits
Compression mode : Lossy
Stream size : 707 MiB (3%)
Service kind : Complete Main
Default : Yes
Forced : No

Audio #2
ID : 3
Format : AC-3
Format/Info : Audio Coding 3
Commercial name : Dolby Digital
Codec ID : A_AC3
Duration : 2 h 34 min
Bit rate mode : Constant
Bit rate : 640 kb/s
Channel(s) : 6 channels
Channel layout : L R C LFE Ls Rs
Sampling rate : 48.0 kHz
Frame rate : 31.250 FPS (1536 SPF)
Bit depth : 16 bits
Compression mode : Lossy
Stream size : 707 MiB (3%)
Service kind : Complete Main
Default : No
Forced : No
Cкриншот1 Чужие / Aliens (1986) [Special Edition] BDRip 1080p [HEVC] 10 bit от HANNIBAL
Загружается...
Cкриншот2 Чужие / Aliens (1986) [Special Edition] BDRip 1080p [HEVC] 10 bit от HANNIBAL
Загружается...
Cкриншот3 Чужие / Aliens (1986) [Special Edition] BDRip 1080p [HEVC] 10 bit от HANNIBAL
Загружается...
Cкриншот4 Чужие / Aliens (1986) [Special Edition] BDRip 1080p [HEVC] 10 bit от HANNIBAL
Загружается...
Сэмпл

Ссылки для скачивания доступны только зарегистрированным/авторизованным пользователям!

12.09.2018  17:50:35
19
392
1
0
21.09 ГБ

Добавление нового комментария

Добавление комментариев доступно только зарегистрированным/авторизованным пользователям.
Аватар vash1
  vash1  13.11.2018  18:29:22
я в таких случаях просто качаю ремукс :)
Аватар EiffeL
  EiffeL  16.09.2018  18:51:27
Поддерживаю негодование большим размером! Как бы неформат
Аватар Святогуб
  Святогуб  14.09.2018  19:59:53
HANNIBAL писал(а):
исходник!!! полосы видешь
Блин,чёт не въезжаю,можно просто два скрина,один из твоего рипа другой из исходника и всё!
Аватар HANNIBAL
  HANNIBAL  14.09.2018  19:55:57
Святогуб писал(а):
не понял,это исходник или рип?
исходник!!! полосы видешь
Аватар HANNIBAL
  HANNIBAL  14.09.2018  11:14:44
Святогуб писал(а):
Ганибал,мы хотим увидеть разницу,не игнорь,сделай сравнение,пожалуйста!
какой игнор Бро ты о чём
https://a.radikal.ru/a24/1809/37/4a0ee6d28185.png
Аватар Святогуб
  Святогуб  14.09.2018  10:54:50
HANNIBAL писал(а):
парни сколько сейчас стоит HDD
Ганибал,мы хотим увидеть разницу,не игнорь,сделай сравнение,пожалуйста!
Аватар Algabas
  Algabas  13.09.2018  19:23:08
HEVC тем и интересен, что имеет размер намного меньший, чем H.264.
21gb - это явный перебор.
Аватар HANNIBAL
  HANNIBAL  13.09.2018  13:09:17
парни сколько сейчас стоит HDD
Аватар mvclub
  mvclub  13.09.2018  11:42:50
Неужели HDD так упали в цене?!
Аватар Fordis
  Fordis  13.09.2018  10:50:02
мда, 21 гиг это перебор!
Аватар hamshut
  hamshut  13.09.2018  00:27:30
Со старого сайта качал в 8 гиг версию и в 16 гиг, оба варианета практически идентичны.
Оценивал на телеке в 4к 55 дюймов, и честно скажу,что 22 гиговая эта версия не отличается, ну вообще нисколько.
А так, конечно же автору спасибо за труд!)
Аватар hamshut
  hamshut  13.09.2018  00:26:09
Ну вы что посоны?!)
Никто не проявляется недовольства, ПРОСТО интересен факт такого большого размера, вот и все)
А на счет того, что этот размер повлиял как-то на улучшения качества, то чистой воды байка.
Аватар Egor
  Egor  12.09.2018  23:36:40
Да всё норм.зато какчество улётное,не пойму,не нравится качайте блюр с зерном...спасибо,хоть бы сказали..
Аватар jacklip48
  jacklip48  12.09.2018  22:47:26
Народ смущает размер...как то не привычно такой видеть)
Аватар ADVOKAT69
  ADVOKAT69  12.09.2018  21:07:22
я думаю кого не устраивает размер может скачать DVD 4,7 Gb
Аватар Vladimir1981
  Vladimir1981  12.09.2018  20:44:36
Присоединяюсь к вопросу о размере фильма. Это же не 4К разрешение?!
Аватар hamshut
  hamshut  12.09.2018  20:26:20
HEVC формат в 22 гиг?!)
Да вы чего?!)
Даже блюрик не риповый и то меньше весит))
Ну а если серьезно, то в чем фишка такого размера?
Ладно бы там десятки дорожек в ДТС ультра были бы, но тут обычные две дорожки.
Аватар Nuclear70
  Nuclear70  12.09.2018  20:02:13
Супер
Аватар MakSIMus
  MakSIMus  12.09.2018  18:11:53
О. Это круто. Спасибо дорогой пришелец )))