Обложка Оно / It (2017) BDRip 1080p [HEVC] 10 bit от HANNIBALОбложка Эквилибриум / Equilibrium (2002) [Open Matte] BDRip 1080p [HEVC] 10 bit от HANNIBALОбложка Хакеры / Hackers (1995) [Remastered] BDRip 1080p [HEVC] 10 bit от CthulhuОбложка Rammstein - Paris (2017) BDRip 1080p [HEVC] 8 bit от CthulhuОбложка Чужой / Alien (1979) [Director's Cut] BDRip 1080p [HEVC] 10 bit от HANNIBALОбложка Отступники / The Departed (2006) [FR Transfer] BDRip 1080p [HEVC] 10 bit от HANNIBALОбложка Ты водишь! / Tag (2018) BDRip 1080p [HEVC] 10 bit от МичманОбложка В пасти безумия / In The Mouth Of Madness (1994) BDRip 1080p [HEVC] 10 bit от CthulhuОбложка Nightwish - Showtime, Storytime (2013) BDRip 1080p [HEVC] 8 bit от CthulhuОбложка Мир Юрского периода 2 / Jurassic World: Fallen Kingdom (2018) BDRip 1080p [HEVC] 10 bit от M@kSIMus

Авторизация

Смена пароля

captcha

Регистрация

captcha

Поиск

Мир Юрского периода 2 / Jurassic World: Fallen Kingdom (2018) UHDRip 2160p [HEVC] 10 bit [HDR] от HANNIBAL

Обложка Мир Юрского периода 2 / Jurassic World: Fallen Kingdom (2018) UHDRip 2160p [HEVC] 10 bit [HDR] от HANNIBAL Год: 2018
Страна: США, Испания
Студия: Universal Pictures, Amblin Entertainment, Legendary Pictures, Perfect World Pictures
Жанр: Фантастика, Приключения, Боевик
Продолжительность: 02:08:17

Режиссер: Хуан Антонио Байона
В ролях: Брайс Даллас Ховард, Крис Прэтт, Джефф Голдблюм, Тед Левайн, Джеймс Кромуэлл, Тоби Джонс, Б. Д. Вонг, Рейф Сполл, Даниэлла Пинеда, Джеральдин Чаплин

Описание: На острове Исла-Нублар, где не так давно располагался парк развлечений с динозаврами, правит бал дикая природа. Но без людей все далеко не так спокойно, как могло бы показаться. Основатели парка приняли решение построить его, несмотря на активный вулкан, расположенный в сердце острова. Вулкан пробудился и рискует потопить остров в лаве. Управляющая парка Клэр Дэринг уговаривает дрессировщика Оуэна Грэди вернуться в бывший парк и спасти динозавров от неминуемой гибели.


6.19632421
6.3
140654


Формат: MKV
Видео: 3840x1604, 11.8 Mbps
Аудио: AC3, 6 ch, 384 Kbps - Русский, Дублированный (iTunes)
Субтитры: нет

Медиаинфо
General
Unique ID : 305478714399112733133810945532689594269 (0xE5D10F72AA89774B9C281E85473B379D)
Complete name : F:\[HEVC]\UHD [HEVC]\Jurassic World Fallen Kingdom (2018) UHDRip 2160p [HEVC] 10bit [HDR].mkv
Format : Matroska
Format version : Version 4 / Version 2
File size : 11.0 GiB
Duration : 2 h 8 min
Overall bit rate : 12.2 Mb/s
Movie name : Jurassic World: Fallen Kingdom
Encoded date : UTC 2018-09-11 10:37:51
Writing application : mkvmerge v25.0.0 ('Prog Noir') 64-bit
Writing library : libebml v1.3.6 + libmatroska v1.4.9 / Lavf57.71.100
Cover : Yes
Attachments : cover.jpg
ENCODING_INFO : MATROSKA,WEBM > MKV 2160p 10-bit / HEVC > X265 CRF 17.0 Medium

Video
ID : 1
Format : HEVC
Format/Info : High Efficiency Video Coding
Format profile : Main 10@L5.1@High
Codec ID : V_MPEGH/ISO/HEVC
Duration : 2 h 8 min
Bit rate : 11.8 Mb/s
Width : 3 840 pixels
Height : 1 604 pixels
Display aspect ratio : 2.40:1
Frame rate mode : Constant
Frame rate : 23.976 (24000/1001) FPS
Color space : YUV
Chroma subsampling : 4:2:0
Bit depth : 10 bits
Bits/(Pixel*Frame) : 0.080
Stream size : 10.6 GiB (97%)
Writing library : x265 2.8+19-bcdc610cf5f0:[Windows][GCC 7.3.0][64 bit] 10bit
Encoding settings : cpuid=1111039 / frame-threads=13 / numa-pools=12 / wpp / no-pmode / no-pme / no-psnr / no-ssim / log-level=3 / input-csp=1 / input-res=3840x1604 / interlace=0 / total-frames=0 / level-idc=51 / high-tier=1 / uhd-bd=0 / ref=5 / allow-non-conformance / no-repeat-headers / annexb / no-aud / no-hrd / info / hash=0 / no-temporal-layers / open-gop / min-keyint=24 / keyint=240 / gop-lookahead=0 / bframes=8 / b-adapt=2 / b-pyramid / bframe-bias=0 / rc-lookahead=40 / lookahead-slices=8 / scenecut=40 / radl=0 / no-intra-refresh / ctu=64 / min-cu-size=8 / no-rect / no-amp / max-tu-size=32 / tu-inter-depth=1 / tu-intra-depth=1 / limit-tu=0 / rdoq-level=0 / dynamic-rd=0.00 / no-ssim-rd / signhide / no-tskip / nr-intra=0 / nr-inter=0 / no-constrained-intra / strong-intra-smoothing / max-merge=2 / limit-refs=3 / no-limit-modes / me=3 / subme=7 / merange=57 / temporal-mvp / weightp / no-weightb / no-analyze-src-pics / deblock=-3:-3 / no-sao / no-sao-non-deblock / rd=3 / no-early-skip / rskip / no-fast-intra / no-tskip-fast / no-cu-lossless / no-b-intra / no-splitrd-skip / rdpenalty=0 / psy-rd=2.00 / psy-rdoq=0.00 / no-rd-refine / no-lossless / cbqpoffs=0 / crqpoffs=0 / rc=crf / crf=17.0 / qcomp=0.70 / qpstep=4 / stats-write=0 / stats-read=0 / vbv-maxrate=160000 / vbv-bufsize=160000 / vbv-init=0.9 / crf-max=0.0 / crf-min=0.0 / ipratio=1.40 / pbratio=1.30 / aq-mode=1 / aq-strength=1.00 / cutree / zone-count=0 / no-strict-cbr / qg-size=32 / no-rc-grain / qpmax=69 / qpmin=0 / no-const-vbv / sar=1 / overscan=0 / videoformat=5 / range=0 / colorprim=9 / transfer=16 / colormatrix=9 / chromaloc=0 / display-window=0 / max-cll=0,0 / min-luma=0 / max-luma=1023 / log2-max-poc-lsb=8 / vui-timing-info / vui-hrd-info / slices=1 / no-opt-qp-pps / no-opt-ref-list-length-pps / no-multi-pass-opt-rps / scenecut-bias=0.05 / no-opt-cu-delta-qp / no-aq-motion / no-hdr / no-hdr-opt / no-dhdr10-opt / no-idr-recovery-sei / analysis-reuse-level=5 / scale-factor=0 / refine-intra=0 / refine-inter=0 / refine-mv=0 / no-limit-sao / ctu-info=0 / no-lowpass-dct / refine-mv-type=0 / copy-pic=1 / max-ausize-factor=1.0 / no-dynamic-refine / no-single-sei
Language : English
Default : Yes
Forced : No
Color range : Limited
Color primaries : BT.2020
Transfer characteristics : PQ
Matrix coefficients : BT.2020 non-constant

Audio
ID : 2
Format : AC-3
Format/Info : Audio Coding 3
Commercial name : Dolby Digital
Codec ID : A_AC3
Duration : 2 h 8 min
Bit rate mode : Constant
Bit rate : 384 kb/s
Channel(s) : 6 channels
Channel layout : L R C LFE Ls Rs
Sampling rate : 48.0 kHz
Frame rate : 31.250 FPS (1536 SPF)
Bit depth : 16 bits
Compression mode : Lossy
Stream size : 352 MiB (3%)
Title : rus
Service kind : Complete Main
Default : Yes
Forced : Yes

Menu
00:00:00.000 : :00:00:00.000
00:07:13.224 : :00:07:13.224
00:12:01.554 : :00:12:01.554
00:17:17.744 : :00:17:17.745
00:21:17.193 : :00:21:17.193
00:28:49.811 : :00:28:49.811
00:35:04.686 : :00:35:04.686
00:40:51.574 : :00:40:51.574
00:46:32.498 : :00:46:32.498
00:52:04.997 : :00:52:04.997
01:00:59.197 : :01:00:59.197
01:06:50.256 : :01:06:50.256
01:11:07.638 : :01:11:07.638
01:17:21.095 : :01:17:21.095
01:26:55.210 : :01:26:55.210
01:33:01.493 : :01:33:01.493
01:42:55.878 : :01:42:55.878
01:50:01.553 : :01:50:01.553
01:54:56.223 : :01:54:56.223
01:58:37.986 : :01:58:37.986
Cкриншот1 Мир Юрского периода 2 / Jurassic World: Fallen Kingdom (2018) UHDRip 2160p [HEVC] 10 bit [HDR] от HANNIBAL
Загружается...
Cкриншот2 Мир Юрского периода 2 / Jurassic World: Fallen Kingdom (2018) UHDRip 2160p [HEVC] 10 bit [HDR] от HANNIBAL
Загружается...
Cкриншот3 Мир Юрского периода 2 / Jurassic World: Fallen Kingdom (2018) UHDRip 2160p [HEVC] 10 bit [HDR] от HANNIBAL
Загружается...
Cкриншот4 Мир Юрского периода 2 / Jurassic World: Fallen Kingdom (2018) UHDRip 2160p [HEVC] 10 bit [HDR] от HANNIBAL
Загружается...
Сэмпл

Ссылки для скачивания доступны только зарегистрированным/авторизованным пользователям!

11.09.2018
16
875
9
3
10.95 ГБ
Аватар igor302
  igor302  11.09.2018  14:08:37
1080 будет?
Аватар HANNIBAL
  HANNIBAL  11.09.2018  14:15:46
igor302 писал(а):
1080 будет?
от макса
Аватар MakSIMus
  MakSIMus  11.09.2018  15:08:05
igor302 писал(а):
1080 будет?
Через пару дней сделаю.
Аватар igor302
  igor302  11.09.2018  15:14:48
MakSIMus писал(а):
Через пару дней сделаю.
Буду ждать!
Аватар FireIce
  FireIce  11.09.2018  15:31:25
Спасибо!
Аватар vii2385
  vii2385  11.09.2018  16:52:21
Спасибо
Аватар cobralan
  cobralan  11.09.2018  18:18:16
Верхняя черная рамка очень широкая, в два раза больше, чем нижняя. Картинка получается четкая, но больно уразанное изображение.
Аватар mvclub
  mvclub  11.09.2018  23:27:21
Фильм не стоит 11 Gb
Аватар dimonovich
  dimonovich  12.09.2018  10:09:59
Я так понял по цветности видно что фильм в HDR?
Аватар Cthulhu
  Cthulhu  12.09.2018  11:48:50
dimonovich писал(а):
Я так понял по цветности видно что фильм в HDR?
Абсолютно верно, а так же это указано в заголовке раздачи.
Аватар Zulbay
  Zulbay  12.09.2018  17:35:23
MakSIMus писал(а):
Через пару дней сделаю.
Макс и первую часть пжлста )
Аватар MakSIMus
  MakSIMus  12.09.2018  18:10:33
Zulbay писал(а):
Макс и первую часть пжлста )
сделаем.
Аватар cybermaster
  cybermaster  12.09.2018  23:47:33
Zulbay писал(а):
Макс и первую часть пжлста )
+1
Аватар Alexey_g
  Alexey_g  13.09.2018  19:12:53
сколько времени ушло на кодирование если не секрет?
Аватар HANNIBAL
  HANNIBAL  13.09.2018  20:31:06
26 часов
Аватар Alexey_g
  Alexey_g  13.09.2018  21:16:31
Так быстро 4К. проц наверно огонь

Добавление нового комментария

Добавление комментариев доступно только зарегистрированным/авторизованным пользователям.