Обложка Оно / It (2017) BDRip 1080p [HEVC] 10 bit от HANNIBALОбложка Миссия невыполнима: Последствия / Mission: Impossible - Fallout (2018) [IMAX Edition] BDRip 1080p [HEVC] 10 bit от HANNIBALОбложка Rammstein - Paris (2017) BDRip 1080p [HEVC] 8 bit от CthulhuОбложка Робин Гуд / Robin Hood (2010) [Director's Cut] BDRip 1080p [HEVC] 10 bit от CthulhuОбложка Отступники / The Departed (2006) [FR Transfer] BDRip 1080p [HEVC] 10 bit от CthulhuОбложка Эквилибриум / Equilibrium (2002) [Open Matte] BDRip 1080p [HEVC] 10 bit от HANNIBALОбложка Другой мир: Антология / Underworld: Anthology (2003-2016) BDRip 1080р [HEVC] 10 bit от CthulhuОбложка Хакеры / Hackers (1995) [Remastered] BDRip 1080p [HEVC] 10 bit от CthulhuОбложка Великий уравнитель 2 / The Equalizer 2 (2018) BDRip 1080p [HEVC] 10 bit от HANNIBALОбложка Пассажир / The Commuter (2018) BDRip 1080p [HEVC] 10 bit от HANNIBAL

Авторизация

Смена пароля

captcha

Регистрация

captcha

Поиск

Ты водишь! / Tag (2018) BDRip 1080p [HEVC] 10 bit от Мичман

HEVC
10 bit
Обложка Ты водишь! / Tag (2018) BDRip 1080p [HEVC] 10 bit от Мичман Год: 2018
Страна: США
Жанр: Комедия
Продолжительность: 01:40:33

Режиссер: Джефф Томсич
В ролях: Эд Хелмс, Джереми Реннер, Джон Хэмм, Джейк Джонсон, Хэннибал Бёресс, Аннабелль Уоллис, Айла Фишер, Рашида Джонс, Лил Релл, Нора Данн

Описание: Каждый год в течение месяца пятеро друзей участвуют в беспощадно навороченной версии игры в кошки-мышки. Они играют в нее с первого класса, чтобы, рискуя собственной шеей, работой и отношениями, одолеть противника с победоносным криком: «Ты водишь!» В этом году кошки-мышки приходятся на свадьбу единственного непобежденного игрока, что должно сделать из него легкую мишень. Но он знает, что они придут… и он готов.


6.59124777
6.6
54240


Формат: MKV
Видео: 1920x804, 4432 Kbps
Аудио1: AC3, 6 ch, 384 Kbps - Русский, Дублированный (iTunes)
Аудио2: AC3, 6 ch, 640 Kbps - Оригинал
Субтитры: Русские (полные, форсированные), английские

Медиаинфо
Общее
Уникальный идентификатор : 155702968493832903536037642974679524232 (0x75234D0ABF0D7852892DC4A4CDCFE388)
Полное имя : J:\ФИЛЬМЫ\Ты водишь!. 2018. 1080p. HEVC. Рип от Мичмана..mkv
Формат : Matroska
Версия формата : Version 4 / Version 2
Размер файла : 3,83 Гбайт
Продолжительность : 1 ч. 40 м.
Общий поток : 5459 Кбит/сек
Название фильма : Рип от Мичмана
Дата кодирования : UTC 2018-09-11 16:51:39
Программа кодирования : mkvmerge v21.0.0 ('Tardigrades Will Inherit The Earth') 64-bit
Библиотека кодирования : libebml v1.3.5 + libmatroska v1.4.8
Обложка : Yes
Attachments : cover.jpg

Видео
Идентификатор : 1
Формат : HEVC
Формат/Информация : High Efficiency Video Coding
Профиль формата : Main 10@L5.1@High
Идентификатор кодека : V_MPEGH/ISO/HEVC
Продолжительность : 1 ч. 40 м.
Битрейт : 4432 Кбит/сек
Ширина : 1920 пикселей
Высота : 804 пикселя
Соотношение сторон : 2,40:1
Режим частоты кадров : Постоянный
Частота кадров : 23,976 (24000/1001) кадра/сек
Цветовое пространство : YUV
Субдискретизация насыщенности : 4:2:0
Битовая глубина : 10 бит
Бит/(Пиксели*Кадры) : 0.120
Размер потока : 3,11 Гбайт (81%)
Библиотека кодирования : x265 2.8+19-bcdc610cf5f0:[Windows][GCC 7.3.0][64 bit] 10bit
Настройки программы : cpuid=1064959 / frame-threads=9 / numa-pools=8 / wpp / no-pmode / no-pme / no-psnr / no-ssim / log-level=3 / input-csp=1 / input-res=1920x804 / interlace=0 / total-frames=0 / level-idc=51 / high-tier=1 / uhd-bd=0 / ref=5 / allow-non-conformance / no-repeat-headers / annexb / no-aud / no-hrd / info / hash=0 / no-temporal-layers / open-gop / min-keyint=24 / keyint=240 / gop-lookahead=0 / bframes=8 / b-adapt=2 / b-pyramid / bframe-bias=0 / rc-lookahead=40 / lookahead-slices=5 / scenecut=40 / radl=0 / no-intra-refresh / ctu=64 / min-cu-size=8 / no-rect / no-amp / max-tu-size=32 / tu-inter-depth=1 / tu-intra-depth=1 / limit-tu=0 / rdoq-level=0 / dynamic-rd=0.00 / no-ssim-rd / signhide / no-tskip / nr-intra=0 / nr-inter=0 / no-constrained-intra / strong-intra-smoothing / max-merge=2 / limit-refs=3 / no-limit-modes / me=1 / subme=7 / merange=57 / temporal-mvp / weightp / no-weightb / no-analyze-src-pics / deblock=-3:-3 / no-sao / no-sao-non-deblock / rd=4 / no-early-skip / rskip / no-fast-intra / no-tskip-fast / no-cu-lossless / no-b-intra / no-splitrd-skip / rdpenalty=0 / psy-rd=2.00 / psy-rdoq=0.00 / no-rd-refine / no-lossless / cbqpoffs=0 / crqpoffs=0 / rc=crf / crf=18.0 / qcomp=0.60 / qpstep=4 / stats-write=0 / stats-read=0 / vbv-maxrate=160000 / vbv-bufsize=160000 / vbv-init=0.9 / crf-max=0.0 / crf-min=0.0 / ipratio=1.40 / pbratio=1.30 / aq-mode=1 / aq-strength=1.00 / cutree / zone-count=0 / no-strict-cbr / qg-size=32 / no-rc-grain / qpmax=69 / qpmin=0 / no-const-vbv / sar=1 / overscan=0 / videoformat=5 / range=0 / colorprim=2 / transfer=2 / colormatrix=2 / chromaloc=0 / display-window=0 / max-cll=0,0 / min-luma=0 / max-luma=1023 / log2-max-poc-lsb=8 / vui-timing-info / vui-hrd-info / slices=1 / no-opt-qp-pps / no-opt-ref-list-length-pps / no-multi-pass-opt-rps / scenecut-bias=0.05 / no-opt-cu-delta-qp / no-aq-motion / no-hdr / no-hdr-opt / no-dhdr10-opt / no-idr-recovery-sei / analysis-reuse-level=5 / scale-factor=0 / refine-intra=0 / refine-inter=0 / refine-mv=0 / no-limit-sao / ctu-info=0 / no-lowpass-dct / refine-mv-type=0 / copy-pic=1 / max-ausize-factor=1.0 / no-dynamic-refine / no-single-sei
Default : Да
Forced : Нет

Аудио #1
Идентификатор : 2
Формат : AC-3
Формат/Информация : Audio Coding 3
Идентификатор кодека : A_AC3
Продолжительность : 1 ч. 40 м.
Вид битрейта : Постоянный
Битрейт : 384 Кбит/сек
Каналы : 6 каналов
Расположение каналов : Front: L C R, Side: L R, LFE
Частота : 48,0 КГц
Частота кадров : 31,250 кадров/сек (1536 SPF)
Битовая глубина : 16 бит
Метод сжатия : С потерями
Размер потока : 276 Мбайт (7%)
Язык : Russian
ServiceKind/String : Complete Main
Default : Да
Forced : Да

Аудио #2
Идентификатор : 3
Формат : AC-3
Формат/Информация : Audio Coding 3
Идентификатор кодека : A_AC3
Продолжительность : 1 ч. 40 м.
Вид битрейта : Постоянный
Битрейт : 640 Кбит/сек
Каналы : 6 каналов
Расположение каналов : Front: L C R, Side: L R, LFE
Частота : 48,0 КГц
Частота кадров : 31,250 кадров/сек (1536 SPF)
Битовая глубина : 16 бит
Метод сжатия : С потерями
Размер потока : 460 Мбайт (12%)
Заголовок : Original
Язык : English
ServiceKind/String : Complete Main
Default : Нет
Forced : Нет

Текст #1
Идентификатор : 4
Формат : UTF-8
Идентификатор кодека : S_TEXT/UTF8
Идентификатор кодека/Информация : UTF-8 Plain Text
Продолжительность : 1 ч. 40 м.
Битрейт : 1 бит/сек
ElementCount : 17
Размер потока : 802 байт (0%)
Заголовок : Forced
Язык : Russian
Default : Да
Forced : Да

Текст #2
Идентификатор : 5
Формат : UTF-8
Идентификатор кодека : S_TEXT/UTF8
Идентификатор кодека/Информация : UTF-8 Plain Text
Продолжительность : 1 ч. 40 м.
Битрейт : 132 бит/сек
ElementCount : 1953
Размер потока : 96,7 Кбайт (0%)
Язык : Russian
Default : Нет
Forced : Нет

Текст #3
Идентификатор : 6
Формат : UTF-8
Идентификатор кодека : S_TEXT/UTF8
Идентификатор кодека/Информация : UTF-8 Plain Text
Продолжительность : 1 ч. 39 м.
Битрейт : 91 бит/сек
ElementCount : 1965
Размер потока : 66,9 Кбайт (0%)
Заголовок : Full
Язык : English
Default : Нет
Forced : Нет

Меню
00:00:00.000 : :Chapter 01
00:09:24.230 : :Chapter 02
00:17:04.481 : :Chapter 03
00:28:18.863 : :Chapter 04
00:36:56.214 : :Chapter 05
00:46:16.398 : :Chapter 06
00:56:28.259 : :Chapter 07
01:06:09.465 : :Chapter 08
01:18:02.719 : :Chapter 09
01:26:30.101 : :Chapter 10
01:35:55.958 : :Chapter 11
01:40:33.652 : :Chapter 12
Cкриншот1 Ты водишь! / Tag (2018) BDRip 1080p [HEVC] 10 bit от Мичман
Загружается...
Cкриншот2 Ты водишь! / Tag (2018) BDRip 1080p [HEVC] 10 bit от Мичман
Загружается...
Cкриншот3 Ты водишь! / Tag (2018) BDRip 1080p [HEVC] 10 bit от Мичман
Загружается...
Cкриншот4 Ты водишь! / Tag (2018) BDRip 1080p [HEVC] 10 bit от Мичман
Загружается...
Сэмпл

Ссылки для скачивания доступны только зарегистрированным/авторизованным пользователям!

11.09.2018  20:04:18
7
1503
2
0
3.83 ГБ

Добавление нового комментария

Добавление комментариев доступно только зарегистрированным/авторизованным пользователям.
Аватар Nuclear70
  Nuclear70  12.09.2018  20:00:35
👍
Аватар Мичман
  Мичман  11.09.2018  21:34:58
igor302 писал(а):
Фильм на 3 из 10. Не советую. Слишком туалетный юмор.
Я не заметил туалетного юмора.
Аватар igor302
  igor302  11.09.2018  21:30:47
Фильм на 3 из 10. Не советую. Слишком туалетный юмор.
Аватар MakSIMus
  MakSIMus  11.09.2018  20:24:48
Класс
Аватар Мичман
  Мичман  11.09.2018  20:14:13
Прикольный фильм. Нам с супругой понравился.
Аватар Kaban
  Kaban  11.09.2018  20:10:35
Неожиданно!!! Хороший актёрский состав интригует,но ещё не видел этот фильм
Аватар HANNIBAL
  HANNIBAL  11.09.2018  20:10:11
👍