Обложка Оно / It (2017) BDRip 1080p [HEVC] 10 bit от HANNIBALОбложка Миссия невыполнима: Последствия / Mission: Impossible - Fallout (2018) [IMAX Edition] BDRip 1080p [HEVC] 10 bit от HANNIBALОбложка Робин Гуд / Robin Hood (2010) [Director's Cut] BDRip 1080p [HEVC] 10 bit от CthulhuОбложка Rammstein - Paris (2017) BDRip 1080p [HEVC] 8 bit от CthulhuОбложка Эквилибриум / Equilibrium (2002) [Open Matte] BDRip 1080p [HEVC] 10 bit от HANNIBALОбложка Отступники / The Departed (2006) [FR Transfer] BDRip 1080p [HEVC] 10 bit от CthulhuОбложка Хакеры / Hackers (1995) [Remastered] BDRip 1080p [HEVC] 10 bit от CthulhuОбложка Другой мир: Антология / Underworld: Anthology (2003-2016) BDRip 1080р [HEVC] 10 bit от CthulhuОбложка Кинематографическая вселенная Marvel / Marvel Cinematic Universe (2008-2018) BDRip 1080p [HEVC] 10 bit от M@kSIMusОбложка Великий уравнитель 2 / The Equalizer 2 (2018) BDRip 1080p [HEVC] 10 bit от HANNIBAL

Авторизация

Смена пароля

captcha

Регистрация

captcha

Поиск

Терминатор 3: Восстание машин / Terminator 3: Rise of the Machines (2003) BDRip 1080p [HEVC] 10 bit от M@kSIMus

HEVC
10 bit
Обложка Терминатор 3: Восстание машин / Terminator 3: Rise of the Machines (2003) BDRip 1080p [HEVC] 10 bit от M@kSIMus Год: 2003
Страна: США, Германия, Великобритания
Студия: C-2 Pictures, IMF Internationale Medien und Film, Intermedia Films
Жанр: Фантастика, Боевик, Триллер
Продолжительность: 01:49:06

Режиссер: Джонатан Мостоу
В ролях: Арнольд Шварценеггер, Ник Стал, Клэр Дэйнс, Кристанна Локен, Дэвид Эндрюс, Марк Фамиглетти, Эрл Боэн, Мойра Харрис, Чоппер Бернет, Кристофер Лоуфорд

Описание: Прошло десять лет с тех пор, как Джон Коннор помог предотвратить Судный День и спасти человечество от массового уничтожения. Теперь ему 25, Коннор не живет «как все» - у него нет дома, нет кредитных карт, нет сотового телефона и никакой работы. Его существование нигде не зарегистрировано. Он не может быть прослежен системой Skynet - высокоразвитой сетью машин, которые когда-то попробовали убить его и развязать войну против человечества. Пока из теней будущего не появляется T-X - Терминатрикс, самый сложный киборг-убийца Skynet. Посланная назад сквозь время, чтобы завершить работу, начатую её предшественником, T-1000, эта машина так же упорна, как прекрасен её человеческий облик. Теперь единственная надежда Коннору выжить - Терминатор, его таинственный прежний убийца. Вместе они должны одержать победу над новыми технологиями T-X и снова предотвратить Судный День...


6.79583359
6.3
333798


Формат: MKV
Видео: 1920x790, 7307 Kbps
Аудио1: AC3, 6 ch, 448 Kbps - Русский, Дублированный (Лицензия)
Аудио2: AC3, 6 ch, 448 Kbps - Английский, Оригинал
Субтитры: Русские (полные)

Медиаинфо
Общее
Уникальный идентификатор : 287659013121238437382029381502570784979 (0xD8691C57C5D96F9E9A4289738C0AE8D3)
Полное имя : E:\Фильмы\Terminator\03.Терминатор 3 - Восстание машин (2003) BDRip 1080p [HEVC] 10 bit Rip_by_M@kSIMus.mkv
Формат : Matroska
Версия формата : Version 4
Размер файла : 6,25 Гбайт
Продолжительность : 1 ч. 49 м.
Общий поток : 8206 Кбит/сек
Название фильма : Rip_by_M@kSIMus
Дата кодирования : UTC 2018-09-11 02:11:02
Программа кодирования : mkvmerge v19.0.0 ('Brave Captain') 64-bit
Библиотека кодирования : libebml v1.3.5 + libmatroska v1.4.8
Обложка : Yes
Attachments : cover.jpg

Видео
Идентификатор : 1
Формат : HEVC
Формат/Информация : High Efficiency Video Coding
Профиль формата : Main 10@L5.1@High
Идентификатор кодека : V_MPEGH/ISO/HEVC
Продолжительность : 1 ч. 49 м.
Битрейт : 7307 Кбит/сек
Ширина : 1920 пикселей
Высота : 790 пикселей
Соотношение сторон : 2,40:1
Режим частоты кадров : Постоянный
Частота кадров : 23,976 (24000/1001) кадра/сек
Цветовое пространство : YUV
Субдискретизация насыщенности : 4:2:0
Битовая глубина : 10 бит
Бит/(Пиксели*Кадры) : 0.201
Размер потока : 5,57 Гбайт (89%)
Библиотека кодирования : x265 2.8+19-bcdc610cf5f0:[Windows][GCC 7.3.0][64 bit] 10bit
Настройки программы : cpuid=1049583 / frame-threads=5 / numa-pools=4 / wpp / no-pmode / no-pme / no-psnr / no-ssim / log-level=3 / input-csp=1 / input-res=1920x790 / interlace=0 / total-frames=0 / level-idc=51 / high-tier=1 / uhd-bd=0 / ref=5 / allow-non-conformance / no-repeat-headers / annexb / no-aud / no-hrd / info / hash=0 / no-temporal-layers / open-gop / min-keyint=24 / keyint=240 / gop-lookahead=0 / bframes=8 / b-adapt=2 / b-pyramid / bframe-bias=0 / rc-lookahead=40 / lookahead-slices=5 / scenecut=40 / radl=0 / no-intra-refresh / ctu=64 / min-cu-size=8 / no-rect / no-amp / max-tu-size=32 / tu-inter-depth=1 / tu-intra-depth=1 / limit-tu=0 / rdoq-level=0 / dynamic-rd=0.00 / no-ssim-rd / signhide / no-tskip / nr-intra=0 / nr-inter=0 / no-constrained-intra / strong-intra-smoothing / max-merge=2 / limit-refs=3 / no-limit-modes / me=3 / subme=7 / merange=57 / temporal-mvp / weightp / no-weightb / no-analyze-src-pics / deblock=-3:-3 / no-sao / no-sao-non-deblock / rd=3 / no-early-skip / rskip / no-fast-intra / no-tskip-fast / no-cu-lossless / no-b-intra / no-splitrd-skip / rdpenalty=0 / psy-rd=2.00 / psy-rdoq=0.00 / no-rd-refine / no-lossless / cbqpoffs=0 / crqpoffs=0 / rc=crf / crf=18.0 / qcomp=0.75 / qpstep=4 / stats-write=0 / stats-read=0 / vbv-maxrate=160000 / vbv-bufsize=160000 / vbv-init=0.9 / crf-max=0.0 / crf-min=0.0 / ipratio=1.40 / pbratio=1.30 / aq-mode=1 / aq-strength=1.00 / cutree / zone-count=0 / no-strict-cbr / qg-size=32 / no-rc-grain / qpmax=69 / qpmin=0 / no-const-vbv / sar=1 / overscan=0 / videoformat=5 / range=0 / colorprim=1 / transfer=1 / colormatrix=1 / chromaloc=0 / display-window=0 / max-cll=0,0 / min-luma=0 / max-luma=1023 / log2-max-poc-lsb=8 / vui-timing-info / vui-hrd-info / slices=1 / no-opt-qp-pps / no-opt-ref-list-length-pps / no-multi-pass-opt-rps / scenecut-bias=0.05 / no-opt-cu-delta-qp / no-aq-motion / no-hdr / no-hdr-opt / no-dhdr10-opt / no-idr-recovery-sei / analysis-reuse-level=5 / scale-factor=0 / refine-intra=0 / refine-inter=0 / refine-mv=0 / no-limit-sao / ctu-info=0 / no-lowpass-dct / refine-mv-type=0 / copy-pic=1 / max-ausize-factor=1.0 / no-dynamic-refine / no-single-sei
Язык : English
Default : Да
Forced : Нет
Цветовой диапазон : Limited
Основные цвета : BT.709
Характеристики трансфера : BT.709
Коэффициенты матрицы : BT.709

Аудио #1
Идентификатор : 2
Формат : AC-3
Формат/Информация : Audio Coding 3
Коммерческое название : Dolby Digital
Идентификатор кодека : A_AC3
Продолжительность : 1 ч. 49 м.
Вид битрейта : Постоянный
Битрейт : 448 Кбит/сек
Каналы : 6 каналов
Channel layout : L R C LFE Ls Rs
Частота : 48,0 КГц
Частота кадров : 31,250 кадров/сек (1536 SPF)
Битовая глубина : 16 бит
Метод сжатия : С потерями
Размер потока : 350 Мбайт (5%)
Заголовок : Дубляж
Язык : Russian
ServiceKind/String : Complete Main
Default : Да
Forced : Нет

Аудио #2
Идентификатор : 3
Формат : AC-3
Формат/Информация : Audio Coding 3
Коммерческое название : Dolby Digital
Идентификатор кодека : A_AC3
Продолжительность : 1 ч. 49 м.
Вид битрейта : Постоянный
Битрейт : 448 Кбит/сек
Каналы : 6 каналов
Channel layout : L R C LFE Ls Rs
Частота : 48,0 КГц
Частота кадров : 31,250 кадров/сек (1536 SPF)
Битовая глубина : 16 бит
Метод сжатия : С потерями
Размер потока : 350 Мбайт (5%)
Заголовок : Оригинал
Язык : English
ServiceKind/String : Complete Main
Default : Нет
Forced : Нет

Текст
Идентификатор : 4
Формат : UTF-8
Идентификатор кодека : S_TEXT/UTF8
Идентификатор кодека/Информация : UTF-8 Plain Text
Продолжительность : 1 ч. 39 м.
Битрейт : 59 бит/сек
ElementCount : 799
Размер потока : 43,4 Кбайт (0%)
Заголовок : Full
Язык : Russian
Default : Нет
Forced : Нет
Cкриншот1 Терминатор 3: Восстание машин / Terminator 3: Rise of the Machines (2003) BDRip 1080p [HEVC] 10 bit от M@kSIMus
Загружается...
Cкриншот2 Терминатор 3: Восстание машин / Terminator 3: Rise of the Machines (2003) BDRip 1080p [HEVC] 10 bit от M@kSIMus
Загружается...
Cкриншот3 Терминатор 3: Восстание машин / Terminator 3: Rise of the Machines (2003) BDRip 1080p [HEVC] 10 bit от M@kSIMus
Загружается...
Cкриншот4 Терминатор 3: Восстание машин / Terminator 3: Rise of the Machines (2003) BDRip 1080p [HEVC] 10 bit от M@kSIMus
Загружается...
Сэмпл

Ссылки для скачивания доступны только зарегистрированным/авторизованным пользователям!

11.09.2018  05:36:17
4
176
1
0
6.25 ГБ

Добавление нового комментария

Добавление комментариев доступно только зарегистрированным/авторизованным пользователям.
Аватар XuMuK
  XuMuK  16.11.2018  21:29:51
Студень писал(а):
Ты чё сравнил? У тебя же мыло полное)))
+100500
Реально фигня получилась
Аватар Студень
  Студень  14.09.2018  23:51:04
MakSIMus писал(а):
Сравнение с исходником http://screenshotcomparison.com/comparison/120204
Ты чё сравнил? У тебя же мыло полное)))
Аватар torrentzulu
  torrentzulu  12.09.2018  07:06:37
Спасибо!
Аватар MakSIMus
  MakSIMus  11.09.2018  05:47:23
Сравнение с исходником http://screenshotcomparison.com/comparison/120204