Обложка Оно / It (2017) BDRip 1080p [HEVC] 10 bit от HANNIBALОбложка Миссия невыполнима: Последствия / Mission: Impossible - Fallout (2018) [IMAX Edition] BDRip 1080p [HEVC] 10 bit от HANNIBALОбложка Робин Гуд / Robin Hood (2010) [Director's Cut] BDRip 1080p [HEVC] 10 bit от CthulhuОбложка Rammstein - Paris (2017) BDRip 1080p [HEVC] 8 bit от CthulhuОбложка Эквилибриум / Equilibrium (2002) [Open Matte] BDRip 1080p [HEVC] 10 bit от HANNIBALОбложка Отступники / The Departed (2006) [FR Transfer] BDRip 1080p [HEVC] 10 bit от CthulhuОбложка Хакеры / Hackers (1995) [Remastered] BDRip 1080p [HEVC] 10 bit от CthulhuОбложка Другой мир: Антология / Underworld: Anthology (2003-2016) BDRip 1080р [HEVC] 10 bit от CthulhuОбложка Кинематографическая вселенная Marvel / Marvel Cinematic Universe (2008-2018) BDRip 1080p [HEVC] 10 bit от M@kSIMusОбложка Великий уравнитель 2 / The Equalizer 2 (2018) BDRip 1080p [HEVC] 10 bit от HANNIBAL

Авторизация

Смена пароля

captcha

Регистрация

captcha

Поиск

Чужой / Alien (1979) [Director's Cut] BDRip 1080p [HEVC] 10 bit от HANNIBAL

HEVC
10 bit
Обложка Чужой / Alien (1979) [Director's Cut] BDRip 1080p [HEVC] 10 bit от HANNIBAL Год: 1979
Страна: США, Великобритания
Студия: Brandywine Productions Ltd., Twentieth Century-Fox Productions Ltd.
Жанр: Фантастика, Боевик, Триллер, Ужасы
Продолжительность: 01:55:50

Режиссер: Ридли Скотт
В ролях: Сигурни Уивер, Том Скеррит, Вероника Картрайт, Гарри Дин Стэнтон, Джон Хёрт, Иэн Холм, Яфет Котто, Боладжи Бадеджо, Хелен Хортон, Эдди Пауэлл

Описание: В далеком будущем возвращающийся на Землю грузовой космический корабль перехватывает исходящий с неизвестной планеты неопознанный сигнал. Экипаж принимает решение совершить посадку и разобраться, в чем дело. Оказавшись на планете, астронавты повсюду обнаруживают неопознанные предметы, по виду напоминающие гигантские коконы…


8.066126374
8.5
670991


Формат: MKV
Видео: 1920x816, 5759 Kbps
Аудио1: AC3, 6 ch, 640 Kbps - Русский, Дублированный (Лицензия)
Аудио2: AC3, 6 ch, 640 Kbps - Русский, Одноголосый (А. Гаврилов)
Аудио3: AC3, 6 ch, 640 Kbps - Русский, Одноголосый (Дмитрий «Гоблин» Пучков)
Аудио4: AC3, 6 ch, 640 Kbps - Русский, Одноголосый (Ю. Живов)
Аудио5: AC3, 6 ch, 640 Kbps - Английский, Оригинал
Субтитры: Русские (полные)

Медиаинфо
General
Unique ID : 153620875924589455218261781865804157244 (0x73924DF3E22A9136ABF18FE5166D513C)
Complete name : E:\Alien [HEVC]\Alien [Director's Cut] (1979) BDRip 1080p [HEVC] 10 bit.mkv
Format : Matroska
Format version : Version 4 / Version 2
File size : 7.25 GiB
Duration : 1 h 55 min
Overall bit rate : 8 962 kb/s
Encoded date : UTC 2018-09-07 21:54:54
Writing application : mkvmerge v25.0.0 ('Prog Noir') 64-bit
Writing library : libebml v1.3.6 + libmatroska v1.4.9 / Lavf57.71.100
Cover : Yes
Attachments : cover.jpg
ENCODING_INFO : MPEGTS > MKV 1080p 10-bit / H264 > X265 CRF 19.0 Placebo / DTS > AC3 CBR 640kbps / DTS-HD MA > AC3 CBR 640kbps

Video
ID : 1
Format : HEVC
Format/Info : High Efficiency Video Coding
Format profile : Main 10@L4@Main
Codec ID : V_MPEGH/ISO/HEVC
Duration : 1 h 55 min
Bit rate : 5 759 kb/s
Width : 1 920 pixels
Height : 816 pixels
Display aspect ratio : 2.35:1
Frame rate mode : Constant
Frame rate : 23.976 (24000/1001) FPS
Color space : YUV
Chroma subsampling : 4:2:0
Bit depth : 10 bits
Bits/(Pixel*Frame) : 0.153
Stream size : 4.66 GiB (64%)
Writing library : x265 2.8+19-bcdc610cf5f0:[Windows][GCC 7.3.0][64 bit] 10bit
Encoding settings : cpuid=1111039 / frame-threads=13 / numa-pools=12 / wpp / no-pmode / no-pme / no-psnr / no-ssim / log-level=3 / input-csp=1 / input-res=1920x816 / interlace=0 / total-frames=0 / level-idc=0 / high-tier=1 / uhd-bd=0 / ref=5 / allow-non-conformance / no-repeat-headers / annexb / no-aud / no-hrd / info / hash=0 / no-temporal-layers / open-gop / min-keyint=24 / keyint=240 / gop-lookahead=0 / bframes=8 / b-adapt=2 / b-pyramid / bframe-bias=0 / rc-lookahead=60 / lookahead-slices=5 / scenecut=40 / radl=0 / no-intra-refresh / ctu=64 / min-cu-size=8 / no-rect / no-amp / max-tu-size=32 / tu-inter-depth=1 / tu-intra-depth=1 / limit-tu=0 / rdoq-level=0 / dynamic-rd=0.00 / no-ssim-rd / signhide / no-tskip / nr-intra=0 / nr-inter=0 / no-constrained-intra / strong-intra-smoothing / max-merge=2 / limit-refs=3 / no-limit-modes / me=3 / subme=5 / merange=92 / temporal-mvp / weightp / weightb / no-analyze-src-pics / deblock=-3:-3 / sao / no-sao-non-deblock / rd=3 / no-early-skip / rskip / no-fast-intra / no-tskip-fast / no-cu-lossless / no-b-intra / no-splitrd-skip / rdpenalty=0 / psy-rd=2.00 / psy-rdoq=0.00 / no-rd-refine / no-lossless / cbqpoffs=0 / crqpoffs=0 / rc=crf / crf=19.0 / qcomp=0.70 / qpstep=4 / stats-write=0 / stats-read=0 / ipratio=1.40 / pbratio=1.30 / aq-mode=1 / aq-strength=1.00 / cutree / zone-count=0 / no-strict-cbr / qg-size=32 / no-rc-grain / qpmax=69 / qpmin=0 / no-const-vbv / sar=1 / overscan=0 / videoformat=5 / range=0 / colorprim=1 / transfer=1 / colormatrix=1 / chromaloc=0 / display-window=0 / max-cll=0,0 / min-luma=0 / max-luma=1023 / log2-max-poc-lsb=8 / vui-timing-info / vui-hrd-info / slices=1 / no-opt-qp-pps / no-opt-ref-list-length-pps / no-multi-pass-opt-rps / scenecut-bias=0.05 / no-opt-cu-delta-qp / no-aq-motion / no-hdr / no-hdr-opt / no-dhdr10-opt / no-idr-recovery-sei / analysis-reuse-level=5 / scale-factor=0 / refine-intra=0 / refine-inter=0 / refine-mv=0 / no-limit-sao / ctu-info=0 / no-lowpass-dct / refine-mv-type=0 / copy-pic=1 / max-ausize-factor=1.0 / no-dynamic-refine / no-single-sei
Default : Yes
Forced : No
Color range : Limited
Color primaries : BT.709
Transfer characteristics : BT.709
Matrix coefficients : BT.709

Audio #1
ID : 2
Format : AC-3
Format/Info : Audio Coding 3
Commercial name : Dolby Digital
Codec ID : A_AC3
Duration : 1 h 55 min
Bit rate mode : Constant
Bit rate : 640 kb/s
Channel(s) : 6 channels
Channel layout : L R C LFE Ls Rs
Sampling rate : 48.0 kHz
Frame rate : 31.250 FPS (1536 SPF)
Bit depth : 16 bits
Compression mode : Lossy
Stream size : 530 MiB (7%)
Language : Russian
Service kind : Complete Main
Default : Yes
Forced : No

Audio #2
ID : 3
Format : AC-3
Format/Info : Audio Coding 3
Commercial name : Dolby Digital
Codec ID : A_AC3
Duration : 1 h 55 min
Bit rate mode : Constant
Bit rate : 640 kb/s
Channel(s) : 6 channels
Channel layout : L R C LFE Ls Rs
Sampling rate : 48.0 kHz
Frame rate : 31.250 FPS (1536 SPF)
Bit depth : 16 bits
Compression mode : Lossy
Stream size : 530 MiB (7%)
Title : (А. Гаврилов)
Service kind : Complete Main
Default : No
Forced : No

Audio #3
ID : 4
Format : AC-3
Format/Info : Audio Coding 3
Commercial name : Dolby Digital
Codec ID : A_AC3
Duration : 1 h 55 min
Bit rate mode : Constant
Bit rate : 640 kb/s
Channel(s) : 6 channels
Channel layout : L R C LFE Ls Rs
Sampling rate : 48.0 kHz
Frame rate : 31.250 FPS (1536 SPF)
Bit depth : 16 bits
Compression mode : Lossy
Stream size : 530 MiB (7%)
Title : (Дмитрий «Гоблин» Пучков)
Service kind : Complete Main
Default : No
Forced : No

Audio #4
ID : 5
Format : AC-3
Format/Info : Audio Coding 3
Commercial name : Dolby Digital
Codec ID : A_AC3
Duration : 1 h 55 min
Bit rate mode : Constant
Bit rate : 640 kb/s
Channel(s) : 6 channels
Channel layout : L R C LFE Ls Rs
Sampling rate : 48.0 kHz
Frame rate : 31.250 FPS (1536 SPF)
Bit depth : 16 bits
Compression mode : Lossy
Stream size : 530 MiB (7%)
Title : (Ю. Живов)
Service kind : Complete Main
Default : No
Forced : No

Audio #5
ID : 6
Format : AC-3
Format/Info : Audio Coding 3
Commercial name : Dolby Digital
Codec ID : A_AC3
Duration : 1 h 55 min
Bit rate mode : Constant
Bit rate : 640 kb/s
Channel(s) : 6 channels
Channel layout : L R C LFE Ls Rs
Sampling rate : 48.0 kHz
Frame rate : 31.250 FPS (1536 SPF)
Bit depth : 16 bits
Compression mode : Lossy
Stream size : 530 MiB (7%)
Language : English
Service kind : Complete Main
Default : No
Forced : No

Text
ID : 7
Format : UTF-8
Codec ID : S_TEXT/UTF8
Codec ID/Info : UTF-8 Plain Text
Duration : 1 h 50 min
Bit rate : 61 b/s
Count of elements : 912
Stream size : 49.9 KiB (0%)
Language : Russian
Default : Yes
Forced : No
Cкриншот1 Чужой / Alien (1979) [Director's Cut] BDRip 1080p [HEVC] 10 bit от HANNIBAL
Загружается...
Cкриншот2 Чужой / Alien (1979) [Director's Cut] BDRip 1080p [HEVC] 10 bit от HANNIBAL
Загружается...
Cкриншот3 Чужой / Alien (1979) [Director's Cut] BDRip 1080p [HEVC] 10 bit от HANNIBAL
Загружается...
Cкриншот4 Чужой / Alien (1979) [Director's Cut] BDRip 1080p [HEVC] 10 bit от HANNIBAL
Загружается...
Сэмпл

Ссылки для скачивания доступны только зарегистрированным/авторизованным пользователям!

08.09.2018  22:58:19
17
990
5
0
7.25 ГБ

Добавление нового комментария

Добавление комментариев доступно только зарегистрированным/авторизованным пользователям.
Аватар Remontaz
  Remontaz  28.10.2018  15:16:29
Экселенц !!! Спасибо !!!
Аватар torrentzulu
  torrentzulu  12.09.2018  07:17:55
Большое спасибо за раздачу!
Аватар Cthulhu
  Cthulhu  10.09.2018  02:08:27
Святогуб писал(а):
А чем директорская отличается от театральной версии,продолжительность идентичная?
И эта ремастер?
https://www.movie-censorship.com/report.php?ID=2558663
Аватар vii2385
  vii2385  09.09.2018  20:16:17
Конечно спасибо,но и звук можно тоже было добавить хороший на выбор.
Аватар Святогуб
  Святогуб  09.09.2018  12:41:27
А чем директорская отличается от театральной версии,продолжительность идентичная?
И эта ремастер?
Аватар HANNIBAL
  HANNIBAL  09.09.2018  11:46:55
Nuclear70 писал(а):
Как всегда респект
Аватар Nuclear70
  Nuclear70  09.09.2018  11:33:12
Как всегда респект
Аватар Kaban
  Kaban  09.09.2018  08:23:02
Качество на высоте - спасибо большое! Одно плохо,что нет разбиения на главы
Аватар MakSIMus
  MakSIMus  09.09.2018  06:05:14
Класс, молодец, спасибо.
Аватар HANNIBAL
  HANNIBAL  09.09.2018  01:10:48
DjBadan писал(а):
качество рипа как всегда на высоте. забрал в коллекцию. спасибо
👍
Аватар DjBadan
  DjBadan  09.09.2018  01:08:47
качество рипа как всегда на высоте. забрал в коллекцию. спасибо
Аватар Aleks_DW
  Aleks_DW  08.09.2018  23:56:21
HANNIBAL писал(а):
осталось мне только застрелится😵
да нее, я же без претензий, все понимаю, у всех вкусы и запросы разные.
и за эту работу спасибо.
Аватар EiffeL
  EiffeL  08.09.2018  23:33:55
Какой грандиозный был фильм в мое детство:) Как быстро мы растем и проходит время ,уже свои дети и у них другие фильмы
Аватар PRO-USTAS
  PRO-USTAS  08.09.2018  23:28:00
огромное спасибо за качество все устраивает
Аватар Святогуб
  Святогуб  08.09.2018  23:25:40
Как обычно огромное спасибо!
Аватар HANNIBAL
  HANNIBAL  08.09.2018  23:21:06
Aleks_DW писал(а):
зря вы не оставили звук в DTS-HD MA, качество намного лучше чем АС3.
я понимаю, час начнется спор из за размера, но если смотреть на телике, то там всего два канала, то пойдет и в МР3.
осталось мне только застрелится😵
Аватар Aleks_DW
  Aleks_DW  08.09.2018  23:13:49
зря вы не оставили звук в DTS-HD MA, качество намного лучше чем АС3.
я понимаю, час начнется спор из за размера, но если смотреть на телике, то там всего два канала, то пойдет и в МР3.