Обложка Оно / It (2017) BDRip 1080p [HEVC] 10 bit от HANNIBALОбложка Эквилибриум / Equilibrium (2002) [Open Matte] BDRip 1080p [HEVC] 10 bit от HANNIBALОбложка Хакеры / Hackers (1995) [Remastered] BDRip 1080p [HEVC] 10 bit от CthulhuОбложка Чужой / Alien (1979) [Director's Cut] BDRip 1080p [HEVC] 10 bit от HANNIBALОбложка Rammstein - Paris (2017) BDRip 1080p [HEVC] 8 bit от CthulhuОбложка Отступники / The Departed (2006) [FR Transfer] BDRip 1080p [HEVC] 10 bit от HANNIBALОбложка Ты водишь! / Tag (2018) BDRip 1080p [HEVC] 10 bit от МичманОбложка В пасти безумия / In The Mouth Of Madness (1994) BDRip 1080p [HEVC] 10 bit от CthulhuОбложка Nightwish - Showtime, Storytime (2013) BDRip 1080p [HEVC] 8 bit от CthulhuОбложка Мир Юрского периода 2 / Jurassic World: Fallen Kingdom (2018) UHDRip 2160p [HEVC] 10 bit [HDR] от HANNIBAL

Авторизация

Смена пароля

captcha

Регистрация

captcha

Поиск

Оно / It (2017) BDRip 1080p [HEVC] 10 bit от HANNIBAL

Обложка Оно / It (2017) BDRip 1080p [HEVC] 10 bit от HANNIBAL Год: 2017
Страна: США
Студия: New Line Cinema, KatzSmith Productions, Lin Pictures, RatPac-Dune Entertainment, Vertigo Entertainment
Жанр: Ужасы
Продолжительность: 02:14:42

Режиссер: Андрес Мускетти
В ролях: Джейден Либерер, Джереми Рэй Тейлор, София Лиллис, Финн Вулфард, Чоузен Джейкобс, Джек Грейзер, Уайатт Олефф, Билл Скарсгард, Николас Хэмилтон, Джейк Сим, Логан Томпсон, Оуэн Тиг, Джексон Роберт Скотт, Стивен Богерт, Стюарт Хьюз

Описание: События разворачиваются в небольшой американской провинции. Жители городка Дерри обеспокоены, причиной тому – массовые исчезновения детей и жестокие убийства. Выясняется, что это дело рук озлобленного клоуна, который уже не одно столетие терроризирует город. В эпицентре происходящего оказывается группа подростков, которые вынуждены не только встретиться со своим страхом лицом к лицу, но и противостоять ему…


7.363113820
7.4
301458


Формат: MKV
Видео: 1920x800, 5977 Kbps
Аудио1: AC3, 6 ch, 448 Kbps - Русский, Дублированный (Лицензия)
Аудио2: AC3, 6 ch, 640 Kbps - Русский, Одноголосый (Чадов)
Аудио3: AC3, 6 ch, 640 Kbps - Русский, Одноголосый (Живов)
Аудио4: AC3, 6 ch, 640 Kbps - Русский, Одноголосый (Дольский)
Аудио5: AC3, 6 ch, 640 Kbps - Русский, Одноголосый (Чадов)
Аудио6: AC3, 6 ch, 640 Kbps - Русский, Одноголосый (Сербин)
Аудио7: AC3, 6 ch, 640 Kbps - Оригинал
Субтитры: Русские (форсированные, полные), Английские

Медиаинфо
General
Unique ID : 58274806704236224070524798600112149058 (0x2BD751CC4AE367573572943657A69242)
Complete name : E:\It (2017) BDRip 1080p [HEVC] 10bit.mkv
Format : Matroska
Format version : Version 4 / Version 2
File size : 9.66 GiB
Duration : 2 h 14 min
Overall bit rate : 10.3 Mb/s
Movie name : Оно. BDRemux.thx:SPOMOPS
Encoded date : UTC 2018-08-20 04:36:18
Writing application : mkvmerge v20.0.0 ('I Am The Sun') 64-bit
Writing library : libebml v1.3.5 + libmatroska v1.4.8 / Lavf57.71.100
Cover : Yes
Attachments : cover.jpg
ENCODING_INFO : MATROSKA,WEBM > MKV 1080p 10-bit / H264 > X265 VBR-2P 6000kbps Medium / AC3 > AC3 CBR 480kbps / DTS-HD MA > AC3 CBR 640kbps / DTS-HD MA > AC3 CBR 640kbps / DTS-HD MA > AC3 CBR 640kbps / AC3 > AC3 CBR 640kbps / AC3 > AC3 CBR 640kbps / DTS-HD MA > AC3 CBR 640kbps

Video
ID : 1
Format : HEVC
Format/Info : High Efficiency Video Coding
Format profile : Main 10@L5.1@Main
Codec ID : V_MPEGH/ISO/HEVC
Duration : 2 h 14 min
Bit rate : 5 977 kb/s
Width : 1 920 pixels
Height : 800 pixels
Display aspect ratio : 2.40:1
Frame rate mode : Constant
Frame rate : 23.976 (24000/1001) FPS
Color space : YUV
Chroma subsampling : 4:2:0
Bit depth : 10 bits
Bits/(Pixel*Frame) : 0.162
Stream size : 5.62 GiB (58%)
Title : MPEG-4 AVC, 23758 Кбит/с, 1920x1080
Writing library : x265 2.8+19-bcdc610cf5f0:[Windows][GCC 7.3.0][64 bit] 10bit
Encoding settings : cpuid=1049583 / frame-threads=5 / numa-pools=4 / wpp / no-pmode / no-pme / no-psnr / no-ssim / log-level=3 / input-csp=1 / input-res=1920x800 / interlace=0 / total-frames=0 / level-idc=51 / high-tier=1 / uhd-bd=0 / ref=5 / allow-non-conformance / no-repeat-headers / annexb / no-aud / no-hrd / info / hash=0 / no-temporal-layers / open-gop / min-keyint=24 / keyint=240 / gop-lookahead=0 / bframes=8 / b-adapt=2 / b-pyramid / bframe-bias=0 / rc-lookahead=20 / lookahead-slices=5 / scenecut=40 / radl=0 / no-intra-refresh / ctu=64 / min-cu-size=8 / no-rect / no-amp / max-tu-size=32 / tu-inter-depth=1 / tu-intra-depth=1 / limit-tu=0 / rdoq-level=0 / dynamic-rd=0.00 / no-ssim-rd / signhide / no-tskip / nr-intra=0 / nr-inter=0 / no-constrained-intra / strong-intra-smoothing / max-merge=2 / limit-refs=3 / no-limit-modes / me=3 / subme=7 / merange=57 / temporal-mvp / weightp / no-weightb / no-analyze-src-pics / deblock=-2:-2 / sao / no-sao-non-deblock / rd=3 / no-early-skip / rskip / no-fast-intra / no-tskip-fast / no-cu-lossless / no-b-intra / no-splitrd-skip / rdpenalty=0 / psy-rd=2.00 / psy-rdoq=0.00 / no-rd-refine / no-lossless / cbqpoffs=0 / crqpoffs=0 / rc=abr / bitrate=6000 / qcomp=0.60 / qpstep=4 / stats-write=0 / stats-read=1 / cplxblur=20.0 / qblur=0.5 / ipratio=1.40 / pbratio=1.30 / aq-mode=1 / aq-strength=1.00 / cutree / zone-count=0 / no-strict-cbr / qg-size=32 / no-rc-grain / qpmax=69 / qpmin=0 / no-const-vbv / sar=1 / overscan=0 / videoformat=5 / range=0 / colorprim=1 / transfer=1 / colormatrix=1 / chromaloc=0 / display-window=0 / max-cll=0,0 / min-luma=0 / max-luma=1023 / log2-max-poc-lsb=8 / vui-timing-info / vui-hrd-info / slices=1 / no-opt-qp-pps / no-opt-ref-list-length-pps / no-multi-pass-opt-rps / scenecut-bias=0.05 / no-opt-cu-delta-qp / no-aq-motion / no-hdr / no-hdr-opt / no-dhdr10-opt / no-idr-recovery-sei / analysis-reuse-level=5 / scale-factor=0 / refine-intra=0 / refine-inter=0 / refine-mv=0 / no-limit-sao / ctu-info=0 / no-lowpass-dct / refine-mv-type=0 / copy-pic=1 / max-ausize-factor=1.0 / no-dynamic-refine / no-single-sei
Language : English
Default : Yes
Forced : No
Color range : Limited
Color primaries : BT.709
Transfer characteristics : BT.709
Matrix coefficients : BT.709

Audio #1
ID : 2
Format : AC-3
Format/Info : Audio Coding 3
Codec ID : A_AC3
Duration : 2 h 14 min
Bit rate mode : Constant
Bit rate : 448 kb/s
Channel(s) : 6 channels
Channel positions : Front: L C R, Side: L R, LFE
Sampling rate : 48.0 kHz
Frame rate : 31.250 FPS (1536 SPF)
Bit depth : 16 bits
Compression mode : Lossy
Stream size : 432 MiB (4%)
Title : Русский ас3 - Дубляж
Language : Russian
Service kind : Complete Main
Default : Yes
Forced : No

Audio #2
ID : 3
Format : AC-3
Format/Info : Audio Coding 3
Codec ID : A_AC3
Duration : 2 h 14 min
Bit rate mode : Constant
Bit rate : 640 kb/s
Channel(s) : 6 channels
Channel positions : Front: L C R, Side: L R, LFE
Sampling rate : 48.0 kHz
Frame rate : 31.250 FPS (1536 SPF)
Bit depth : 16 bits
Compression mode : Lossy
Stream size : 617 MiB (6%)
Title : Русский DTS-HD MA - АП (Чадов)
Language : Russian
Service kind : Complete Main
Default : No
Forced : No

Audio #3
ID : 4
Format : AC-3
Format/Info : Audio Coding 3
Codec ID : A_AC3
Duration : 2 h 14 min
Bit rate mode : Constant
Bit rate : 640 kb/s
Channel(s) : 6 channels
Channel positions : Front: L C R, Side: L R, LFE
Sampling rate : 48.0 kHz
Frame rate : 31.250 FPS (1536 SPF)
Bit depth : 16 bits
Compression mode : Lossy
Stream size : 617 MiB (6%)
Title : Русский DTS-HD MA - АП (Живов)
Language : Russian
Service kind : Complete Main
Default : No
Forced : No

Audio #4
ID : 5
Format : AC-3
Format/Info : Audio Coding 3
Codec ID : A_AC3
Duration : 2 h 14 min
Bit rate mode : Constant
Bit rate : 640 kb/s
Channel(s) : 6 channels
Channel positions : Front: L C R, Side: L R, LFE
Sampling rate : 48.0 kHz
Frame rate : 31.250 FPS (1536 SPF)
Bit depth : 16 bits
Compression mode : Lossy
Stream size : 617 MiB (6%)
Title : Русский DTS-HD MA - АП (Дольский)
Language : Russian
Service kind : Complete Main
Default : No
Forced : No

Audio #5
ID : 6
Format : AC-3
Format/Info : Audio Coding 3
Codec ID : A_AC3
Duration : 2 h 14 min
Bit rate mode : Constant
Bit rate : 640 kb/s
Channel(s) : 6 channels
Channel positions : Front: L C R, Side: L R, LFE
Sampling rate : 48.0 kHz
Frame rate : 31.250 FPS (1536 SPF)
Bit depth : 16 bits
Compression mode : Lossy
Stream size : 617 MiB (6%)
Title : Русский ас3 - АП (Чадов)
Language : Russian
Service kind : Complete Main
Default : No
Forced : No

Audio #6
ID : 7
Format : AC-3
Format/Info : Audio Coding 3
Codec ID : A_AC3
Duration : 2 h 14 min
Bit rate mode : Constant
Bit rate : 640 kb/s
Channel(s) : 6 channels
Channel positions : Front: L C R, Side: L R, LFE
Sampling rate : 48.0 kHz
Frame rate : 31.250 FPS (1536 SPF)
Bit depth : 16 bits
Compression mode : Lossy
Stream size : 617 MiB (6%)
Title : Русский ас3 - АП (Сербин)
Language : Russian
Service kind : Complete Main
Default : No
Forced : No

Audio #7
ID : 8
Format : AC-3
Format/Info : Audio Coding 3
Codec ID : A_AC3
Duration : 2 h 14 min
Bit rate mode : Constant
Bit rate : 640 kb/s
Channel(s) : 6 channels
Channel positions : Front: L C R, Side: L R, LFE
Sampling rate : 48.0 kHz
Frame rate : 31.250 FPS (1536 SPF)
Bit depth : 16 bits
Compression mode : Lossy
Stream size : 617 MiB (6%)
Title : Английский DTS-HD MA - Оригинал
Language : English
Service kind : Complete Main
Default : No
Forced
Cкриншот1 Оно / It (2017) BDRip 1080p [HEVC] 10 bit от HANNIBAL
Загружается...
Cкриншот2 Оно / It (2017) BDRip 1080p [HEVC] 10 bit от HANNIBAL
Загружается...
Cкриншот3 Оно / It (2017) BDRip 1080p [HEVC] 10 bit от HANNIBAL
Загружается...
Cкриншот4 Оно / It (2017) BDRip 1080p [HEVC] 10 bit от HANNIBAL
Загружается...
Сэмпл

Ссылки для скачивания доступны только зарегистрированным/авторизованным пользователям!

20.08.2018
11
1969
26
4
9.66 ГБ
Аватар DSIO
  DSIO  20.08.2018  08:06:53
Спасибо
Аватар igor302
  igor302  20.08.2018  09:10:35
Большое спасибо!
Аватар Kaban
  Kaban  20.08.2018  16:48:06
Ну и размерчик!!!
Аватар aksaleale
  aksaleale  20.08.2018  19:38:33
Kaban писал(а):
Ну и размерчик!!!
удали дорожки и будет норм, проблема то в чем?
Аватар PortalX3
  PortalX3  20.08.2018  19:56:24
То чувство, когда у тебя есть собственный рип в 4К, который весит 5,31 гиг
Аватар Студень
  Студень  20.08.2018  21:27:48
Кстати о дорожках. 2-ая и 5-ая меня как-то смущают
Аватар Студень
  Студень  20.08.2018  21:58:36
PortalX3 писал(а):
То чувство, когда у тебя есть собственный рип в 4К, который весит 5,31 гиг
наверно ужас ещё тот
Аватар PortalX3
  PortalX3  21.08.2018  01:14:46
Разумеется, твои глаза кровоточить будут от увиденного:
https://image.ibb.co/kSQztK/1.png
Но мне, если честно, уже фиолетово на вашу критику. Больше ни у кого нет 4К-рипа размером менее 6 гигов, да ещё с HDR, да ещё и 12-битного.
Аватар Pennywise
  Pennywise  21.08.2018  07:21:51
Рип в 4К не как не может столько весить! UHD весит больше 70GB! У меня Ремуксы 4K с 1ой дор весят по 40GB!
Аватар Студень
  Студень  21.08.2018  08:15:28
Pennywise писал(а):
Рип в 4К не как не может столько весить! UHD весит больше 70GB! У меня Ремуксы 4K с 1ой дор весят по 40GB!
у него могут. он думает, что это круто
Аватар DjBadan
  DjBadan  21.09.2018  16:51:29
Pennywise писал(а):
Рип в 4К не как не может столько весить! UHD весит больше 70GB! У меня Ремуксы 4K с 1ой дор весят по 40GB!
Вообще, HEVC может. Если в исходнике нет шума и зерна (совсем нет), то можно срипить гигов на 10 (с одной дорогой). Качество будет хорошее, но не супер. А если говорить о мультфильмах, то там и вовсе. У меня Аладдин 4к без потерь вообще, весит 4 гб.

Добавление нового комментария

Добавление комментариев доступно только зарегистрированным/авторизованным пользователям.