Обложка Оно / It (2017) BDRip 1080p [HEVC] 10 bit от HANNIBALОбложка Эквилибриум / Equilibrium (2002) [Open Matte] BDRip 1080p [HEVC] 10 bit от HANNIBALОбложка Чужой / Alien (1979) [Director's Cut] BDRip 1080p [HEVC] 10 bit от HANNIBALОбложка Rammstein - Paris (2017) BDRip 1080p [HEVC] 8 bit от CthulhuОбложка Хакеры / Hackers (1995) [Remastered] BDRip 1080p [HEVC] 10 bit от CthulhuОбложка Отступники / The Departed (2006) [FR Transfer] BDRip 1080p [HEVC] 10 bit от HANNIBALОбложка Другой мир: Антология / Underworld: Anthology (2003-2016) BDRip 1080р [HEVC] 10 bit от CthulhuОбложка Nightwish - Showtime, Storytime (2013) BDRip 1080p [HEVC] 8 bit от CthulhuОбложка Мир Юрского периода 2 / Jurassic World: Fallen Kingdom (2018) BDRip 1080p [HEVC] 10 bit от M@kSIMusОбложка Ты водишь! / Tag (2018) BDRip 1080p [HEVC] 10 bit от Мичман

Авторизация

Смена пароля

captcha

Регистрация

captcha

Поиск

Робин Гуд / Robin Hood (2010) [Director's Cut] BDRip 1080p [HEVC] 10 bit от Cthulhu

Обложка Робин Гуд / Robin Hood (2010) [Director's Cut] BDRip 1080p [HEVC] 10 bit от Cthulhu Год: 2010
Страна: США, Великобритания
Студия: Universal Pictures, Imagine Entertainment, Relativity Media, Scott Free Productions
Жанр: Боевик, Драма, История, Приключения
Продолжительность: 02:35:48

Режиссер: Ридли Скотт
В ролях: Расселл Кроу, Кейт Бланшетт, Макс фон Сюдов, Уильям Хёрт, Марк Стронг, Оскар Айзек, Дэнни Хьюстон, Айлин Эткинс, Марк Эдди, Мэттью Макфейден

Описание: Сюжет фильма «Робин Гуд» развивается в средневековой Англии, в смутные времена. Главный герой является отважным и храбрым лучником по имени Робин Гуд. Он служил в армии Ричарда Львиное Сердце. Кроль Ричард со своей армией штурмует французский замок. Во время боя король получает смертельную травму. Перед смертью он успевает передать свой меч Робин Гуду, чтобы тот отвез его к отцу в Ноттингем. В это же время один из солдат армии Ричарда везет корону умершего короля в Англию, чтобы передать ее новому правителю. На солдата нападают и подоспевший Робин успевает отбить корону. Приехав в Англию главный герой подвергается предательству, которого он никогда не простит…


7.18277554
6.7
231903


Формат: MKV
Видео: 1920x800, 6275 Kbps
Аудио1: AC3, 6 ch, 448 Kbps - Русский, Дублированный (Лицензия)
Аудио2: AC3, 6 ch, 448 Kbps - Русский, Авторский одноголосый (Гаврилов)
Аудио3: AC3, 6 ch, 448 Kbps - Русский, Авторский одноголосый (Немахов)
Аудио4: AC3, 6 ch, 448 Kbps - Оригинал
Субтитры: Русские (форсированные, полные), английские

Медиаинфо
General
Unique ID : 217405674513871242729264297260913924749 (0xA38ECF5327B82BF6837EF843ADE61A8D)
Complete name : F:\HEVC\Robin Hood (2010) [Directors Cut] BDRip 1080p [HEVC] 10Bit_Cthulhu.mkv
Format : Matroska
Format version : Version 4 / Version 2
File size : 8.78 GiB
Duration : 2 h 35 min
Overall bit rate : 8 070 kb/s
Movie name : Robin Hood (2010)_rip_by_Cthulhu
Encoded date : UTC 2018-08-18 13:07:57
Writing application : mkvmerge v18.0.0 ('Apricity') 64-bit
Writing library : libebml v1.3.5 + libmatroska v1.4.8
Cover : Yes
Attachments : cover.jpg

Video
ID : 1
Format : HEVC
Format/Info : High Efficiency Video Coding
Format profile : Main 10@L4.1@High
Codec ID : V_MPEGH/ISO/HEVC
Duration : 2 h 35 min
Bit rate : 6 275 kb/s
Width : 1 920 pixels
Height : 800 pixels
Display aspect ratio : 2.40:1
Frame rate mode : Constant
Frame rate : 23.976 (24000/1001) FPS
Color space : YUV
Chroma subsampling : 4:2:0
Bit depth : 10 bits
Bits/(Pixel*Frame) : 0.170
Stream size : 6.83 GiB (78%)
Writing library : x265 2.8+49-5d34bbf671f7:[Windows][GCC 8.1.1][64 bit] 10bit
Encoding settings : cpuid=1049583 / frame-threads=4 / numa-pools=4 / wpp / no-pmode / no-pme / no-psnr / no-ssim / log-level=2 / input-csp=1 / input-res=1920x800 / interlace=0 / total-frames=224144 / level-idc=41 / high-tier=1 / uhd-bd=0 / ref=5 / no-allow-non-conformance / no-repeat-headers / annexb / no-aud / no-hrd / info / hash=0 / no-temporal-layers / open-gop / min-keyint=23 / keyint=240 / gop-lookahead=0 / bframes=8 / b-adapt=2 / b-pyramid / bframe-bias=0 / rc-lookahead=40 / lookahead-slices=4 / scenecut=40 / radl=0 / no-intra-refresh / ctu=64 / min-cu-size=8 / rect / amp / max-tu-size=32 / tu-inter-depth=3 / tu-intra-depth=3 / limit-tu=4 / rdoq-level=1 / dynamic-rd=0.00 / no-ssim-rd / signhide / no-tskip / nr-intra=0 / nr-inter=0 / no-constrained-intra / no-strong-intra-smoothing / max-merge=3 / limit-refs=2 / limit-modes / me=3 / subme=7 / merange=57 / temporal-mvp / weightp / weightb / no-analyze-src-pics / deblock=-3:-3 / no-sao / no-sao-non-deblock / rd=4 / no-early-skip / rskip / no-fast-intra / no-tskip-fast / no-cu-lossless / no-b-intra / no-splitrd-skip / rdpenalty=0 / psy-rd=2.00 / psy-rdoq=1.00 / no-rd-refine / no-lossless / cbqpoffs=0 / crqpoffs=0 / rc=crf / crf=19.0 / qcomp=0.60 / qpstep=4 / stats-write=0 / stats-read=0 / vbv-maxrate=50000 / vbv-bufsize=50000 / vbv-init=0.9 / crf-max=0.0 / crf-min=0.0 / ipratio=1.40 / pbratio=1.30 / aq-mode=1 / aq-strength=0.80 / cutree / zone-count=0 / no-strict-cbr / qg-size=32 / no-rc-grain / qpmax=69 / qpmin=0 / no-const-vbv / sar=1 / overscan=0 / videoformat=5 / range=0 / colorprim=1 / transfer=1 / colormatrix=1 / chromaloc=0 / display-window=0 / max-cll=0,0 / min-luma=0 / max-luma=1023 / log2-max-poc-lsb=8 / vui-timing-info / vui-hrd-info / slices=1 / no-opt-qp-pps / no-opt-ref-list-length-pps / no-multi-pass-opt-rps / scenecut-bias=0.05 / no-opt-cu-delta-qp / no-aq-motion / no-hdr / no-hdr-opt / no-dhdr10-opt / no-idr-recovery-sei / analysis-reuse-level=5 / scale-factor=0 / refine-intra=0 / refine-inter=0 / refine-mv=0 / no-limit-sao / ctu-info=0 / no-lowpass-dct / refine-mv-type=0 / copy-pic=1 / max-ausize-factor=1.0 / no-dynamic-refine / no-single-sei
Language : English
Default : Yes
Forced : No
Color range : Limited
Color primaries : BT.709
Transfer characteristics : BT.709
Matrix coefficients : BT.709

Audio #1
ID : 2
Format : AC-3
Format/Info : Audio Coding 3
Codec ID : A_AC3
Duration : 2 h 35 min
Bit rate mode : Constant
Bit rate : 448 kb/s
Channel(s) : 6 channels
Channel positions : Front: L C R, Side: L R, LFE
Sampling rate : 48.0 kHz
Frame rate : 31.250 FPS (1536 SPF)
Bit depth : 16 bits
Compression mode : Lossy
Stream size : 499 MiB (6%)
Title : Дублированный
Language : Russian
Service kind : Complete Main
Default : Yes
Forced : No

Audio #2
ID : 3
Format : AC-3
Format/Info : Audio Coding 3
Codec ID : A_AC3
Duration : 2 h 35 min
Bit rate mode : Constant
Bit rate : 448 kb/s
Channel(s) : 6 channels
Channel positions : Front: L C R, Side: L R, LFE
Sampling rate : 48.0 kHz
Frame rate : 31.250 FPS (1536 SPF)
Bit depth : 16 bits
Compression mode : Lossy
Stream size : 499 MiB (6%)
Title : Авторский А.Гаврилов
Language : Russian
Service kind : Complete Main
Default : No
Forced : No

Audio #3
ID : 4
Format : AC-3
Format/Info : Audio Coding 3
Codec ID : A_AC3
Duration : 2 h 35 min
Bit rate mode : Constant
Bit rate : 448 kb/s
Channel(s) : 6 channels
Channel positions : Front: L C R, Side: L R, LFE
Sampling rate : 48.0 kHz
Frame rate : 31.250 FPS (1536 SPF)
Bit depth : 16 bits
Compression mode : Lossy
Stream size : 499 MiB (6%)
Title : Авторский Ю.Немахов
Language : Russian
Service kind : Complete Main
Default : No
Forced : No

Audio #4
ID : 5
Format : AC-3
Format/Info : Audio Coding 3
Codec ID : A_AC3
Duration : 2 h 35 min
Bit rate mode : Constant
Bit rate : 448 kb/s
Channel(s) : 6 channels
Channel positions : Front: L C R, Side: L R, LFE
Sampling rate : 48.0 kHz
Frame rate : 31.250 FPS (1536 SPF)
Bit depth : 16 bits
Compression mode : Lossy
Stream size : 499 MiB (6%)
Title : Оригинал
Language : English
Service kind : Complete Main
Default : No
Forced : No

Text #1
ID : 6
Format : UTF-8
Codec ID : S_TEXT/UTF8
Codec ID/Info : UTF-8 Plain Text
Duration : 2 h 26 min
Bit rate : 2 b/s
Count of elements : 99
Stream size : 2.91 KiB (0%)
Title : Rus forced
Language : Russian
Default : No
Forced : No

Text #2
ID : 7
Format : UTF-8
Codec ID : S_TEXT/UTF8
Codec ID/Info : UTF-8 Plain Text
Duration : 2 h 26 min
Bit rate : 67 b/s
Count of elements : 1647
Stream size : 72.0 KiB (0%)
Title : Rus full
Language : Russian
Default : No
Forced : No

Text #3
ID : 8
Format : UTF-8
Codec ID : S_TEXT/UTF8
Codec ID/Info : UTF-8 Plain Text
Duration : 2 h 28 min
Bit rate : 42 b/s
Count of elements : 1590
Stream size : 46.4 KiB (0%)
Title : full
Language : English
Default : No
Forced : No

Menu
00:00:00.000 : :Chapter 01
00:12:05.974 : :Chapter 02
00:18:27.440 : :Chapter 03
00:25:11.552 : :Chapter 04
00:33:31.426 : :Chapter 05
00:38:36.981 : :Chapter 06
00:48:42.585 : :Chapter 07
00:57:11.887 : :Chapter 08
01:04:14.309 : :Chapter 09
01:10:41.612 : :Chapter 10
01:23:24.624 : :Chapter 11
01:32:17.115 : :Chapter 12
01:40:30.149 : :Chapter 13
01:49:15.881 : :Chapter 14
01:56:06.418 : :Chapter 15
02:02:29.091 : :Chapter 16
02:09:20.669 : :Chapter 17
02:18:21.418 : :Chapter 18
02:22:48.685 : :Chapter 19
02:27:08.611 : :Chapter 20
Cкриншот1 Робин Гуд / Robin Hood (2010) [Director's Cut] BDRip 1080p [HEVC] 10 bit от Cthulhu
Загружается...
Cкриншот2 Робин Гуд / Robin Hood (2010) [Director's Cut] BDRip 1080p [HEVC] 10 bit от Cthulhu
Загружается...
Cкриншот3 Робин Гуд / Robin Hood (2010) [Director's Cut] BDRip 1080p [HEVC] 10 bit от Cthulhu
Загружается...
Cкриншот4 Робин Гуд / Robin Hood (2010) [Director's Cut] BDRip 1080p [HEVC] 10 bit от Cthulhu
Загружается...
Сэмпл

Ссылки для скачивания доступны только зарегистрированным/авторизованным пользователям!

18.08.2018
4
1547
9
0
8.78 ГБ
Аватар ADVOKAT69
  ADVOKAT69  18.08.2018  20:24:22
Алексей спасибо за хорошее кино в качестве!Давно хотел!
Аватар HANNIBAL
  HANNIBAL  18.08.2018  22:16:14
ADVOKAT69 писал(а):
Алексей спасибо за хорошее кино в качестве!Давно хотел!
и от меня Спасибо!!!
Аватар Святогуб
  Святогуб  19.08.2018  17:36:23
А зачем два одинаковых релиза?
Аватар Cthulhu
  Cthulhu  19.08.2018  18:18:49
Святогуб писал(а):
А зачем два одинаковых релиза?
Они не одинаковые. А политика администрации - больше выбора для пользователей. Да и как же вы Аватара проморгали?

Добавление нового комментария

Добавление комментариев доступно только зарегистрированным/авторизованным пользователям.