Обложка Оно / It (2017) BDRip 1080p [HEVC] 10 bit от HANNIBALОбложка Эквилибриум / Equilibrium (2002) [Open Matte] BDRip 1080p [HEVC] 10 bit от HANNIBALОбложка Чужой / Alien (1979) [Director's Cut] BDRip 1080p [HEVC] 10 bit от HANNIBALОбложка Rammstein - Paris (2017) BDRip 1080p [HEVC] 8 bit от CthulhuОбложка Хакеры / Hackers (1995) [Remastered] BDRip 1080p [HEVC] 10 bit от CthulhuОбложка Отступники / The Departed (2006) [FR Transfer] BDRip 1080p [HEVC] 10 bit от HANNIBALОбложка Nightwish - Showtime, Storytime (2013) BDRip 1080p [HEVC] 8 bit от CthulhuОбложка Мир Юрского периода 2 / Jurassic World: Fallen Kingdom (2018) BDRip 1080p [HEVC] 10 bit от M@kSIMusОбложка Ты водишь! / Tag (2018) BDRip 1080p [HEVC] 10 bit от МичманОбложка В пасти безумия / In The Mouth Of Madness (1994) BDRip 1080p [HEVC] 10 bit от Cthulhu

Авторизация

Смена пароля

captcha

Регистрация

captcha

Поиск

Хакеры / Hackers (1995) [Remastered] BDRip 1080p [HEVC] 10 bit от Cthulhu

Обложка Хакеры / Hackers (1995) [Remastered] BDRip 1080p [HEVC] 10 bit от Cthulhu Год: 1995
Страна: США
Студия: Suftley, United Artists
Жанр: Триллер, Драма, Комедия, Криминал
Продолжительность: 01:45:16

Режиссер: Иэн Софтли
В ролях: Джонни Ли Миллер, Анджелина Джоли, Джесси Брэдфорд, Мэттью Лиллард, Лоуренс Мэйсон, Реноли Сантьяго, Фишер Стивенс, Альберта Уотсон, Даррен Ли, Питер Й. Ким

Описание: Развлекаясь манипуляциями в коммерческих сетях, начинающий хакер делает почти невозможное: взламывает защиту секретного компьютера «Гибсон» в корпорации «Эллингсон». При этом он случайно подключается к схеме хищения средств, искусно замаскированной кем-то под компьютерный вирус, действие которого может привести к глобальной экологической катастрофе. Молодой хакер и его приятели в доли секунды превращаются в подозреваемых. Охоту за ними начинает ФБР и главный компьютерщик корпорации «Эллингтон» по кличке Чума. Однако молодые хакеры раскрывают губительность истинных планов Чумы и объединяют свои технические знания, чтобы запустить массированную киберпространственную атаку, которая должна очистить их от подозрений и предотвратить экологическую катастрофу.


7.11421388
6.2
58676


Формат: MKV
Видео: 1920x820, 6876 Kbps
Аудио1: AC3, 6 ch, 384 Kbps - Русский, Двухголосый (HTB+)
Аудио2: AC3, 2 ch, 192 Kbps - Русский, Дублированный
Аудио3: AC3, 2 ch, 192 Kbps - Русский, Многоголосый (HTB)
Аудио4: AC3, 2 ch, 192 Kbps - Русский, Многоголосый (CTC)
Аудио5: AC3, 2 ch, 192 Kbps - Русский, Многоголосый (TV1000)
Аудио6: AC3, 6 ch, 384 Kbps - Русский, Одноголосый (П. Карцев)
Аудио7: AC3, 6 ch, 384 Kbps - Русский, Одноголосый (С. Визгунов)
Аудио8: AC3, 6 ch, 448 Kbps - Английский, Оригинал
Субтитры: Русские, английские

Медиаинфо
General
Unique ID : 129101772591417311786100698764900988017 (0x612018D312DA4043698E34117DA67471)
Complete name : F:\HEVC\Hackers (1995) [Remastered] BDRip 1080p [HEVC] 10Bit_Cthulhu.mkv
Format : Matroska
Format version : Version 4 / Version 2
File size : 6.80 GiB
Duration : 1 h 45 min
Overall bit rate : 9 248 kb/s
Movie name : rip_by_Cthulhu
Encoded date : UTC 2018-09-04 17:01:53
Writing application : mkvmerge v24.0.0 ('Beyond The Pale') 64-bit
Writing library : libebml v1.3.6 + libmatroska v1.4.9
Cover : Yes
Attachments : cover.jpg

Video
ID : 1
Format : HEVC
Format/Info : High Efficiency Video Coding
Format profile : Main 10@L4.1@High
Codec ID : V_MPEGH/ISO/HEVC
Duration : 1 h 45 min
Bit rate : 6 876 kb/s
Width : 1 920 pixels
Height : 820 pixels
Display aspect ratio : 2.35:1
Frame rate mode : Constant
Frame rate : 24.000 FPS
Color space : YUV
Chroma subsampling : 4:2:0
Bit depth : 10 bits
Bits/(Pixel*Frame) : 0.182
Stream size : 5.06 GiB (74%)
Writing library : x265 2.8+49-5d34bbf671f7:[Windows][GCC 8.1.1][64 bit] 10bit
Encoding settings : cpuid=1176575 / frame-threads=4 / numa-pools=16 / wpp / no-pmode / no-pme / no-psnr / no-ssim / log-level=2 / input-csp=1 / input-res=1920x820 / interlace=0 / total-frames=151580 / level-idc=41 / high-tier=1 / uhd-bd=0 / ref=5 / no-allow-non-conformance / no-repeat-headers / annexb / no-aud / no-hrd / info / hash=0 / no-temporal-layers / open-gop / min-keyint=24 / keyint=240 / gop-lookahead=0 / bframes=8 / b-adapt=2 / b-pyramid / bframe-bias=0 / rc-lookahead=60 / lookahead-slices=4 / scenecut=40 / radl=0 / no-intra-refresh / ctu=64 / min-cu-size=8 / rect / amp / max-tu-size=32 / tu-inter-depth=3 / tu-intra-depth=3 / limit-tu=4 / rdoq-level=1 / dynamic-rd=0.00 / no-ssim-rd / signhide / no-tskip / nr-intra=0 / nr-inter=0 / no-constrained-intra / no-strong-intra-smoothing / max-merge=4 / limit-refs=2 / limit-modes / me=3 / subme=7 / merange=57 / temporal-mvp / weightp / weightb / no-analyze-src-pics / deblock=-3:-3 / no-sao / no-sao-non-deblock / rd=6 / no-early-skip / rskip / no-fast-intra / no-tskip-fast / no-cu-lossless / b-intra / no-splitrd-skip / rdpenalty=0 / psy-rd=2.00 / psy-rdoq=1.00 / no-rd-refine / no-lossless / cbqpoffs=0 / crqpoffs=0 / rc=crf / crf=18.5 / qcomp=0.60 / qpstep=4 / stats-write=0 / stats-read=0 / vbv-maxrate=50000 / vbv-bufsize=50000 / vbv-init=0.9 / crf-max=0.0 / crf-min=0.0 / ipratio=1.40 / pbratio=1.30 / aq-mode=1 / aq-strength=1.00 / cutree / zone-count=0 / no-strict-cbr / qg-size=32 / no-rc-grain / qpmax=69 / qpmin=0 / no-const-vbv / sar=1 / overscan=0 / videoformat=5 / range=0 / colorprim=1 / transfer=1 / colormatrix=1 / chromaloc=0 / display-window=0 / max-cll=0,0 / min-luma=0 / max-luma=1023 / log2-max-poc-lsb=8 / vui-timing-info / vui-hrd-info / slices=1 / no-opt-qp-pps / no-opt-ref-list-length-pps / no-multi-pass-opt-rps / scenecut-bias=0.05 / no-opt-cu-delta-qp / no-aq-motion / no-hdr / no-hdr-opt / no-dhdr10-opt / no-idr-recovery-sei / analysis-reuse-level=5 / scale-factor=0 / refine-intra=0 / refine-inter=0 / refine-mv=0 / no-limit-sao / ctu-info=0 / no-lowpass-dct / refine-mv-type=0 / copy-pic=1 / max-ausize-factor=1.0 / no-dynamic-refine / no-single-sei
Language : English
Default : Yes
Forced : No
Color range : Limited
Color primaries : BT.709
Transfer characteristics : BT.709
Matrix coefficients : BT.709

Audio #1
ID : 2
Format : AC-3
Format/Info : Audio Coding 3
Commercial name : Dolby Digital
Codec ID : A_AC3
Duration : 1 h 45 min
Bit rate mode : Constant
Bit rate : 384 kb/s
Channel(s) : 6 channels
Channel layout : L R C LFE Ls Rs
Sampling rate : 48.0 kHz
Frame rate : 31.250 FPS (1536 SPF)
Bit depth : 16 bits
Compression mode : Lossy
Stream size : 289 MiB (4%)
Title : DVO [HTB+]
Language : Russian
Service kind : Complete Main
Default : Yes
Forced : No

Audio #2
ID : 3
Format : AC-3
Format/Info : Audio Coding 3
Commercial name : Dolby Digital
Codec ID : A_AC3
Duration : 1 h 45 min
Bit rate mode : Constant
Bit rate : 192 kb/s
Channel(s) : 2 channels
Channel layout : L R
Sampling rate : 48.0 kHz
Frame rate : 31.250 FPS (1536 SPF)
Bit depth : 16 bits
Compression mode : Lossy
Stream size : 144 MiB (2%)
Title : DUB
Language : Russian
Service kind : Complete Main
Default : No
Forced : No

Audio #3
ID : 4
Format : AC-3
Format/Info : Audio Coding 3
Commercial name : Dolby Digital
Codec ID : A_AC3
Duration : 1 h 45 min
Bit rate mode : Constant
Bit rate : 192 kb/s
Channel(s) : 2 channels
Channel layout : L R
Sampling rate : 48.0 kHz
Frame rate : 31.250 FPS (1536 SPF)
Bit depth : 16 bits
Compression mode : Lossy
Stream size : 145 MiB (2%)
Title : MVO [HTB]
Language : Russian
Service kind : Complete Main
Default : No
Forced : No

Audio #4
ID : 5
Format : AC-3
Format/Info : Audio Coding 3
Commercial name : Dolby Digital
Codec ID : A_AC3
Duration : 1 h 45 min
Bit rate mode : Constant
Bit rate : 192 kb/s
Channel(s) : 2 channels
Channel layout : L R
Sampling rate : 48.0 kHz
Frame rate : 31.250 FPS (1536 SPF)
Bit depth : 16 bits
Compression mode : Lossy
Stream size : 145 MiB (2%)
Title : MVO [CTC]
Language : Russian
Service kind : Complete Main
Default : No
Forced : No

Audio #5
ID : 6
Format : AC-3
Format/Info : Audio Coding 3
Commercial name : Dolby Digital
Codec ID : A_AC3
Duration : 1 h 45 min
Bit rate mode : Constant
Bit rate : 192 kb/s
Channel(s) : 2 channels
Channel layout : L R
Sampling rate : 48.0 kHz
Frame rate : 31.250 FPS (1536 SPF)
Bit depth : 16 bits
Compression mode : Lossy
Stream size : 144 MiB (2%)
Title : MVO [TV1000]
Language : Russian
Service kind : Complete Main
Default : No
Forced : No

Audio #6
ID : 7
Format : AC-3
Format/Info : Audio Coding 3
Commercial name : Dolby Digital
Codec ID : A_AC3
Duration : 1 h 45 min
Bit rate mode : Constant
Bit rate : 384 kb/s
Channel(s) : 6 channels
Channel layout : L R C LFE Ls Rs
Sampling rate : 48.0 kHz
Frame rate : 31.250 FPS (1536 SPF)
Bit depth : 16 bits
Compression mode : Lossy
Stream size : 289 MiB (4%)
Title : AVO [П. Карцев]
Language : Russian
Service kind : Complete Main
Default : No
Forced : No

Audio #7
ID : 8
Format : AC-3
Format/Info : Audio Coding 3
Commercial name : Dolby Digital
Codec ID : A_AC3
Duration : 1 h 45 min
Bit rate mode : Constant
Bit rate : 384 kb/s
Channel(s) : 6 channels
Channel layout : L R C LFE Ls Rs
Sampling rate : 48.0 kHz
Frame rate : 31.250 FPS (1536 SPF)
Bit depth : 16 bits
Compression mode : Lossy
Stream size : 289 MiB (4%)
Title : AVO [С.Визгунов]
Language : Russian
Service kind : Complete Main
Default : No
Forced : No

Audio #8
ID : 9
Format : AC-3
Format/Info : Audio Coding 3
Commercial name : Dolby Digital
Codec ID : A_AC3
Duration : 1 h 45 min
Bit rate mode : Constant
Bit rate : 448 kb/s
Channel(s) : 6 channels
Channel layout : L R C LFE Ls Rs
Sampling rate : 48.0 kHz
Frame rate : 31.250 FPS (1536 SPF)
Bit depth : 16 bits
Compression mode : Lossy
Stream size : 337 MiB (5%)
Language : English
Service kind : Complete Main
Default : No
Forced : No

Text #1
ID : 10
Format : UTF-8
Codec ID : S_TEXT/UTF8
Codec ID/Info : UTF-8 Plain Text
Duration : 1 h 38 min
Bit rate : 95 b/s
Count of elements : 1083
Stream size : 69.2 KiB (0%)
Language : Russian
Default : No
Forced : No

Text #2
ID : 11
Format : UTF-8
Codec ID : S_TEXT/UTF8
Codec ID/Info : UTF-8 Plain Text
Duration : 1 h 41 min
Bit rate : 65 b/s
Count of elements
Cкриншот1 Хакеры / Hackers (1995) [Remastered] BDRip 1080p [HEVC] 10 bit от Cthulhu
Загружается...
Cкриншот2 Хакеры / Hackers (1995) [Remastered] BDRip 1080p [HEVC] 10 bit от Cthulhu
Загружается...
Cкриншот3 Хакеры / Hackers (1995) [Remastered] BDRip 1080p [HEVC] 10 bit от Cthulhu
Загружается...
Cкриншот4 Хакеры / Hackers (1995) [Remastered] BDRip 1080p [HEVC] 10 bit от Cthulhu
Загружается...
Сэмпл

Ссылки для скачивания доступны только зарегистрированным/авторизованным пользователям!

04.09.2018
5
542
15
1
6.8 ГБ
Аватар joker63
  joker63  04.09.2018  22:45:14
Спасибо))
Аватар Admin
  Admin  04.09.2018  23:04:31
Бассейн на крыше дал течь...
Мой любимый момент.
Аватар HANNIBAL
  HANNIBAL  04.09.2018  23:09:07
Спасибо БРО
Аватар OldGamer
  OldGamer  05.09.2018  04:26:51
Admin писал(а):
Бассейн на крыше дал течь...
Мой любимый момент.
там ангелина сиськи засветила? давно смотрел, смутно что-то припоминается
Аватар Kaban
  Kaban  05.09.2018  18:35:12
Отличный рип,хорошая подборка аудио дорожек,но фильм редкостная нудятина.Провал в прокате.Фильм Сеть того же года с Сандрой Балок смотрится намного лучше

Добавление нового комментария

Добавление комментариев доступно только зарегистрированным/авторизованным пользователям.