Обложка Оно / It (2017) BDRip 1080p [HEVC] 10 bit от HANNIBALОбложка Миссия невыполнима: Последствия / Mission: Impossible - Fallout (2018) [IMAX Edition] BDRip 1080p [HEVC] 10 bit от HANNIBALОбложка Робин Гуд / Robin Hood (2010) [Director's Cut] BDRip 1080p [HEVC] 10 bit от CthulhuОбложка Rammstein - Paris (2017) BDRip 1080p [HEVC] 8 bit от CthulhuОбложка Эквилибриум / Equilibrium (2002) [Open Matte] BDRip 1080p [HEVC] 10 bit от HANNIBALОбложка Отступники / The Departed (2006) [FR Transfer] BDRip 1080p [HEVC] 10 bit от CthulhuОбложка Хакеры / Hackers (1995) [Remastered] BDRip 1080p [HEVC] 10 bit от CthulhuОбложка Другой мир: Антология / Underworld: Anthology (2003-2016) BDRip 1080р [HEVC] 10 bit от CthulhuОбложка Кинематографическая вселенная Marvel / Marvel Cinematic Universe (2008-2018) BDRip 1080p [HEVC] 10 bit от M@kSIMusОбложка Великий уравнитель 2 / The Equalizer 2 (2018) BDRip 1080p [HEVC] 10 bit от HANNIBAL

Авторизация

Смена пароля

captcha

Регистрация

captcha

Поиск

Эквилибриум / Equilibrium (2002) [Open Matte] BDRip 1080p [HEVC] 10 bit от HANNIBAL

HEVC
10 bit
Обложка Эквилибриум / Equilibrium (2002) [Open Matte] BDRip 1080p [HEVC] 10 bit от HANNIBAL Год: 2002
Страна: США
Студия: Dimension Films
Жанр: Боевик, Фантастика, Триллер
Продолжительность: 01:46:50

Режиссер: Курт Уиммер
В ролях: Кристиан Бэйл, Шон Бин, Эмили Уотсон, Тэй Диггз, Энгус Макфадьен, Шон Пертуи, Уильям Фихтнер, Джон Кеог, Дэвид Барраш, Дирк Мартенс, Кристиан Карманн, Мэттью Харбор, Эмили Сьеверт, Доминик Пёрселл, Майк Смит, Флориан Фитц, Дэнни Ли Кларк

Описание: Действие происходит в будущем, когда люди лишены возможности выражать какие-то эмоции, потому, что они запрещены. Это — та цена, которую человечество платит за устранение из своей жизни войны. Теперь книги, искусство и музыка находятся вне закона. А любое чувство уже преступление, наказуемое смертью. Для проведения в жизнь существующего правила используется принудительное применение лекарства «прозиум». Правительственный агент Джон Престон борется с теми, кто нарушает правила. В один прекрасный момент он забывает принять очередную дозу лекарства и с ним происходит духовное превращение, что приводит его к противоречию с самим собой и с начальством.


7.899162337
7.5
285046


Формат: MKV
Видео: 1920x1080, 5495 Kbps
Аудио1: AC3, 6 ch, 640 Kbps - Русский, Дублированный (Лицензия)
Аудио2: AC3, 6 ch, 640 Kbps - Русский, Одноголосый (Есарев)
Аудио3: AC3, 6 ch, 640 Kbps - Английский, Оригинал
Субтитры: Русские, Английские

Медиаинфо
General
Unique ID : 245307730125417703347868485507641932186 (0xB88C8CE0B60FD0F475D194F3067E799A)
Complete name : E:\Equilibrium (2002) BDRip 1080p [HEVC] 10 bit.mkv
Format : Matroska
Format version : Version 4 / Version 2
File size : 5.54 GiB
Duration : 1 h 46 min
Overall bit rate : 7 418 kb/s
Movie name : Equilibrium (2002) BDRemux 1080p | Open Matte | =Ved-Uk=
Encoded date : UTC 2018-08-14 15:37:34
Writing application : mkvmerge v20.0.0 ('I Am The Sun') 64-bit
Writing library : libebml v1.3.5 + libmatroska v1.4.8 / Lavf57.71.100
Cover : Yes
Attachments : cover.jpg
ENCODING_INFO : MATROSKA,WEBM > MKV 1080p 10-bit / VC1 > X265 VBR-2P 5500kbps Medium / DTS > AC3 CBR 640kbps / DTS-HD MA > AC3 CBR 640kbps / AC3 > AC3 CBR 640kbps

Video
ID : 1
Format : HEVC
Format/Info : High Efficiency Video Coding
Format profile : Main 10@L5.1@Main
Codec ID : V_MPEGH/ISO/HEVC
Duration : 1 h 46 min
Bit rate : 5 495 kb/s
Width : 1 920 pixels
Height : 1 080 pixels
Display aspect ratio : 16:9
Frame rate mode : Constant
Frame rate : 23.976 (24000/1001) FPS
Color space : YUV
Chroma subsampling : 4:2:0
Bit depth : 10 bits
Bits/(Pixel*Frame) : 0.111
Stream size : 4.10 GiB (74%)
Title : Эквилибриум
Writing library : x265 2.8+19-bcdc610cf5f0:[Windows][GCC 7.3.0][64 bit] 10bit
Encoding settings : cpuid=1049583 / frame-threads=5 / numa-pools=4 / wpp / no-pmode / no-pme / no-psnr / no-ssim / log-level=3 / input-csp=1 / input-res=1920x1080 / interlace=0 / total-frames=0 / level-idc=51 / high-tier=1 / uhd-bd=0 / ref=5 / allow-non-conformance / no-repeat-headers / annexb / no-aud / no-hrd / info / hash=0 / no-temporal-layers / open-gop / min-keyint=24 / keyint=240 / gop-lookahead=0 / bframes=8 / b-adapt=2 / b-pyramid / bframe-bias=0 / rc-lookahead=20 / lookahead-slices=6 / scenecut=40 / radl=0 / no-intra-refresh / ctu=64 / min-cu-size=8 / no-rect / no-amp / max-tu-size=32 / tu-inter-depth=1 / tu-intra-depth=1 / limit-tu=0 / rdoq-level=0 / dynamic-rd=0.00 / no-ssim-rd / signhide / no-tskip / nr-intra=0 / nr-inter=0 / no-constrained-intra / strong-intra-smoothing / max-merge=2 / limit-refs=3 / no-limit-modes / me=3 / subme=7 / merange=57 / temporal-mvp / weightp / no-weightb / no-analyze-src-pics / deblock=-3:-3 / sao / no-sao-non-deblock / rd=3 / no-early-skip / rskip / no-fast-intra / no-tskip-fast / no-cu-lossless / no-b-intra / no-splitrd-skip / rdpenalty=0 / psy-rd=2.00 / psy-rdoq=0.00 / no-rd-refine / no-lossless / cbqpoffs=0 / crqpoffs=0 / rc=abr / bitrate=5500 / qcomp=0.60 / qpstep=4 / stats-write=0 / stats-read=1 / cplxblur=20.0 / qblur=0.5 / ipratio=1.40 / pbratio=1.30 / aq-mode=1 / aq-strength=1.00 / cutree / zone-count=0 / no-strict-cbr / qg-size=32 / no-rc-grain / qpmax=69 / qpmin=0 / no-const-vbv / sar=1 / overscan=0 / videoformat=5 / range=0 / colorprim=1 / transfer=1 / colormatrix=1 / chromaloc=0 / display-window=0 / max-cll=0,0 / min-luma=0 / max-luma=1023 / log2-max-poc-lsb=8 / vui-timing-info / vui-hrd-info / slices=1 / no-opt-qp-pps / no-opt-ref-list-length-pps / no-multi-pass-opt-rps / scenecut-bias=0.05 / no-opt-cu-delta-qp / no-aq-motion / no-hdr / no-hdr-opt / no-dhdr10-opt / no-idr-recovery-sei / analysis-reuse-level=5 / scale-factor=0 / refine-intra=0 / refine-inter=0 / refine-mv=0 / no-limit-sao / ctu-info=0 / no-lowpass-dct / refine-mv-type=0 / copy-pic=1 / max-ausize-factor=1.0 / no-dynamic-refine / no-single-sei
Language : English
Default : Yes
Forced : No
Color range : Limited
Color primaries : BT.709
Transfer characteristics : BT.709
Matrix coefficients : BT.709

Audio #1
ID : 2
Format : AC-3
Format/Info : Audio Coding 3
Codec ID : A_AC3
Duration : 1 h 46 min
Bit rate mode : Constant
Bit rate : 640 kb/s
Channel(s) : 6 channels
Channel positions : Front: L C R, Side: L R, LFE
Sampling rate : 48.0 kHz
Frame rate : 31.250 FPS (1536 SPF)
Bit depth : 16 bits
Compression mode : Lossy
Stream size : 489 MiB (9%)
Title : Дубляж
Language : Russian
Service kind : Complete Main
Default : Yes
Forced : No

Audio #2
ID : 3
Format : AC-3
Format/Info : Audio Coding 3
Codec ID : A_AC3
Duration : 1 h 46 min
Bit rate mode : Constant
Bit rate : 640 kb/s
Channel(s) : 6 channels
Channel positions : Front: L C R, Side: L R, LFE
Sampling rate : 48.0 kHz
Frame rate : 31.250 FPS (1536 SPF)
Bit depth : 16 bits
Compression mode : Lossy
Stream size : 489 MiB (9%)
Title : Есарев
Language : Russian
Service kind : Complete Main
Default : No
Forced : No

Audio #3
ID : 4
Format : AC-3
Format/Info : Audio Coding 3
Codec ID : A_AC3
Duration : 1 h 46 min
Bit rate mode : Constant
Bit rate : 640 kb/s
Channel(s) : 6 channels
Channel positions : Front: L C R, Side: L R, LFE
Sampling rate : 48.0 kHz
Frame rate : 31.250 FPS (1536 SPF)
Bit depth : 16 bits
Compression mode : Lossy
Stream size : 489 MiB (9%)
Title : Оригинал
Language : English
Service kind : Complete Main
Default : No
Forced : No

Text #1
ID : 5
Format : UTF-8
Codec ID : S_TEXT/UTF8
Codec ID/Info : UTF-8 Plain Text
Duration : 1 h 41 min
Bit rate : 59 b/s
Count of elements : 726
Stream size : 44.5 KiB (0%)
Title : Full
Language : Russian
Default : Yes
Forced : No

Text #2
ID : 6
Format : UTF-8
Codec ID : S_TEXT/UTF8
Codec ID/Info : UTF-8 Plain Text
Duration : 1 h 38 min
Bit rate : 34 b/s
Count of elements : 723
Stream size : 24.7 KiB (0%)
Title : Full
Language : English
Default : No
Forced : No

Menu
00:00:00.000 : :Человеческая бесчеловечность
00:07:33.161 : :Бесчувственное общество
00:11:42.285 : :Заблудший Клерик
00:15:02.443 : :Велика цена
00:22:07.326 : :Отсуствие дозы
00:25:27.234 : :Существование и цель
00:30:56.980 : :Пробуждение эмоций
00:36:50.156 : :Слезы и жалость
00:44:50.563 : :Сомневающийся отец?
00:47:25.678 : :Большая ошибка
00:56:29.011 : :"Он эмоциональный преступник"
01:02:55.230 : :Вопросы к Мэри
01:06:12.635 : :Контакт с Сопротивлением
01:14:44.939 : :Сожжение
01:23:32.591 : :Нечего скрывать
01:28:56.998 : :"Не без неожиданностей"
01:34:23.157 : :Расплата
01:40:16.552 : :Финальные титры
Cкриншот1 Эквилибриум / Equilibrium (2002) [Open Matte] BDRip 1080p [HEVC] 10 bit от HANNIBAL
Загружается...
Cкриншот2 Эквилибриум / Equilibrium (2002) [Open Matte] BDRip 1080p [HEVC] 10 bit от HANNIBAL
Загружается...
Cкриншот3 Эквилибриум / Equilibrium (2002) [Open Matte] BDRip 1080p [HEVC] 10 bit от HANNIBAL
Загружается...
Cкриншот4 Эквилибриум / Equilibrium (2002) [Open Matte] BDRip 1080p [HEVC] 10 bit от HANNIBAL
Загружается...
Сэмпл

Ссылки для скачивания доступны только зарегистрированным/авторизованным пользователям!

14.08.2018  22:03:14
7
2899
14
2
5.54 ГБ

Добавление нового комментария

Добавление комментариев доступно только зарегистрированным/авторизованным пользователям.
Аватар Dark Victor
  Dark Victor  23.08.2018  16:03:22
Admin писал(а):
А я особого смысла в этих Open mate не вижу. Сверху и снизу добавлено, а по бокам в некоторых сценах обрезано.
если обрезано, это адаптация из 21:9 в 16:9 путём кропа первого или это не Open mate. Open mate - это чаще всего оригинал кадра, который содержит больше всего картинки.
Аватар Admin
  Admin  16.08.2018  21:45:16
А я особого смысла в этих Open mate не вижу. Сверху и снизу добавлено, а по бокам в некоторых сценах обрезано.
Аватар torrentzulu
  torrentzulu  15.08.2018  19:21:07
Спасибо за фильм и отдельно за дорожку Есарева!
Аватар JONNY-ARINO
  JONNY-ARINO  15.08.2018  16:31:39
спасибо за фильм!!!
Аватар HANNIBAL
  HANNIBAL  15.08.2018  11:08:51
Пожалуйста
Аватар dvism62
  dvism62  15.08.2018  10:43:57
Спасибо!
Аватар mvclub
  mvclub  15.08.2018  09:22:08
Спасибо!
Отличное соотношение размер/качество!