Обложка Оно / It (2017) BDRip 1080p [HEVC] 10 bit от HANNIBALОбложка Отступники / The Departed (2006) [FR Transfer] BDRip 1080p [HEVC] 10 bit от CthulhuОбложка Робин Гуд / Robin Hood (2010) [Director's Cut] BDRip 1080p [HEVC] 10 bit от CthulhuОбложка Эквилибриум / Equilibrium (2002) [Open Matte] BDRip 1080p [HEVC] 10 bit от HANNIBALОбложка Красная жара / Red Heat (1988) BDRip 1080p [HEVC] 10 bit от OldGamerОбложка Веном / Venom (2018) BDRip 1080p [HEVC] 10 bit от M@kSIMusОбложка Rammstein - Paris (2017) BDRip 1080p [HEVC] 8 bit от CthulhuОбложка Знакомство с родителями / Meet the Parents (2000) BDRip 1080p [HEVC] 10 bit от M@kSIMusОбложка Исходный код / Source Code (2011) BDRip 1080p [HEVC] 10 bit от OldGamerОбложка Доктор Голливуд / Doc Hollywood (1991) BDRip 1080p [HEVC] 10 bit от OldGamer

Авторизация

Смена пароля

captcha

Регистрация

captcha

🔍 Поиск

Отступники / The Departed (2006) [FR Transfer] BDRip 1080p [HEVC] 10 bit от Cthulhu

HEVC
10 bit
Обложка Отступники / The Departed (2006) [FR Transfer] BDRip 1080p [HEVC] 10 bit от Cthulhu Год: 2006
Страна: США
Студия: Warner Bros. Pictures Co.
Жанр: Триллер, Драма, Криминал
Продолжительность: 2:31:25

Режиссер: Мартин Скорсезе
В ролях: Леонардо ДиКаприо, Мэтт Дэймон, Джек Николсон, Марк Уолберг, Мартин Шин, Рэй Уинстон, Вера Фармига, Энтони Андерсон, Алек Болдуин, Кевин Корригэн, Джеймс Бэдж Дэйл, Дэвид О’Хара, Марк Ролстон, Роберт Уолберг, Кристен Далтон

Описание: Полиция Бостона засылает своего агента под прикрытием в крупнейшую ирландскую мафиозную группировку, орудующую в штате. Тем временем ирландцы внедряют самого перспективного бойца в ряды полиции. Задача обоих быть глазами и ушами своих боссов в стане врага. Но долго так продолжаться не может: обе стороны понимают, что в их рядах предатель. Разоблачение приведет к кровавой бойне, да и самим агентам теперь не так просто подставить под удар своих новых "коллег".


8.456294577
8.5
1008976


Формат: MKV
Видео: 1920x796, 6913 Kbps
Аудио1: AC3, 6 ch, 448 Kbps - Русский, Дублированный (Лицензия)
Аудио2: AC3, 6 ch, 448 Kbps - Русский, Одноголосый (Немахов)
Аудио3: AC3, 6 ch, 448 Kbps - Оригинал
Субтитры: Русские (форсированные, полные), английские

Медиаинфо
General
Unique ID : 214325403101825015130453782855833523159 (0xA13D92380B523194BCB13395944693D7)
Complete name : F:\HEVC\The Departed [FR Transfer] (2006) BDRip 1080p [HEVC] 10Bit_Cthulhu.mkv
Format : Matroska
Format version : Version 4 / Version 2
File size : 8.74 GiB
Duration : 2 h 31 min
Overall bit rate : 8 259 kb/s
Movie name : rip_by_Cthulhu
Encoded date : UTC 2018-08-12 08:23:17
Writing application : mkvmerge v18.0.0 ('Apricity') 64-bit
Writing library : libebml v1.3.5 + libmatroska v1.4.8
Cover : Yes
Attachments : cover1.jpg

Video
ID : 1
Format : HEVC
Format/Info : High Efficiency Video Coding
Format profile : Main 10@L4.1@High
Codec ID : V_MPEGH/ISO/HEVC
Duration : 2 h 31 min
Bit rate : 6 913 kb/s
Width : 1 920 pixels
Height : 796 pixels
Display aspect ratio : 2.40:1
Frame rate mode : Constant
Frame rate : 23.976 (24000/1001) FPS
Color space : YUV
Chroma subsampling : 4:2:0
Bit depth : 10 bits
Bits/(Pixel*Frame) : 0.189
Stream size : 7.31 GiB (84%)
Writing library : x265 2.8+49-5d34bbf671f7:[Windows][GCC 8.1.1][64 bit] 10bit
Encoding settings : cpuid=1049583 / frame-threads=4 / numa-pools=4 / wpp / no-pmode / no-pme / no-psnr / no-ssim / log-level=2 / input-csp=1 / input-res=1920x796 / interlace=0 / total-frames=217844 / level-idc=41 / high-tier=1 / uhd-bd=0 / ref=5 / no-allow-non-conformance / no-repeat-headers / annexb / no-aud / no-hrd / info / hash=0 / no-temporal-layers / open-gop / min-keyint=23 / keyint=240 / gop-lookahead=0 / bframes=8 / b-adapt=2 / b-pyramid / bframe-bias=0 / rc-lookahead=40 / lookahead-slices=4 / scenecut=40 / radl=0 / no-intra-refresh / ctu=64 / min-cu-size=8 / rect / amp / max-tu-size=32 / tu-inter-depth=3 / tu-intra-depth=3 / limit-tu=4 / rdoq-level=1 / dynamic-rd=0.00 / no-ssim-rd / signhide / no-tskip / nr-intra=0 / nr-inter=0 / no-constrained-intra / no-strong-intra-smoothing / max-merge=3 / limit-refs=2 / limit-modes / me=3 / subme=7 / merange=57 / temporal-mvp / weightp / weightb / no-analyze-src-pics / deblock=-3:-3 / no-sao / no-sao-non-deblock / rd=4 / no-early-skip / rskip / no-fast-intra / no-tskip-fast / no-cu-lossless / no-b-intra / no-splitrd-skip / rdpenalty=0 / psy-rd=2.00 / psy-rdoq=1.00 / no-rd-refine / no-lossless / cbqpoffs=0 / crqpoffs=0 / rc=crf / crf=18.0 / qcomp=0.65 / qpstep=4 / stats-write=0 / stats-read=0 / vbv-maxrate=50000 / vbv-bufsize=50000 / vbv-init=0.9 / crf-max=0.0 / crf-min=0.0 / ipratio=1.40 / pbratio=1.30 / aq-mode=1 / aq-strength=1.00 / cutree / zone-count=0 / no-strict-cbr / qg-size=32 / no-rc-grain / qpmax=69 / qpmin=0 / no-const-vbv / sar=1 / overscan=0 / videoformat=5 / range=0 / colorprim=1 / transfer=1 / colormatrix=1 / chromaloc=0 / display-window=0 / max-cll=0,0 / min-luma=0 / max-luma=1023 / log2-max-poc-lsb=8 / vui-timing-info / vui-hrd-info / slices=1 / no-opt-qp-pps / no-opt-ref-list-length-pps / no-multi-pass-opt-rps / scenecut-bias=0.05 / no-opt-cu-delta-qp / no-aq-motion / no-hdr / no-hdr-opt / no-dhdr10-opt / no-idr-recovery-sei / analysis-reuse-level=5 / scale-factor=0 / refine-intra=0 / refine-inter=0 / refine-mv=0 / no-limit-sao / ctu-info=0 / no-lowpass-dct / refine-mv-type=0 / copy-pic=1 / max-ausize-factor=1.0 / no-dynamic-refine / no-single-sei
Language : English
Default : Yes
Forced : No
Color range : Limited
Color primaries : BT.709
Transfer characteristics : BT.709
Matrix coefficients : BT.709

Audio #1
ID : 2
Format : AC-3
Format/Info : Audio Coding 3
Codec ID : A_AC3
Duration : 2 h 31 min
Bit rate mode : Constant
Bit rate : 448 kb/s
Channel(s) : 6 channels
Channel positions : Front: L C R, Side: L R, LFE
Sampling rate : 48.0 kHz
Frame rate : 31.250 FPS (1536 SPF)
Bit depth : 16 bits
Compression mode : Lossy
Stream size : 485 MiB (5%)
Title : Дубляж
Language : Russian
Service kind : Complete Main
Default : Yes
Forced : No

Audio #2
ID : 3
Format : AC-3
Format/Info : Audio Coding 3
Codec ID : A_AC3
Duration : 2 h 31 min
Bit rate mode : Constant
Bit rate : 448 kb/s
Channel(s) : 6 channels
Channel positions : Front: L C R, Side: L R, LFE
Sampling rate : 48.0 kHz
Frame rate : 31.250 FPS (1536 SPF)
Bit depth : 16 bits
Compression mode : Lossy
Stream size : 485 MiB (5%)
Title : AVO Немахов
Language : Russian
Service kind : Complete Main
Default : No
Forced : No

Audio #3
ID : 4
Format : AC-3
Format/Info : Audio Coding 3
Codec ID : A_AC3
Duration : 2 h 31 min
Bit rate mode : Constant
Bit rate : 448 kb/s
Channel(s) : 6 channels
Channel positions : Front: L C R, Side: L R, LFE
Sampling rate : 48.0 kHz
Frame rate : 31.250 FPS (1536 SPF)
Bit depth : 16 bits
Compression mode : Lossy
Stream size : 485 MiB (5%)
Language : English
Service kind : Complete Main
Default : No
Forced : No

Text #1
ID : 5
Format : UTF-8
Codec ID : S_TEXT/UTF8
Codec ID/Info : UTF-8 Plain Text
Duration : 17 s 980 ms
Bit rate : 173 b/s
Count of elements : 5
Stream size : 391 Bytes (0%)
Title : Forced
Language : Russian
Default : No
Forced : No

Text #2
ID : 6
Format : UTF-8
Codec ID : S_TEXT/UTF8
Codec ID/Info : UTF-8 Plain Text
Duration : 2 h 25 min
Bit rate : 124 b/s
Count of elements : 2101
Stream size : 132 KiB (0%)
Title : R5
Language : Russian
Default : No
Forced : No

Text #3
ID : 7
Format : UTF-8
Codec ID : S_TEXT/UTF8
Codec ID/Info : UTF-8 Plain Text
Duration : 2 h 23 min
Bit rate : 70 b/s
Count of elements : 1905
Stream size : 74.4 KiB (0%)
Language : English
Default : No
Forced : No

Menu
00:00:00.000 : :00:00:00.000
00:08:21.626 : :00:08:21.626
00:17:36.347 : :00:17:36.347
00:27:03.330 : :00:27:03.330
00:32:20.981 : :00:32:20.981
00:42:08.568 : :00:42:08.568
00:51:27.584 : :00:51:27.584
00:59:47.918 : :00:59:47.918
01:09:55.691 : :01:09:55.691
01:19:32.393 : :01:19:32.393
01:30:23.126 : :01:30:23.126
01:41:43.222 : :01:41:43.222
01:49:01.785 : :01:49:01.785
01:57:32.629 : :01:57:32.629
02:06:07.435 : :02:06:07.435
02:16:25.094 : :02:16:25.094
02:24:50.765 : :02:24:50.765
02:31:25.660 : :02:31:25.660
Сэмпл
Cкриншот1 Отступники / The Departed (2006) [FR Transfer] BDRip 1080p [HEVC] 10 bit от Cthulhu
Загружается...
Cкриншот2 Отступники / The Departed (2006) [FR Transfer] BDRip 1080p [HEVC] 10 bit от Cthulhu
Загружается...
Cкриншот3 Отступники / The Departed (2006) [FR Transfer] BDRip 1080p [HEVC] 10 bit от Cthulhu
Загружается...
Cкриншот4 Отступники / The Departed (2006) [FR Transfer] BDRip 1080p [HEVC] 10 bit от Cthulhu
Загружается...
Ссылки для скачивания доступны только зарегистрированным/авторизованным пользователям!

12.08.2018  12:00:14
6
2767
24
2
8.74 ГБ

Добавление нового комментария

Добавление комментариев доступно только зарегистрированным/авторизованным пользователям.
Аватар DSIO
  DSIO  12.08.2018  21:18:08
Cthulhu писал(а):
А я и не знал что что это ремейк (( О как.
Крайне советую оригинальную ленту 'Двойная рокировка' трилогия, как по мне куда более сильное кино.
Актерский состав кстати не менее звездный. Третья часть правда не оч зашла, но первые две прям отличные.
Как нибудь потом хочу закодировать.
Аватар Cthulhu
  Cthulhu  12.08.2018  21:08:37
А я и не знал что что это ремейк (( О как.
Аватар DSIO
  DSIO  12.08.2018  18:09:00
Как при этом это 4 оскара получило, мне не понять.
Особенно нравится сцена где Уолберг бывший мент в чине стал наемным убийцей, как такое придумать, сценаристы мне кажется на приходе в этот момент были.
Аватар DSIO
  DSIO  12.08.2018  18:03:18
При такой талантливой вроде команде, а переснять не смогли нормально. Вроде бы сцены скопировали почти один в один, но при этом если при просмотре оригинала испытываешь восторг, то тут просто фейспалмишь в каждой сцене.
Аватар DSIO
  DSIO  12.08.2018  18:00:44
Стереть бы память чтобы не помнить этот убогий ремейк %))
Каждый раз как вспоминаю это нелепое кино, аж припекает.
Аватар aksaleale
  aksaleale  12.08.2018  16:27:05
Эх,помню как в первый раз смотрел...стереть бы память и посмотреть как в первый раз)))