Обложка Оно / It (2017) BDRip 1080p [HEVC] 10 bit от HANNIBALОбложка Храбрая сердцем / Brave (2012) BDRip 1080p [HEVC] 10 bit от МичманОбложка Эквилибриум / Equilibrium (2002) [Open Matte] BDRip 1080p [HEVC] 10 bit от HANNIBALОбложка Корпорация монстров / Monsters, Inc. (2001) BDRip 1080p [HEVC] 10 bit от МичманОбложка Университет монстров / Monsters University (2013) BDRip 1080p [HEVC] 10 bit от МичманОбложка Rammstein - Paris (2017) BDRip 1080p [HEVC] 8 bit от CthulhuОбложка Вольт / Bolt (2008) BDRip 1080p [HEVC] 10 bit от МичманОбложка Другой мир: Антология / Underworld: Anthology (2003-2016) BDRip 1080р [HEVC] 10 bit от CthulhuОбложка Хакеры / Hackers (1995) [Remastered] BDRip 1080p [HEVC] 10 bit от CthulhuОбложка Перл-Харбор / Pearl Harbor (2001) BDRip 1080p [HEVC] 10 bit от HANNIBAL

Авторизация

Смена пароля

captcha

Регистрация

captcha

Поиск

Виннету в долине смерти / Winnetou und Shatterhand im Tal der Toten (1968) BDRip 1080p [HEVC] 10 bit от Joker63

HEVC
10 bit
Обложка Виннету в долине смерти / Winnetou und Shatterhand im Tal der Toten (1968) BDRip 1080p [HEVC] 10 bit от Joker63 Год: 1968
Страна: Германия (ФРГ), Италия, Югославия
Жанр: Вестерн, Приключения
Продолжительность: 01:28:58

Режиссер: Харальд Райнль
В ролях: Лекс Баркер, Пьер Брис, Рик Батталья, Карин Дор, Ральф Вольтер, Кларк Рейнольдс, Курт Вайтцманн, Хайнц Вельцель, Бранко Шпольяр, Владимир Медар, Войо Горич, Эдди Арент, Вольфганг Аммербахер, Владимир Бачич, Валент Боровиц, Мирослав Бухин, Томас Экельманн, Душко Эрцегович, Хайнц Гис, Ганс В. Хамахер, Кнут Хартвиг, Тони Херберт, Герт Гюнтер Хоффманн,

Описание: Бандиты, обитающие на Среднем Западе, убивают майора Кингсли и его людей, транспортирующих золото. Правительство США заочно обвиняет офицера Кингсли в его похищении и вызывает Мейбл Кингсли, его дочь, на суд. У нее сохранилось предсмертное письмо отца, содержащее информацию о местонахождении золота. Бандиты пытаются похитить письмо и саму Мейбл. Но отважный индеец Виннету и его белый друг Чатерхэнд — Верная Рука приходят на помощь девушке и помогают ей восстановить доброе имя Кингсли, друга Виннету. Но для этого им надо отыскать в Долине Смерти спрятанное золото и предъявить офицерам армии США. И вот здесь их приключения только начинаются…


6.769125
6.1
1073


Формат: MKV
Видео: 1920x816, 7008 Kbps
Аудио1: AC3, 2 ch, 192 Kbps - Русский, Многоголосый закадровый
Аудио2: AC3, 2 ch, 192 Kbps - Немецкий
Субтитры: Нет

Медиаинфо
Общее
Уникальный идентификатор : 92262156896956690359829109190341413632 (0x45690B89B7D02EA3218F98F876CBCB00)
Полное имя : D:\Карл Май\11.Виннету в долине смерти Winnetou und Shatterhand im Tal der Toten 1968 BDRip 1080p [HEVC] 10 bit.mkv
Формат : Matroska
Версия формата : Version 4 / Version 2
Размер файла : 4,60 Гбайт
Продолжительность : 1 ч. 28 м.
Общий поток : 7394 Кбит/сек
Название фильма : Рип от Joker63 для HEVC - CLUB
Дата кодирования : UTC 2018-08-10 07:14:44
Программа кодирования : mkvmerge v24.0.0 ('Beyond The Pale') 64-bit
Библиотека кодирования : libebml v1.3.6 + libmatroska v1.4.9
Обложка : Yes
Attachments : cover (2).jpg

Видео
Идентификатор : 1
Формат : HEVC
Формат/Информация : High Efficiency Video Coding
Профиль формата : Main 10@L5.1@Main
Идентификатор кодека : V_MPEGH/ISO/HEVC
Продолжительность : 1 ч. 28 м.
Битрейт : 7008 Кбит/сек
Ширина : 1920 пикселей
Высота : 816 пикселей
Соотношение сторон : 2,35:1
Режим частоты кадров : Постоянный
Частота кадров : 23,976 (24000/1001) кадра/сек
Цветовое пространство : YUV
Субдискретизация насыщенности : 4:2:0
Битовая глубина : 10 бит
Бит/(Пиксели*Кадры) : 0.187
Размер потока : 4,36 Гбайт (95%)
Библиотека кодирования : x265 2.8+19-bcdc610cf5f0:[Windows][GCC 7.3.0][64 bit] 10bit
Настройки программы : cpuid=1049583 / frame-threads=5 / numa-pools=4 / wpp / no-pmode / no-pme / no-psnr / no-ssim / log-level=3 / input-csp=1 / input-res=1920x816 / interlace=0 / total-frames=0 / level-idc=51 / high-tier=1 / uhd-bd=0 / ref=5 / allow-non-conformance / no-repeat-headers / annexb / no-aud / no-hrd / info / hash=0 / no-temporal-layers / open-gop / min-keyint=24 / keyint=240 / gop-lookahead=0 / bframes=4 / b-adapt=2 / b-pyramid / bframe-bias=0 / rc-lookahead=20 / lookahead-slices=5 / scenecut=40 / radl=0 / no-intra-refresh / ctu=64 / min-cu-size=8 / no-rect / no-amp / max-tu-size=32 / tu-inter-depth=1 / tu-intra-depth=1 / limit-tu=0 / rdoq-level=0 / dynamic-rd=0.00 / no-ssim-rd / signhide / no-tskip / nr-intra=0 / nr-inter=0 / no-constrained-intra / strong-intra-smoothing / max-merge=2 / limit-refs=3 / no-limit-modes / me=1 / subme=2 / merange=57 / temporal-mvp / weightp / no-weightb / no-analyze-src-pics / deblock=-2:-2 / sao / no-sao-non-deblock / rd=3 / no-early-skip / rskip / no-fast-intra / no-tskip-fast / no-cu-lossless / no-b-intra / no-splitrd-skip / rdpenalty=0 / psy-rd=2.00 / psy-rdoq=0.00 / no-rd-refine / no-lossless / cbqpoffs=0 / crqpoffs=0 / rc=abr / bitrate=7000 / qcomp=0.60 / qpstep=4 / stats-write=0 / stats-read=0 / ipratio=1.40 / pbratio=1.30 / aq-mode=1 / aq-strength=1.00 / cutree / zone-count=0 / no-strict-cbr / qg-size=32 / no-rc-grain / qpmax=69 / qpmin=0 / no-const-vbv / sar=1 / overscan=0 / videoformat=5 / range=0 / colorprim=1 / transfer=1 / colormatrix=1 / chromaloc=0 / display-window=0 / max-cll=0,0 / min-luma=0 / max-luma=1023 / log2-max-poc-lsb=8 / vui-timing-info / vui-hrd-info / slices=1 / no-opt-qp-pps / no-opt-ref-list-length-pps / no-multi-pass-opt-rps / scenecut-bias=0.05 / no-opt-cu-delta-qp / no-aq-motion / no-hdr / no-hdr-opt / no-dhdr10-opt / no-idr-recovery-sei / analysis-reuse-level=5 / scale-factor=0 / refine-intra=0 / refine-inter=0 / refine-mv=0 / no-limit-sao / ctu-info=0 / no-lowpass-dct / refine-mv-type=0 / copy-pic=1 / max-ausize-factor=1.0 / no-dynamic-refine / no-single-sei
Default : Да
Forced : Нет
Цветовой диапазон : Limited
Основные цвета : BT.709
Характеристики трансфера : BT.709
Коэффициенты матрицы : BT.709

Аудио #1
Идентификатор : 2
Формат : AC-3
Формат/Информация : Audio Coding 3
Идентификатор кодека : A_AC3
Продолжительность : 1 ч. 28 м.
Вид битрейта : Постоянный
Битрейт : 192 Кбит/сек
Каналы : 2 канала
Расположение каналов : Front: L R
Частота : 48,0 КГц
Частота кадров : 31,250 кадров/сек (1536 SPF)
Битовая глубина : 16 бит
Метод сжатия : С потерями
Размер потока : 122 Мбайт (3%)
Язык : Russian
ServiceKind/String : Complete Main
Default : Да
Forced : Нет

Аудио #2
Идентификатор : 3
Формат : AC-3
Формат/Информация : Audio Coding 3
Идентификатор кодека : A_AC3
Продолжительность : 1 ч. 28 м.
Вид битрейта : Постоянный
Битрейт : 192 Кбит/сек
Каналы : 2 канала
Расположение каналов : Front: L R
Частота : 48,0 КГц
Частота кадров : 31,250 кадров/сек (1536 SPF)
Битовая глубина : 16 бит
Метод сжатия : С потерями
Размер потока : 122 Мбайт (3%)
Язык : German
ServiceKind/String : Complete Main
Default : Нет
Forced : Нет
Cкриншот1 Виннету в долине смерти / Winnetou und Shatterhand im Tal der Toten (1968) BDRip 1080p [HEVC] 10 bit от Joker63
Загружается...
Cкриншот2 Виннету в долине смерти / Winnetou und Shatterhand im Tal der Toten (1968) BDRip 1080p [HEVC] 10 bit от Joker63
Загружается...
Cкриншот3 Виннету в долине смерти / Winnetou und Shatterhand im Tal der Toten (1968) BDRip 1080p [HEVC] 10 bit от Joker63
Загружается...
Cкриншот4 Виннету в долине смерти / Winnetou und Shatterhand im Tal der Toten (1968) BDRip 1080p [HEVC] 10 bit от Joker63
Загружается...
Сэмпл

Ссылки для скачивания доступны только зарегистрированным/авторизованным пользователям!

10.08.2018
0
103
0
0
4.6 ГБ

Добавление нового комментария

Добавление комментариев доступно только зарегистрированным/авторизованным пользователям.