Обложка Другой мир: Антология / Underworld: Anthology (2003-2016) BDRip 1080р [HEVC] 10 bitОбложка Повелитель стихий / The Last Airbender (2010) BDRip 1080p [HEVC] 10 bitОбложка Отступники / The Departed (2006) [FR Transfer] BDRip 1080p [HEVC] 10 bitОбложка Эквилибриум / Equilibrium (2002) [Open Matte] BDRip 1080p [HEVC] 10 bitОбложка Васаби / Wasabi (2001) BDRip 1080p [HEVC] 10 bitОбложка Первый мститель: Другая война / Captain America: The Winter Soldier (2014) BDRip 1080p [HEVC] 10 bitОбложка Убийца / Sicario (2015) BDRip 1080p [HEVC] 10 bitОбложка Мстители - Война бесконечности / Avengers - Infinity War (2018) BDRip 1080p [HEVC] 10 bitОбложка Звёздные войны: Пробуждение силы / Star Wars: Episode VII - The Force Awakens (2015) [Локализованная версия] BDRip 1080p [HEVC] 10 bitОбложка Звездные войны: Последние джедаи / Star Wars: Episode VIII - The Last Jedi (2017) [Локализованная версия] BDRip 1080p [HEVC] 10 bit

Поиск

Выход Дракона / Enter the Dragon (1973) [40th Anniversary Remastered Edition] BDRip 1080p [HEVC] 10 bit

Обложка Выход Дракона / Enter the Dragon (1973) [40th Anniversary Remastered Edition] BDRip 1080p [HEVC] 10 bit Год: 1973
Страна: США, Гонконг
Студия: Concord Productions Inc., Sequoia Productions, Warner Bros. Pictures Co.
Жанр: Боевик, Триллер, Драма, Криминал
Продолжительность: 01:42:33

Режиссер: Роберт Клауз
В ролях: Брюс Ли, Джон Сэксон, Анджела Мао, Джим Келли, Роберт Уолл, Боло Йенг, Бетти Чунг, Джеффри Викс, Питер Арчер, Хо Ли Ян, Марлен Кларк, Аллан Кент, Уильям Келлер, Мики Карузо, Пэт Э. Джонсон, Дарнелл Гарсиак

Описание: Его яростная манера боя не знала себе равных. Его боевой дух был неукротим. Хотя прошло уже много лет с момента его ранней смерти, Брюс Ли остается по-прежнему самой яркой суперзвездой боевых искусств. "Выход Дракона" — последний из фильмов, в которых снялся легендарный Брюс Ли. Именно на съемках этого фильма операторы были вынуждены пользоваться специальной аппаратурой, потому что обычные кинокамеры не успевали зафиксировать молниеносный удар Дракона. События переносят нас на остров, превращенный в крепость главарем боевиков, открывшим там школу боевых искусств, которая является лишь ширмой, маскирующей контрабандный бизнес. В эту цитадель проникает герой Брюса Ли и становится участником жестокого турнира...


7.8829917
7.7
84341


Формат: MKV
Видео: HEVC/H.265, 1920x800, 6860 Kbps
Аудио1: AC3, 6 ch, 384 Kbps - Русский, Дублированный (Лицензия)
Аудио2: AC3, 6 ch, 448 Kbps - Русский, Многоголосый (Superbit)
Аудио3: AC3, 2 ch, 192 Kbps - Русский, Двухголосый (НТВ+)
Аудио4: AC3, 2 ch, 192 Kbps - Русский, Одноголосый (Володарский)
Аудио5: AC3, 2 ch, 192 Kbps - Русский, Одноголосый (Михалев)
Аудио6: AC3, 6 ch, 448 Kbps - Русский, Одноголосый (Гаврилов)
Аудио7: AC3, 6 ch, 448 Kbps - Русский, Одноголосый (Живов)
Аудио8: AC3, 6 ch, 448 Kbps - Оригинал
Субтитры: Русские, английские

Медиаинфо
General
Unique ID : 47604885341307975651374683465831802738 (0x23D05E0F17B3C77BC9CAA0866DC9E772)
Complete name : F:HEVCEnter the Dragon [Remastered] (1973) BDRip 1080p [HEVC] 10Bit_Cthulhu.mkv
Format : Matroska
Format version : Version 4 / Version 2
File size : 6.89 GiB
Duration : 1 h 42 min
Overall bit rate : 9 616 kb/s
Movie name : Enter the dragon (1973)_rip_by_Cthulhu
Encoded date : UTC 2018-04-24 16:25:09
Writing application : mkvmerge v21.0.0 ('Tardigrades Will Inherit The Earth') 64-bit
Writing library : libebml v1.3.5 + libmatroska v1.4.8
Cover : Yes
Attachments : cover.jpg / poster (6).jpg

Video
ID : 1
Format : HEVC
Format/Info : High Efficiency Video Coding
Format profile : Main 10@L4.1@High
Codec ID : V_MPEGH/ISO/HEVC
Duration : 1 h 42 min
Bit rate : 6 860 kb/s
Width : 1 920 pixels
Height : 800 pixels
Display aspect ratio : 2.40:1
Frame rate mode : Constant
Frame rate : 23.976 (24000/1001) FPS
Color space : YUV
Chroma subsampling : 4:2:0
Bit depth : 10 bits
Bits/(Pixel*Frame) : 0.186
Stream size : 4.91 GiB (71%)
Writing library : x265 2.7+340-aa9102400f24:[Windows][GCC 8.0.1][64 bit] 10bit
Encoding settings : cpuid=1049583 / frame-threads=4 / numa-pools=4 / wpp / no-pmode / no-pme / no-psnr / no-ssim / log-level=2 / input-csp=1 / input-res=1920x800 / interlace=0 / total-frames=147529 / level-idc=0 / high-tier=1 / uhd-bd=0 / ref=5 / no-allow-non-conformance / no-repeat-headers / annexb / no-aud / no-hrd / info / hash=0 / no-temporal-layers / open-gop / min-keyint=24 / keyint=240 / gop-lookahead=0 / bframes=8 / b-adapt=2 / b-pyramid / bframe-bias=0 / rc-lookahead=40 / lookahead-slices=4 / scenecut=40 / radl=0 / no-intra-refresh / ctu=64 / min-cu-size=8 / rect / no-amp / max-tu-size=32 / tu-inter-depth=3 / tu-intra-depth=3 / limit-tu=4 / rdoq-level=2 / dynamic-rd=0.00 / no-ssim-rd / signhide / no-tskip / nr-intra=0 / nr-inter=0 / no-constrained-intra / no-strong-intra-smoothing / max-merge=3 / limit-refs=2 / limit-modes / me=3 / subme=7 / merange=57 / temporal-mvp / weightp / weightb / no-analyze-src-pics / deblock=-3:-3 / no-sao / no-sao-non-deblock / rd=4 / no-early-skip / rskip / no-fast-intra / no-tskip-fast / no-cu-lossless / no-b-intra / no-splitrd-skip / rdpenalty=0 / psy-rd=2.00 / psy-rdoq=1.00 / no-rd-refine / no-lossless / cbqpoffs=0 / crqpoffs=0 / rc=crf / crf=18.0 / qcomp=0.60 / qpstep=4 / stats-write=0 / stats-read=0 / vbv-maxrate=50000 / vbv-bufsize=50000 / vbv-init=0.9 / crf-max=0.0 / crf-min=0.0 / ipratio=1.40 / pbratio=1.30 / aq-mode=1 / aq-strength=1.00 / cutree / zone-count=0 / no-strict-cbr / qg-size=32 / no-rc-grain / qpmax=69 / qpmin=0 / no-const-vbv / sar=1 / overscan=0 / videoformat=5 / range=0 / colorprim=1 / transfer=1 / colormatrix=1 / chromaloc=0 / display-window=0 / max-cll=0,0 / min-luma=0 / max-luma=1023 / log2-max-poc-lsb=8 / vui-timing-info / vui-hrd-info / slices=1 / no-opt-qp-pps / no-opt-ref-list-length-pps / no-multi-pass-opt-rps / scenecut-bias=0.05 / no-opt-cu-delta-qp / no-aq-motion / no-hdr / no-hdr-opt / no-dhdr10-opt / no-idr-recovery-sei / analysis-reuse-level=5 / scale-factor=0 / refine-intra=0 / refine-inter=0 / refine-mv=0 / no-limit-sao / ctu-info=0 / no-lowpass-dct / refine-mv-type=0 / copy-pic=1 / max-ausize-factor=1.0 / no-dynamic-refine / no-single-sei
Language : English
Default : Yes
Forced : No
Color range : Limited
Color primaries : BT.709
Transfer characteristics : BT.709
Matrix coefficients : BT.709

Audio #1
ID : 2
Format : AC-3
Format/Info : Audio Coding 3
Format settings, Endianness : Big
Codec ID : A_AC3
Duration : 1 h 42 min
Bit rate mode : Constant
Bit rate : 384 kb/s
Channel(s) : 6 channels
Channel positions : Front: L C R, Side: L R, LFE
Sampling rate : 48.0 kHz
Frame rate : 31.250 FPS (1536 SPF)
Bit depth : 16 bits
Compression mode : Lossy
Stream size : 282 MiB (4%)
Title : Дублированный
Language : Russian
Service kind : Complete Main
Default : Yes
Forced : Yes

Audio #2
ID : 3
Format : AC-3
Format/Info : Audio Coding 3
Format settings, Endianness : Big
Codec ID : A_AC3
Duration : 1 h 42 min
Bit rate mode : Constant
Bit rate : 448 kb/s
Channel(s) : 6 channels
Channel positions : Front: L C R, Side: L R, LFE
Sampling rate : 48.0 kHz
Frame rate : 31.250 FPS (1536 SPF)
Bit depth : 16 bits
Compression mode : Lossy
Stream size : 329 MiB (5%)
Title : Многоголосый (Superbit)
Language : Russian
Service kind : Complete Main
Default : No
Forced : No

Audio #3
ID : 4
Format : AC-3
Format/Info : Audio Coding 3
Format settings, Endianness : Big
Codec ID : A_AC3
Duration : 1 h 42 min
Bit rate mode : Constant
Bit rate : 192 kb/s
Channel(s) : 1 channel
Channel positions : Front: C
Sampling rate : 48.0 kHz
Frame rate : 31.250 FPS (1536 SPF)
Bit depth : 16 bits
Compression mode : Lossy
Stream size : 141 MiB (2%)
Title : Двухголосый (НТВ+)
Language : Russian
Service kind : Complete Main
Default : No
Forced : No

Audio #4
ID : 5
Format : AC-3
Format/Info : Audio Coding 3
Format settings, Endianness : Big
Codec ID : A_AC3
Duration : 1 h 42 min
Bit rate mode : Constant
Bit rate : 192 kb/s
Channel(s) : 2 channels
Channel positions : Front: L R
Sampling rate : 48.0 kHz
Frame rate : 31.250 FPS (1536 SPF)
Bit depth : 16 bits
Compression mode : Lossy
Stream size : 141 MiB (2%)
Title : Авторский (Л.Володарский)
Language : Russian
Service kind : Complete Main
Default : No
Forced : No

Audio #5
ID : 6
Format : AC-3
Format/Info : Audio Coding 3
Format settings, Endianness : Big
Codec ID : A_AC3
Duration : 1 h 42 min
Bit rate mode : Constant
Bit rate : 192 kb/s
Channel(s) : 2 channels
Channel positions : Front: L R
Sampling rate : 48.0 kHz
Frame rate : 31.250 FPS (1536 SPF)
Bit depth : 16 bits
Compression mode : Lossy
Stream size : 141 MiB (2%)
Title : Авторский (А.Михалёв)
Language : Russian
Service kind : Complete Main
Default : No
Forced : No

Audio #6
ID : 7
Format : AC-3
Format/Info : Audio Coding 3
Format settings, Endianness : Big
Codec ID : A_AC3
Duration : 1 h 42 min
Bit rate mode : Constant
Bit rate : 448 kb/s
Channel(s) : 6 channels
Channel positions : Front: L C R, Side: L R, LFE
Sampling rate : 48.0 kHz
Frame rate : 31.250 FPS (1536 SPF)
Bit depth : 16 bits
Compression mode : Lossy
Stream size : 329 MiB (5%)
Title : Авторский А.Гаврилов
Language : Russian
Service kind : Complete Main
Default : No
Forced : No

Audio #7
ID : 8
Format : AC-3
Format/Info : Audio Coding 3
Format settings, Endianness : Big
Codec ID : A_AC3
Duration : 1 h 42 min
Bit rate mode : Constant
Bit rate : 448 kb/s
Channel(s) : 6 channels
Channel positions : Front: L C R, Side: L R, LFE
Sampling rate : 48.0 kHz
Frame rate : 31.250 FPS (1536 SPF)
Bit depth : 16 bits
Compression mode : Lossy
Stream size : 329 MiB (5%)
Title : Авторский (Ю.Живов)
Language : Russian
Service kind : Complete Main
Default : No
Forced : No

Audio #8
ID : 9
Format : AC-3
Format/Info : Audio Coding 3
Format settings, Endianness : Big
Codec ID : A_AC3
Duration : 1 h 42 min
Bit rate mode : Constant
Bit rate : 448 kb/s
Channel(s) : 6 channels
Channel positions : Front: L C R, Side: L R, LFE
Sampling rate : 48.0 kHz
Frame rate : 31.250 FPS (1536 SPF)
Bit depth : 16 bits
Compression mode : Lossy
Stream size : 329 MiB (5%)
Language : English
Service kind : Complete Main
Default : No
Forced : No

Text #1
ID : 10
Format : UTF-8
Codec ID : S_TEXT/UTF8
Codec ID/Info : UTF-8 Plain Text
Duration : 1 h 36 min
Bit rate : 32 b/s
Count of elements : 513
Stream size : 22.7 KiB (0%)
Language : Russian
Default : Yes
Forced : No

Text #2
ID : 11
Format : UTF-8
Codec ID : S_TEXT/UTF8
Codec ID/Info : UTF-8 Plain Text
Duration : 1 h 36 min
Bit rate : 23 b/s
Count of elements : 480
Stream size : 16.3 KiB (0%)
Language : English
Default : No
Forced : No

Menu
00:00:00.000 : :Chapter 01
00:02:29.316 : :Chapter 02
00:05:28.495 : :Chapter 03
00:08:26.338 : :Chapter 04
00:10:40.638 : :Chapter 05
00:14:39.211 : :Chapter 06
00:20:16.214 : :Chapter 07
00:25:08.339 : :Chapter 08
00:27:40.992 : :Chapter 09
00:31:34.058 : :Chapter 10
00:34:03.875 : :Chapter 11
00:39:00.170 : :Chapter 12
00:41:53.677 : :Chapter 13
00:45:21.052 : :Chapter 14
00:46:35.458 : :Chapter 15
00:50:48.210 : :Chapter 16
00:55:11.474 : :Chapter 17
00:57:56.306 : :Chapter 18
01:00:36.131 : :Chapter 19
01:05:27.923 : :Chapter 20
01:09:00.302 : :Chapter 21
01:11:25.280 : :Chapter 22
01:16:01.055 : :Chapter 23
01:20:09.970 : :Chapter 24
01:25:09.104 : :Chapter 25
01:28:51.658 : :Chapter 26
01:31:37.158 : :Chapter 27
01:35:14.542 : :Chapter 28
01:40:24.018 : :Chapter 29
Cкриншот1 Выход Дракона / Enter the Dragon (1973) [40th Anniversary Remastered Edition] BDRip 1080p [HEVC] 10 bit
Загружается...
Cкриншот2 Выход Дракона / Enter the Dragon (1973) [40th Anniversary Remastered Edition] BDRip 1080p [HEVC] 10 bit
Загружается...
Cкриншот3 Выход Дракона / Enter the Dragon (1973) [40th Anniversary Remastered Edition] BDRip 1080p [HEVC] 10 bit
Загружается...
Cкриншот4 Выход Дракона / Enter the Dragon (1973) [40th Anniversary Remastered Edition] BDRip 1080p [HEVC] 10 bit
Загружается...
Сэмпл

Ссылки для скачивания доступны только зарегистрированным/авторизованным пользователям!

09.08.2018Cthulhu
031306.89 ГБ
Добавление нового комментария
Добавление комментариев доступно только зарегистрированным/авторизованным пользователям.