Обложка Оно / It (2017) BDRip 1080p [HEVC] 10 bit от HANNIBALОбложка Робин Гуд / Robin Hood (2010) [Director's Cut] BDRip 1080p [HEVC] 10 bit от CthulhuОбложка Отступники / The Departed (2006) [FR Transfer] BDRip 1080p [HEVC] 10 bit от CthulhuОбложка Rammstein - Paris (2017) BDRip 1080p [HEVC] 8 bit от CthulhuОбложка Красная жара / Red Heat (1988) BDRip 1080p [HEVC] 10 bit от OldGamerОбложка Эквилибриум / Equilibrium (2002) [Open Matte] BDRip 1080p [HEVC] 10 bit от HANNIBALОбложка Веном / Venom (2018) BDRip 1080p [HEVC] 10 bit от M@kSIMusОбложка Знакомство с родителями / Meet the Parents (2000) BDRip 1080p [HEVC] 10 bit от M@kSIMusОбложка Исходный код / Source Code (2011) BDRip 1080p [HEVC] 10 bit от OldGamerОбложка Доктор Голливуд / Doc Hollywood (1991) BDRip 1080p [HEVC] 10 bit от OldGamer

Авторизация

Смена пароля

captcha

Регистрация

captcha

🔍 Поиск

Виннету и полукровка Апаначи / Winnetou und das Halbblut Apanatschi (1966) BDRip 1080p [HEVC] 10 bit от Joker63

HEVC
10 bit
Обложка Виннету и полукровка Апаначи / Winnetou und das Halbblut Apanatschi (1966) BDRip 1080p [HEVC] 10 bit от Joker63 Год: 1966
Страна: Германия (ФРГ), Италия, Югославия
Жанр: Вестерн, Приключения
Продолжительность: 01:30:22

Режиссер: Харольд Филипп
В ролях: Лекс Баркер, Пьер Брис, Гёц Георге, Уши Глас, Ральф Вольтер, Уолтер Барнс, Илия Джувалековский, Миха Балох, Маринко Чошич, Петар Добрич, Владимир Лейб, Нада Касапич, Мария Чрнобори, Симе Ягаринец, Звонко Добрин, Иво Кристоф, Бранко Шпольяр, Йохен Брокманн, Майкл Крамер, Матиас Айнерт, Герт Гюнтер Хоффманн, Инге Ландгут

Описание: В день своего совершеннолетия дочь женщины-апачи и белого охотника Мэка — красавица Аппаначи — получает родительское благословение на брак с любимым и золотую жилу в приданое. Но ее счастье было недолгим. Старые знакомцы отца, такие же неотягощенные моралью трапперы, требуют у Мэка свою долю золота и в суматохе убивают его. Казалось бы, теперь все золото в их руках, но своей болтливостью они подписывают себе смертный приговор от рук настоящих бандитов из шайки знаменитого Керли Билла. Лишь в последний момент на помощь несчастной девушке и ее жениху приходят, как всегда великолепные, Верная Рука и Виннету.


6.574115
5.6
1127


Формат: MKV
Видео: 1914x816, 6974 Kbps
Аудио1: AC3, 2 ch, 192 Kbps - Русский, Многоголосый закадровый
Аудио2: AC3, 6 ch, 448 Kbps - Немецкий
Субтитры: Нет

Медиаинфо
Общее
Уникальный идентификатор : 214437662616415878308468555362224228217 (0xA153310A522E5E92CA27D45F3F0AC779)
Полное имя : D:\Карл Май\09.Полукровка и Виннету (Виннету и полукровка Апаначи) Winnetou und das Halbblut Apanatschi 1966 BDRip 1080p [HEVC] 10 bit.mkv
Формат : Matroska
Версия формата : Version 4 / Version 2
Размер файла : 4,81 Гбайт
Продолжительность : 1 ч. 30 м.
Общий поток : 7616 Кбит/сек
Название фильма : Рип от Joker63 для HEVC - CLUB
Дата кодирования : UTC 2018-08-09 11:25:31
Программа кодирования : mkvmerge v24.0.0 ('Beyond The Pale') 64-bit
Библиотека кодирования : libebml v1.3.6 + libmatroska v1.4.9
Обложка : Yes
Attachments : cover.jpg

Видео
Идентификатор : 1
Формат : HEVC
Формат/Информация : High Efficiency Video Coding
Профиль формата : Main 10@L5.1@Main
Идентификатор кодека : V_MPEGH/ISO/HEVC
Продолжительность : 1 ч. 30 м.
Битрейт : 6974 Кбит/сек
Ширина : 1914 пикселей
Высота : 816 пикселей
Соотношение сторон : 2,35:1
Режим частоты кадров : Постоянный
Частота кадров : 23,976 (24000/1001) кадра/сек
Цветовое пространство : YUV
Субдискретизация насыщенности : 4:2:0
Битовая глубина : 10 бит
Бит/(Пиксели*Кадры) : 0.186
Размер потока : 4,40 Гбайт (92%)
Библиотека кодирования : x265 2.8+19-bcdc610cf5f0:[Windows][GCC 7.3.0][64 bit] 10bit
Настройки программы : cpuid=1049583 / frame-threads=5 / numa-pools=4 / wpp / no-pmode / no-pme / no-psnr / no-ssim / log-level=3 / input-csp=1 / input-res=1914x816 / interlace=0 / total-frames=0 / level-idc=51 / high-tier=1 / uhd-bd=0 / ref=5 / allow-non-conformance / no-repeat-headers / annexb / no-aud / no-hrd / info / hash=0 / no-temporal-layers / open-gop / min-keyint=24 / keyint=240 / gop-lookahead=0 / bframes=4 / b-adapt=2 / b-pyramid / bframe-bias=0 / rc-lookahead=20 / lookahead-slices=5 / scenecut=40 / radl=0 / no-intra-refresh / ctu=64 / min-cu-size=8 / no-rect / no-amp / max-tu-size=32 / tu-inter-depth=1 / tu-intra-depth=1 / limit-tu=0 / rdoq-level=0 / dynamic-rd=0.00 / no-ssim-rd / signhide / no-tskip / nr-intra=0 / nr-inter=0 / no-constrained-intra / strong-intra-smoothing / max-merge=2 / limit-refs=3 / no-limit-modes / me=1 / subme=2 / merange=57 / temporal-mvp / weightp / no-weightb / no-analyze-src-pics / deblock=-2:-2 / sao / no-sao-non-deblock / rd=3 / no-early-skip / rskip / no-fast-intra / no-tskip-fast / no-cu-lossless / no-b-intra / no-splitrd-skip / rdpenalty=0 / psy-rd=2.00 / psy-rdoq=0.00 / no-rd-refine / no-lossless / cbqpoffs=0 / crqpoffs=0 / rc=abr / bitrate=7000 / qcomp=0.60 / qpstep=4 / stats-write=0 / stats-read=0 / ipratio=1.40 / pbratio=1.30 / aq-mode=1 / aq-strength=1.00 / cutree / zone-count=0 / no-strict-cbr / qg-size=32 / no-rc-grain / qpmax=69 / qpmin=0 / no-const-vbv / sar=1 / overscan=0 / videoformat=5 / range=0 / colorprim=1 / transfer=1 / colormatrix=1 / chromaloc=0 / display-window=0 / max-cll=0,0 / min-luma=0 / max-luma=1023 / log2-max-poc-lsb=8 / vui-timing-info / vui-hrd-info / slices=1 / no-opt-qp-pps / no-opt-ref-list-length-pps / no-multi-pass-opt-rps / scenecut-bias=0.05 / no-opt-cu-delta-qp / no-aq-motion / no-hdr / no-hdr-opt / no-dhdr10-opt / no-idr-recovery-sei / analysis-reuse-level=5 / scale-factor=0 / refine-intra=0 / refine-inter=0 / refine-mv=0 / no-limit-sao / ctu-info=0 / no-lowpass-dct / refine-mv-type=0 / copy-pic=1 / max-ausize-factor=1.0 / no-dynamic-refine / no-single-sei
Default : Да
Forced : Нет
Цветовой диапазон : Limited
Основные цвета : BT.709
Характеристики трансфера : BT.709
Коэффициенты матрицы : BT.709

Аудио #1
Идентификатор : 2
Формат : AC-3
Формат/Информация : Audio Coding 3
Идентификатор кодека : A_AC3
Продолжительность : 1 ч. 30 м.
Вид битрейта : Постоянный
Битрейт : 192 Кбит/сек
Каналы : 2 канала
Расположение каналов : Front: L R
Частота : 48,0 КГц
Частота кадров : 31,250 кадров/сек (1536 SPF)
Битовая глубина : 16 бит
Метод сжатия : С потерями
Размер потока : 124 Мбайт (3%)
Язык : Russian
ServiceKind/String : Complete Main
Default : Да
Forced : Нет

Аудио #2
Идентификатор : 3
Формат : AC-3
Формат/Информация : Audio Coding 3
Идентификатор кодека : A_AC3
Продолжительность : 1 ч. 30 м.
Вид битрейта : Постоянный
Битрейт : 448 Кбит/сек
Каналы : 6 каналов
Расположение каналов : Front: L C R, Side: L R, LFE
Частота : 48,0 КГц
Частота кадров : 31,250 кадров/сек (1536 SPF)
Битовая глубина : 16 бит
Метод сжатия : С потерями
Размер потока : 290 Мбайт (6%)
Язык : German
ServiceKind/String : Complete Main
Default : Нет
Forced : Нет
Сэмпл
Cкриншот1 Виннету и полукровка Апаначи / Winnetou und das Halbblut Apanatschi (1966) BDRip 1080p [HEVC] 10 bit от Joker63
Загружается...
Cкриншот2 Виннету и полукровка Апаначи / Winnetou und das Halbblut Apanatschi (1966) BDRip 1080p [HEVC] 10 bit от Joker63
Загружается...
Cкриншот3 Виннету и полукровка Апаначи / Winnetou und das Halbblut Apanatschi (1966) BDRip 1080p [HEVC] 10 bit от Joker63
Загружается...
Cкриншот4 Виннету и полукровка Апаначи / Winnetou und das Halbblut Apanatschi (1966) BDRip 1080p [HEVC] 10 bit от Joker63
Загружается...
Ссылки для скачивания доступны только зарегистрированным/авторизованным пользователям!

09.08.2018  14:42:26
0
117
0
0
4.81 ГБ

Добавление нового комментария

Добавление комментариев доступно только зарегистрированным/авторизованным пользователям.