Обложка Привидение / Every Day (2018) BDRip 1080p [HEVC] 8 bit от M@kSIMusОбложка Правда или действие / Truth or Dare (2018) BDRip 1080p [HEVC] 10 bit от M@kSIMusОбложка План побега 2 / Escape Plan 2: Hades (2018) BDRip 1080p [HEVC] 10 bit от druidblackОбложка Дом, который построил Джек / The House That Jack Built (2018) BDRip 1080p [HEVC] 10 bit от HANNIBALОбложка Великий уравнитель 2 / The Equalizer 2 (2018) BDRip 1080p [HEVC] 10 bit от HANNIBALОбложка Веном / Venom (2018) UHD-BDRip 2160p [HEVC] 10 bit [HDR] от HANNIBALОбложка 22 мили / Mile 22 (2018) BDRip 1080p [HEVC] 10 bit от HANNIBALОбложка Tomb Raider: Лара Крофт / Tomb Raider (2018) BDRip 1080p [HEVC] 10 bit от XuMuKОбложка Мир Юрского периода: Дилогия / Jurassic World: Dilogy (2015-2018) BDRip 1080p [HEVC] 10 bit от Mr. FoxОбложка Дикие предки / Early Man (2018) BDRip 1080p [HEVC] 10 bit от M@kSIMus

Авторизация

Смена пароля

captcha

Регистрация

captcha

Мини-чат

(12:51)Kaban: OldGamer, и делаю сэмплы к тем раздачам,у которых их не было изначально
(13:08)Admin: Kaban, насколько я помню не перешли только Химик и DSIO. Химик - потому что сам хотел быть тут админом, но я отказался кинуть Олега и Мичмана. А какая причина была у DSIO я так и не узнал. В итоге Олег с Мичманом сами отказались от своих админок, из-за того, что я не захотел, чтобы тут появились говнорипы и из-за того, что единолично принял решение турнуть отсюда Максика из-за его припадков с подменой торрент файлов. Так что кто кого кинул вопрос спорный. Хотя Олег пытался уговорить Мичмана остаться, поэтому я против него ничего не имею. И говорю ещё раз, он хотел как лучше. Но Мичман, Максик, и Negan решили вернуться обратно на юкоз, так что Олегу пришлось пойти им на встречу. А Cthulhu "ушел", потому что хотел стать профи, и не хотел остаться среди кодеров того уровня, на каком были тогда остальные. К нему у меня тоже никаких претензий. Он и так довольно долго пытался тянуть сайт на себе за что спс. И никакой тайны покрытой мраком тут нет. Есть только разговоры за моей спиной.
(13:11)Admin: Отъеду на пару дней. Срочные дела. Надеюсь успею вернуться к сроку окончания аренды и продлю. Но если вдруг нет, и сайт отключится, то не переживайте. Вернусь - разберусь.
(13:24)ADVOKAT69: AlexTwitt, joker63, ✋✋
(13:31)joker63: ADVOKAT69, ✋
(13:31)joker63: ADVOKAT69, читал чат просто)
(13:32)joker63: ADVOKAT69, интересно.как книгу- роман,читается)
(13:47)ADVOKAT69: joker63,читал!очень интресно!но не приятно!
(14:40)AlexTwitt: ADVOKAT69, ✌
(14:43)joker63: AlexTwitt, OldGamer, ✋
(14:47)AlexTwitt: joker63, ✋
(14:50)Kaban: Мне вот всё таки интересно,а чьи говнорипы Админ имел ввиду?)))
(15:11)Мечтательная Атения: Сообщение удалено (OldGamer)
(16:04)OldGamer: Пользователь Мечтательная Атения забанен навсегда
(16:06)OldGamer: Пользователь Мечтательная Атения разбанен
(16:06)OldGamer: ага, понятно как работает
(16:23)OldGamer: Мечтательная Атения, давай про всех рассказывай, так нечестно!
(08:22)DSIO: Сообщение удалено (DSIO)
  • OldGamer
  • Cthulhu
  • Keiser
Онлайн: 3
Отправка сообщений доступно только зарегистрированным/авторизованным пользователям.

🔍 Поиск

Пила 5 / Saw V (2008) [Director's Cut] BDRip 1080p [HEVC] 10 bit от M@kSIMus

HEVC
10 bit
Обложка Пила 5 / Saw V (2008) [Director's Cut] BDRip 1080p [HEVC] 10 bit от M@kSIMus Год: 2008
Страна: США, Канада
Студия: Twisted Pictures.
Жанр: Ужасы, Триллер, Детектив, Криминал
Продолжительность: 01:35:03

Режиссер: Дэвид Хэкл
В ролях: Тобин Белл, Костас Мэндилор, Скотт Гордон-Паттерсон, Бетси Расселл, Джули Бенц, Миган Гуд, Марк Ролстон, Карло Рота, Грег Брайк, Лаура Гордон

Описание: Один из последователей маньяка-убийцы Пилы, Марк Хоффман, следуя заветам своего кровавого гуру, готовит очередную смертельную головоломку. Тем временем агент Страм начинает догадываться о связи Хоффмана с Пилой, и Хоффману приходится выйти на новую охоту, чтобы уничтожить все ниточки, ведущие к нему. Пятерых незнакомых друг с другом людей уже ждёт жестокий урок командной игры на выживание — ещё больше крови, ещё изощреннее ловушки… Страм идёт по следам Хоффмана, пытаясь докопаться до причин, по которым он присоединился к Пиле.


6.87748865
5.8
108559


Формат: MKV
Видео: 1920x1080, 14.4 Mbps
Аудио1: AC3, 6 ch, 448 Kbps -
Дублированный, без перевода расширенных сцен

Аудио2: AC3, 6 ch, 448 Kbps -
Оригинал

Субтитры: Русские (на расширенные сцены, полные), английские

Как за пару секунд удалить ненужные аудиодорожки и субтитры (Внимание! После удаления вы не сможете поддержать раздачу)

Медиаинфо
Формат : Matroska
Версия формата : Version 4
Размер файла : 10,2 Гбайт
Продолжительность : 1 ч. 35 м.
Общий поток : 15,3 Мбит/сек
Название фильма : Пила 5 (2008) [Director's Cut] Encoded_by_M@kSIMus
Дата кодирования : UTC 2019-10-10 07:45:28
Программа кодирования : mkvmerge v38.0.0 ('The Silent Type') 64-bit
Библиотека кодирования : libebml v1.3.9 + libmatroska v1.5.2
Обложка : Yes
Attachments : cover5.jpg

Видео
Идентификатор : 1
Формат : HEVC
Формат/Информация : High Efficiency Video Coding
Профиль формата : Main 10@L4.1@High
Идентификатор кодека : V_MPEGH/ISO/HEVC
Продолжительность : 1 ч. 35 м.
Битрейт : 14,4 Мбит/сек
Ширина : 1920 пикселей
Высота : 1080 пикселей
Соотношение сторон : 16:9
Режим частоты кадров : Постоянный
Частота кадров : 23,976 (24000/1001) кадра/сек
Цветовое пространство : YUV
Субдискретизация насыщенности : 4:2:0
Битовая глубина : 10 бит
Бит/(Пиксели*Кадры) : 0.290
Размер потока : 9,56 Гбайт (94%)
Библиотека кодирования : x265 3.1+11-de920e0a3183:[Windows][clang 8.0.1][64 bit] 10bit
Настройки программы : cpuid=1049583 / frame-threads=5 / numa-pools=4 / wpp / no-pmode / no-pme / no-psnr / no-ssim / log-level=3 / input-csp=1 / input-res=1920x1080 / interlace=0 / total-frames=0 / level-idc=41 / high-tier=1 / uhd-bd=0 / ref=4 / allow-non-conformance / no-repeat-headers / annexb / no-aud / no-hrd / info / hash=0 / no-temporal-layers / open-gop / min-keyint=24 / keyint=240 / gop-lookahead=0 / bframes=14 / b-adapt=2 / b-pyramid / bframe-bias=0 / rc-lookahead=40 / lookahead-slices=6 / scenecut=40 / radl=0 / no-splice / no-intra-refresh / ctu=32 / min-cu-size=8 / no-rect / no-amp / max-tu-size=32 / tu-inter-depth=4 / tu-intra-depth=4 / limit-tu=1 / rdoq-level=1 / dynamic-rd=0.00 / no-ssim-rd / signhide / no-tskip / nr-intra=0 / nr-inter=0 / no-constrained-intra / no-strong-intra-smoothing / max-merge=5 / limit-refs=1 / no-limit-modes / me=3 / subme=7 / merange=57 / temporal-mvp / no-hme / weightp / no-weightb / no-analyze-src-pics / deblock=-3:-3 / no-sao / no-sao-non-deblock / rd=3 / early-skip / no-rskip / no-fast-intra / no-tskip-fast / no-cu-lossless / b-intra / no-splitrd-skip / rdpenalty=0 / psy-rd=2.00 / psy-rdoq=1.00 / no-rd-refine / no-lossless / cbqpoffs=0 / crqpoffs=0 / rc=crf / crf=20.0 / qcomp=0.60 / qpstep=4 / stats-write=0 / stats-read=0 / vbv-maxrate=50000 / vbv-bufsize=50000 / vbv-init=0.9 / crf-max=0.0 / crf-min=0.0 / ipratio=1.40 / pbratio=1.30 / aq-mode=3 / aq-strength=1.00 / no-cutree / zone-count=0 / no-strict-cbr / qg-size=32 / no-rc-grain / qpmax=69 / qpmin=0 / no-const-vbv / sar=1 / overscan=0 / videoformat=5 / range=0 / colorprim=1 / transfer=1 / colormatrix=1 / chromaloc=0 / display-window=0cll=0,0 / min-luma=0 / max-luma=1023 / log2-max-poc-lsb=8 / vui-timing-info / vui-hrd-info / slices=1 / no-opt-qp-pps / no-opt-ref-list-length-pps / no-multi-pass-opt-rps / scenecut-bias=0.05 / no-opt-cu-delta-qp / no-aq-motion / no-hdr / no-hdr-opt / no-dhdr10-opt / no-idr-recovery-sei / analysis-reuse-level=5 / scale-factor=0 / refine-intra=0 / refine-inter=0 / refine-mv=0 / refine-ctu-distortion=0 / no-limit-sao / ctu-info=0 / no-lowpass-dct / refine-analysis-type=0 / copy-pic=1 / max-ausize-factor=1.0 / no-dynamic-refine / no-single-sei / no-hevc-aq / no-svt / no-field / qp-adaptation-range=1.00
Язык : English
Default : Да
Forced : Нет
Цветовой диапазон : Limited
Основные цвета : BT.709
Характеристики трансфера : BT.709
Коэффициенты матрицы : BT.709

Аудио #1
Идентификатор : 2
Формат : AC-3
Формат/Информация : Audio Coding 3
Коммерческое название : Dolby Digital
Идентификатор кодека : A_AC3
Продолжительность : 1 ч. 35 м.
Вид битрейта : Постоянный
Битрейт : 448 Кбит/сек
Каналы : 6 каналов
ChannelLayout : L R C LFE Ls Rs
Частота : 48,0 КГц
Частота кадров : 31,250 кадров/сек (1536 SPF)
Битовая глубина : 16 бит
Метод сжатия : С потерями
Размер потока : 305 Мбайт (3%)
Заголовок : Дубляж
Язык : Russian
Default : Да
Forced : Нет

Аудио #2
Идентификатор : 3
Формат : AC-3
Формат/Информация : Audio Coding 3
Коммерческое название : Dolby Digital
Идентификатор кодека : A_AC3
Продолжительность : 1 ч. 35 м.
Вид битрейта : Постоянный
Битрейт : 448 Кбит/сек
Каналы : 6 каналов
ChannelLayout : L R C LFE Ls Rs
Частота : 48,0 КГц
Частота кадров : 31,250 кадров/сек (1536 SPF)
Битовая глубина : 16 бит
Метод сжатия : С потерями
Размер потока : 305 Мбайт (3%)
Заголовок : Оригинал
Язык : English
Default : Нет
Forced : Нет

Текст #1
Идентификатор : 4
Формат : UTF-8
Идентификатор кодека : S_TEXT/UTF8
Идентификатор кодека/Информация : UTF-8 Plain Text
Продолжительность : 1 ч. 21 м.
Битрейт : 3 бит/сек
ElementCount : 42
Размер потока : 2,15 Кбайт (0%)
Заголовок : Rus Forced
Язык : Russian
Default : Да
Forced : Да

Текст #2
Идентификатор : 5
Формат : UTF-8
Идентификатор кодека : S_TEXT/UTF8
Идентификатор кодека/Информация : UTF-8 Plain Text
Продолжительность : 1 ч. 27 м.
Битрейт : 62 бит/сек
ElementCount : 746
Размер потока : 40,1 Кбайт (0%)
Заголовок : Rus Full
Язык : Russian
Default : Нет
Forced : Нет

Текст #3
Идентификатор : 6
Формат : UTF-8
Идентификатор кодека : S_TEXT/UTF8
Идентификатор кодека/Информация : UTF-8 Plain Text
Продолжительность : 1 ч. 28 м.
Битрейт : 41 бит/сек
ElementCount : 800
Размер потока : 27,3 Кбайт (0%)
Заголовок : Eng Full
Язык : English
Default : Нет
Forced : Нет

Меню
00:00:00.000 : en:00:00:00.000
00:00:02.002 : en:00:00:02.002
00:06:10.787 : en:00:06:10.787
00:12:15.485 : en:00:12:15.485
00:15:25.716 : en:00:15:25.716
00:22:02.446 : en:00:22:02.446
00:28:42.721 : en:00:28:42.721
00:34:33.446 : en:00:34:33.446
00:36:41.116 : en:00:36:41.116
00:42:15.533 : en:00:42:15.533
00:49:40.686 : en:00:49:40.686
00:51:51.734 : en:00:51:51.734
01:00:23.036 : en:01:00:23.036
01:05:29.259 : en:01:05:29.259
01:11:33.039 : en:01:11:33.039
01:17:09.458 : en:01:17:09.458
01:25:30.709 : en:01:25:30.709
Cкриншот1 Пила 5 / Saw V (2008) [Director's Cut] BDRip 1080p [HEVC] 10 bit от M@kSIMus
Загружается...
Cкриншот2 Пила 5 / Saw V (2008) [Director's Cut] BDRip 1080p [HEVC] 10 bit от M@kSIMus
Загружается...
Cкриншот3 Пила 5 / Saw V (2008) [Director's Cut] BDRip 1080p [HEVC] 10 bit от M@kSIMus
Загружается...
Cкриншот4 Пила 5 / Saw V (2008) [Director's Cut] BDRip 1080p [HEVC] 10 bit от M@kSIMus
Загружается...
СэмплТоррентМагнетКнопки для благодарностей доступны только зарегистрированным/авторизованным пользователям!

Раздача обновлена!
Дорожки заменены с 640 Kbps на 448 Kbps.

Поблагодарили: 2
375509, MIGRANT
21.10.2019  10:49:13
2
36
0
0
10.16 ГБ

Добавление нового комментария

Добавление комментариев доступно только зарегистрированным/авторизованным пользователям.
Аватар MIGRANT
  MIGRANT  14.10.2019  20:34:32
Раздачи вообще нет...
Аватар alex_rad
  alex_rad  09.10.2019  17:57:38
8-ая часть с нормальным четким дубляжом выйдет? (а не с тунцом, где рассинхрон в конце)