Обложка Оно / It (2017) BDRip 1080p [HEVC] 10 bit от HANNIBALОбложка Аквамен / Aquaman (2018) [IMAX] BDRip 1080p [HEVC] 10 bit от Mr. FoxОбложка Человек-паук: Через вселенные / Spider-Man: Into the Spider-Verse (2018) [Локализованная версия] BDRip 1080p [HEVC] 10 bit от M@kSIMusОбложка Богемская рапсодия / Bohemian Rhapsody (2018) BDRip 1080p [HEVC] 10 bit от M@kSIMusОбложка Темный рыцарь: Возрождение легенды / The Dark Knight Rises (2012) [IMAX] BDRip 1080p [HEVC] 10 bit от M@kSIMusОбложка Мир Дикого Запада / Westworld (2018) [2 сезон] BDRip 1080p [HEVC] 10 bit от OldGamerОбложка Варкрафт / Warcraft (2016) BDRip 1080p [HEVC] 10 bit от M@kSIMusОбложка Сумерки: Антология / Twilight: Anthology (2008-2012) BDRip 1080p [HEVC] 10 bit от M@kSIMusОбложка Человек на Луне / First Man (2018) [IMAX Edition] BDRip 1080p [HEVC] 10 bit от M@kSIMusОбложка Rammstein - Paris (2017) BDRip 1080p [HEVC] 8 bit от Cthulhu

Авторизация

Смена пароля

captcha

Регистрация

captcha

Мини-чат

(21:53) Kaban: Сообщение удалено (Kaban)
(16:03) Блистательная Атения: Как интересно! :)
(16:03) Блистательная Атения: Никого! :)
(16:04) Блистательная Атения: Олдгеймер! Ау! 😊
  • igor302
Онлайн: 1
Отправка сообщений доступно только зарегистрированным/авторизованным пользователям.

🔍 Поиск

Наемник / Il mercenario (1968) BDRip 1080p [HEVC] 10 bit от joker63

HEVC
10 bit
Обложка Наемник / Il mercenario (1968) BDRip 1080p [HEVC] 10 bit от joker63 Год: 1968
Страна: Италия, Испания, США
Жанр: Вестерн, Комедия
Продолжительность: 01:46:07

Режиссер: Серджио Корбуччи
В ролях: Франко Неро, Джек Пэланс, Тони Мусанте, Джованна Ралли, Эдуардо Фахардо, Альваро де Луна, Уго Адинольфи, Раф Бальдассарре, Хосе Каналехас, Франциско Ниэто, Винсент Рока, Франко Рессель, Гильермо Мендез, Энрике Наварро, Симон Арриага, Тито Гарсия, Франко Джакобини, Ремо Де Анджелис, Хулио Пенья, Хуан Касалилья

Описание: Пако Роман, мексиканский крестьянин, восстаёт против местного богача и прелюдно оскорбляет его. Толстосум в отместку нанимает людей, чтобы убить Пако, но друзья спасают крестьянина. Тем временем в деревушку приезжает наёмный убийца поляк Сергей Ковальски, который должен организовать перевозку серебра…


7.115485
7.2
3633


Формат: MKV
Видео: 1920x816, 5998 Kbps
Аудио1: AC3, 1 ch, 128 Kbps -
Профессиональный многоголосый (Петербург - Пятый канал)

Аудио2: AC3, 6 ch, 448 Kbps -
Оригинал

Субтитры: Нет

Как за пару секунд удалить ненужные аудиодорожки и субтитры (Внимание! После удаления вы не сможете поддержать раздачу)

Медиаинфо
Общее
Уникальный идентификатор : 25430610400630617886362543428494262446 (0x1321C1E5749707F18E51327BE8C580AE)
Полное имя : E:\Франко Неро\Наемник Профессиональный стрелок Il Mercenario A Professional Gun.(1968)BDRip 1080p [HEVC] 10 bit.mkv
Формат : Matroska
Версия формата : Version 4
Размер файла : 4,64 Гбайт
Продолжительность : 1 ч. 46 м.
Общий поток : 6256 Кбит/сек
Название фильма : Наемник / Il mercenario (El Mercenario) / 1968 _рип от Joker63
Дата кодирования : UTC 2018-09-01 08:56:57
Программа кодирования : mkvmerge v26.0.0 ('In The Game') 64-bit
Библиотека кодирования : libebml v1.3.6 + libmatroska v1.4.9
Обложка : Yes
Attachments : cover.jpg

Видео
Идентификатор : 1
Формат : HEVC
Формат/Информация : High Efficiency Video Coding
Профиль формата : Main 10@L5.1@Main
Идентификатор кодека : V_MPEGH/ISO/HEVC
Продолжительность : 1 ч. 46 м.
Битрейт : 5998 Кбит/сек
Ширина : 1920 пикселей
Высота : 816 пикселей
Соотношение сторон : 2,35:1
Режим частоты кадров : Постоянный
Частота кадров : 23,976 (24000/1001) кадра/сек
Цветовое пространство : YUV
Субдискретизация насыщенности : 4:2:0
Битовая глубина : 10 бит
Бит/(Пиксели*Кадры) : 0.160
Размер потока : 4,45 Гбайт (96%)
Библиотека кодирования : x265 2.8+19-bcdc610cf5f0:[Windows][GCC 7.3.0][64 bit] 10bit
Настройки программы : cpuid=1049583 / frame-threads=5 / numa-pools=4 / wpp / no-pmode / no-pme / no-psnr / no-ssim / log-level=3 / input-csp=1 / input-res=1920x816 / interlace=0 / total-frames=0 / level-idc=51 / high-tier=1 / uhd-bd=0 / ref=5 / allow-non-conformance / no-repeat-headers / annexb / no-aud / no-hrd / info / hash=0 / no-temporal-layers / open-gop / min-keyint=24 / keyint=240 / gop-lookahead=0 / bframes=4 / b-adapt=2 / b-pyramid / bframe-bias=0 / rc-lookahead=20 / lookahead-slices=5 / scenecut=40 / radl=0 / no-intra-refresh / ctu=64 / min-cu-size=8 / no-rect / no-amp / max-tu-size=32 / tu-inter-depth=1 / tu-intra-depth=1 / limit-tu=0 / rdoq-level=0 / dynamic-rd=0.00 / no-ssim-rd / signhide / no-tskip / nr-intra=0 / nr-inter=0 / no-constrained-intra / strong-intra-smoothing / max-merge=2 / limit-refs=3 / no-limit-modes / me=1 / subme=2 / merange=57 / temporal-mvp / weightp / no-weightb / no-analyze-src-pics / deblock=-2:-2 / sao / no-sao-non-deblock / rd=3 / no-early-skip / rskip / no-fast-intra / no-tskip-fast / no-cu-lossless / no-b-intra / no-splitrd-skip / rdpenalty=0 / psy-rd=2.00 / psy-rdoq=0.00 / no-rd-refine / no-lossless / cbqpoffs=0 / crqpoffs=0 / rc=abr / bitrate=6000 / qcomp=0.60 / qpstep=4 / stats-write=0 / stats-read=0 / ipratio=1.40 / pbratio=1.30 / aq-mode=1 / aq-strength=1.00 / cutree / zone-count=0 / no-strict-cbr / qg-size=32 / no-rc-grain / qpmax=69 / qpmin=0 / no-const-vbv / sar=1 / overscan=0 / videoformat=5 / range=0 / colorprim=1 / transfer=1 / colormatrix=1 / chromaloc=0 / display-window=0 / max-cll=0,0 / min-luma=0 / max-luma=1023 / log2-max-poc-lsb=8 / vui-timing-info / vui-hrd-info / slices=1 / no-opt-qp-pps / no-opt-ref-list-length-pps / no-multi-pass-opt-rps / scenecut-bias=0.05 / no-opt-cu-delta-qp / no-aq-motion / no-hdr / no-hdr-opt / no-dhdr10-opt / no-idr-recovery-sei / analysis-reuse-level=5 / scale-factor=0 / refine-intra=0 / refine-inter=0 / refine-mv=0 / no-limit-sao / ctu-info=0 / no-lowpass-dct / refine-mv-type=0 / copy-pic=1 / max-ausize-factor=1.0 / no-dynamic-refine / no-single-sei
Default : Да
Forced : Нет
Цветовой диапазон : Limited
Основные цвета : BT.709
Характеристики трансфера : BT.709
Коэффициенты матрицы : BT.709

Аудио #1
Идентификатор : 2
Формат : AC-3
Формат/Информация : Audio Coding 3
Коммерческое название : Dolby Digital
Идентификатор кодека : A_AC3
Продолжительность : 1 ч. 46 м.
Вид битрейта : Постоянный
Битрейт : 128 Кбит/сек
Каналы : 1 канал
ChannelLayout : C
Частота : 48,0 КГц
Частота кадров : 31,250 кадров/сек (1536 SPF)
Битовая глубина : 16 бит
Метод сжатия : С потерями
Размер потока : 97,2 Мбайт (2%)
Заголовок : Петербург - Пятый канал
Язык : Russian
ServiceKind/String : Complete Main
Default : Да
Forced : Нет

Аудио #2
Идентификатор : 3
Формат : AC-3
Формат/Информация : Audio Coding 3
Коммерческое название : Dolby Digital
Идентификатор кодека : A_AC3
Продолжительность : 1 ч. 46 м.
Вид битрейта : Постоянный
Битрейт : 128 Кбит/сек
Каналы : 1 канал
ChannelLayout : C
Частота : 48,0 КГц
Частота кадров : 31,250 кадров/сек (1536 SPF)
Битовая глубина : 16 бит
Метод сжатия : С потерями
Размер потока : 97,2 Мбайт (2%)
Язык : English
ServiceKind/String : Complete Main
Default : Нет
Forced : Нет
Cкриншот1 Наемник / Il mercenario (1968) BDRip 1080p [HEVC] 10 bit от joker63
Загружается...
Cкриншот2 Наемник / Il mercenario (1968) BDRip 1080p [HEVC] 10 bit от joker63
Загружается...
Cкриншот3 Наемник / Il mercenario (1968) BDRip 1080p [HEVC] 10 bit от joker63
Загружается...
Cкриншот4 Наемник / Il mercenario (1968) BDRip 1080p [HEVC] 10 bit от joker63
Загружается...
СэмплТоррентМагнетКнопки для благодарностей доступны только зарегистрированным/авторизованным пользователям!

Поблагодарили: 7
375509, brukvalub, ivan_1965, ivs5, SaN161NeK, SYNC80001, vladd37
06.06.2019  12:44:22
0
35
0
1
4.64 ГБ

Добавление нового комментария

Добавление комментариев доступно только зарегистрированным/авторизованным пользователям.