Обложка Аквамен / Aquaman (2018) [IMAX] BDRip 1080p [HEVC] 10 bit от Mr. FoxОбложка Человек-паук: Через вселенные / Spider-Man: Into the Spider-Verse (2018) [Локализованная версия] BDRip 1080p [HEVC] 10 bit от M@kSIMusОбложка Богемская рапсодия / Bohemian Rhapsody (2018) BDRip 1080p [HEVC] 10 bit от M@kSIMusОбложка Крутые меры / Bastille Day (2016) BDRip 1080p [HEVC] 10 bit от OldGamerОбложка Клаустрофобы / Escape Room (2019) BDRip 1080p [HEVC] 10 bit от M@kSIMusОбложка Человек на Луне / First Man (2018) [IMAX Edition] BDRip 1080p [HEVC] 10 bit от M@kSIMusОбложка Мир Дикого Запада / Westworld (2018) [2 сезон] BDRip 1080p [HEVC] 10 bit от OldGamerОбложка Мир Юрского периода 2 / Jurassic World: Fallen Kingdom (2018) BDRip 1080p [HEVC] 10 bit от M@kSIMusОбложка Оно / It (2017) BDRip 1080p [HEVC] 10 bit от HANNIBALОбложка Царство небесное / Kingdom of Heaven (2005) [Director's Cut] BDRip 1080p [HEVC] 10 bit от Cthulhu

Авторизация

Смена пароля

captcha

Регистрация

captcha

Мини-чат

(16:15) OldGamer: Сообщение удалено (OldGamer)
(16:16) Kaban: Сообщение удалено (OldGamer)
(16:17) ADVOKAT69: Сообщение удалено (OldGamer)
(16:17) ADVOKAT69: Сообщение удалено (OldGamer)
(16:18) Kaban: Сообщение удалено (OldGamer)
(16:19) Kaban: Сообщение удалено (OldGamer)
(16:21) OldGamer: Пользователь ADVOKAT69 забанен до 22.06.2019 16:21 (мск)
(16:21) OldGamer: Пользователь Kaban забанен до 22.06.2019 16:21 (мск)
(17:53) DSIO: Да уж, сначала Макс, теперь Кабан, почему лучшие уходят первыми?
(18:46) PRO-USTAS: потому что я говорю тут чат не нужен что бы тут сорится чей тут рип луче или хуже
(18:48) PRO-USTAS: просто могли бы сделать так что бы делали фильм но не сорились в чатах чат удалить а зритель найдет то что ему подуше
(18:51) Студень: походу я пропустил что-то интересное
(18:52) PRO-USTAS: тут сорились ADVOKAT69 и Kaban
(18:59) PRO-USTAS: мой вам совет удалите чат что бы больше не сорились между собой кто чей рип луче
(20:10) AlexTwitt: И будут ссориться в комментариях😀
(22:05) Атения: Что бы такое взять? :)
(22:09) Атения: Зря, кстати, не делаете 720p.
(23:30) ko1ob: Атения, мне кажется это логичным. Мой старый комп не тянул даже 264 1080р, не говоря уже про HEVC, поэтому я качал только 720р. А теперь, когда комп тянет 265, то и 1080р уже не проблема. При том, что размер рипов х264-720р и х265-1080р часто сопостовим. смысла в х265-720р практически нет (как мне кажется). Но не боги горшки обжигают. Кодируйте во что вам нужно и выкладывайте для общего пользования. Получите свои плюсы в карму :)
(23:48) Атения: ko1ob, мне не дают здесь выкладывать!
(00:03) Студень: Атения, и слава богу, что не дают
  • sixaxis
Онлайн: 1
Отправка сообщений доступно только зарегистрированным/авторизованным пользователям.

🔍 Поиск

Власть страха / The Bone collector (1999) BDRip 1080p [HEVC] 10 bit от ADVOKAT69

HEVC
10 bit
Обложка Власть страха / The Bone collector (1999) BDRip 1080p [HEVC] 10 bit от ADVOKAT69 Год: 1999
Страна: США
Жанр: Триллер, Драма, Криминал, Детектив
Продолжительность: 01:57:57

Режиссер: Филип Нойс
В ролях: Дензел Вашингтон, Анджелина Джоли, Куин Латифа, Майкл Рукер, Майк МакГлоун, Луис Гузман, Лиленд Орсер, Джон Бенжамин Хикки, Бобби Каннавале, Эд О’Нил

Описание: Линкольн Райм — знаменитый криминалист, автор множества книг, навсегда прикованный к больничной постели. Амелия Донаги — начинающий полицейский, делающий первые неуверенные шаги по кровавым мостовым. Когда в городе появляется страшный маньяк, она становится глазами и ушами Райма на обезумевших от ужаса улицах. С ее помощью гений криминалистики пытается разгадать тайный шифр, скрытый в непредсказуемых убийствах


7.45832008
6.7
142256


Формат: MKV
Видео: 1920x800, 3333 Kbps
Аудио: AC3, 6 ch, 640 Kbps -
Дублированный (Blu-ray CEE)
Субтитры: нет

Медиаинфо
Общее
Уникальный идентификатор : 218260976567274946872022805726708253019 (0xA43388F8C9DC8296B3B7D2EB092A415B)
Полное имя : G:\Власть страха (1999) HEVC 10bit.mkv
Формат : Matroska
Версия формата : Version 4
Размер файла : 3,27 Гбайт
Продолжительность : 1 ч. 57 м.
Общий поток : 3974 Кбит/сек
Дата кодирования : UTC 2019-06-06 06:33:33
Программа кодирования : mkvmerge v9.2.0 ('Photograph') 64bit
Библиотека кодирования : libebml v1.3.3 + libmatroska v1.4.4
Encoding Gui : Hybrid 2017.05.06.1

Видео
Идентификатор : 1
Формат : HEVC
Формат/Информация : High Efficiency Video Coding
Профиль формата : Main 10@L4.1@High
Идентификатор кодека : V_MPEGH/ISO/HEVC
Продолжительность : 1 ч. 57 м.
Битрейт : 3333 Кбит/сек
Ширина : 1920 пикселей
Высота : 800 пикселей
Соотношение сторон : 2,40:1
Режим частоты кадров : Постоянный
Частота кадров : 23,976 (24000/1001) кадра/сек
Цветовое пространство : YUV
Субдискретизация насыщенности : 4:2:0
Битовая глубина : 10 бит
Бит/(Пиксели*Кадры) : 0.090
Размер потока : 2,75 Гбайт (84%)
Библиотека кодирования : x265 2.5+5-0b3ba15b33ea:[Windows][GCC 7.2.0][64 bit] 10bit
Настройки программы : cpuid=1050111 / frame-threads=2 / numa-pools=4 / wpp / no-pmode / no-pme / no-psnr / no-ssim / log-level=2 / input-csp=1 / input-res=1920x800 / interlace=0 / total-frames=0 / level-idc=41 / high-tier=1 / uhd-bd=0 / ref=3 / no-allow-non-conformance / no-repeat-headers / annexb / no-aud / no-hrd / info / hash=0 / no-temporal-layers / open-gop / min-keyint=23 / keyint=250 / bframes=4 / b-adapt=2 / b-pyramid / bframe-bias=0 / rc-lookahead=20 / lookahead-slices=5 / scenecut=40 / no-intra-refresh / ctu=64 / min-cu-size=8 / no-rect / no-amp / max-tu-size=32 / tu-inter-depth=1 / tu-intra-depth=1 / limit-tu=0 / rdoq-level=0 / dynamic-rd=0.00 / no-ssim-rd / signhide / no-tskip / nr-intra=0 / nr-inter=0 / no-constrained-intra / strong-intra-smoothing / max-merge=2 / limit-refs=3 / no-limit-modes / me=1 / subme=2 / merange=57 / temporal-mvp / weightp / no-weightb / no-analyze-src-pics / deblock=-3:-3 / no-sao / no-sao-non-deblock / rd=3 / no-early-skip / rskip / no-fast-intra / no-tskip-fast / no-cu-lossless / no-b-intra / rdpenalty=0 / psy-rd=2.00 / psy-rdoq=0.00 / no-rd-refine / analysis-reuse-mode=0 / no-lossless / cbqpoffs=0 / crqpoffs=0 / rc=crf / crf=20.0 / qcomp=0.60 / qpstep=4 / stats-write=0 / stats-read=0 / vbv-maxrate=50000 / vbv-bufsize=50000 / vbv-init=0.9 / crf-max=0.0 / crf-min=0.0 / ipratio=1.40 / pbratio=1.30 / aq-mode=1 / aq-strength=1.00 / cutree / zone-count=0 / no-strict-cbr / qg-size=32 / no-rc-grain / qpmax=69 / qpmin=0 / no-const-vbv / sar=0 / overscan=0 / videoformat=5 / range=0 / colorprim=2 / transfer=2 / colormatrix=1 / chromaloc=0 / display-window=0 / max-cll=0,0 / min-luma=0 / max-luma=1023 / log2-max-poc-lsb=8 / vui-timing-info / vui-hrd-info / slices=1 / opt-qp-pps / opt-ref-list-length-pps / no-multi-pass-opt-rps / scenecut-bias=0.05 / no-opt-cu-delta-qp / no-aq-motion / no-hdr / no-hdr-opt / no-dhdr10-opt / analysis-reuse-level=5 / scale-factor=0 / refine-intra=0 / refine-inter=0 / refine-mv=0 / no-limit-sao / ctu-info=0
Default : Да
Forced : Да
Цветовой диапазон : Limited
Коэффициенты матрицы : BT.709

Аудио
Идентификатор : 2
Формат : AC-3
Формат/Информация : Audio Coding 3
Коммерческое название : Dolby Digital
Идентификатор кодека : A_AC3
Продолжительность : 1 ч. 57 м.
Вид битрейта : Постоянный
Битрейт : 640 Кбит/сек
Каналы : 6 каналов
Channel layout : L R C LFE Ls Rs
Частота : 48,0 КГц
Частота кадров : 31,250 кадров/сек (1536 SPF)
Битовая глубина : 16 бит
Метод сжатия : С потерями
Размер потока : 540 Мбайт (16%)
Заголовок : Russian 5.1 48 kHz 640 kbps - дубляж (Blu-ray CEE)
ServiceKind/String : Complete Main
Default : Да
Forced : Нет

Меню
00:00:00.000 : en:Chapter 1
00:03:43.056 : en:Chapter 2
00:07:31.742 : en:Chapter 3
00:14:31.203 : en:Chapter 4
00:25:27.192 : en:Chapter 5
00:30:03.968 : en:Chapter 6
00:43:47.041 : en:Chapter 7
00:53:47.599 : en:Chapter 8
01:02:55.772 : en:Chapter 9
01:09:14.692 : en:Chapter 10
01:15:59.846 : en:Chapter 11
01:25:41.678 : en:Chapter 12
01:29:30.406 : en:Chapter 13
01:33:29.353 : en:Chapter 14
01:41:57.569 : en:Chapter 15
01:49:15.257 : en:Chapter 16
Cкриншот1 Власть страха / The Bone collector (1999) BDRip 1080p [HEVC] 10 bit от ADVOKAT69
Загружается...
Cкриншот2 Власть страха / The Bone collector (1999) BDRip 1080p [HEVC] 10 bit от ADVOKAT69
Загружается...
Cкриншот3 Власть страха / The Bone collector (1999) BDRip 1080p [HEVC] 10 bit от ADVOKAT69
Загружается...
Cкриншот4 Власть страха / The Bone collector (1999) BDRip 1080p [HEVC] 10 bit от ADVOKAT69
Загружается...
СэмплТоррентМагнетКнопки для благодарностей доступны только зарегистрированным/авторизованным пользователям!

Поблагодарили: 15
alexyak, brukvalub, davidoff_k4, e7e1, garant3v, HANNIBAL, ivan_1965, ivs5, Nuclear70, SaN161NeK, sergeich, SYNC80001, tiwruski, Vvulpes, Зикзак
06.06.2019  10:25:01
0
93
2
0
3.27 ГБ

Добавление нового комментария

Добавление комментариев доступно только зарегистрированным/авторизованным пользователям.