Обложка Оно / It (2017) BDRip 1080p [HEVC] 10 bit от HANNIBALОбложка Аквамен / Aquaman (2018) [IMAX] BDRip 1080p [HEVC] 10 bit от Mr. FoxОбложка Человек-паук: Через вселенные / Spider-Man: Into the Spider-Verse (2018) [Локализованная версия] BDRip 1080p [HEVC] 10 bit от M@kSIMusОбложка Богемская рапсодия / Bohemian Rhapsody (2018) BDRip 1080p [HEVC] 10 bit от M@kSIMusОбложка Темный рыцарь: Возрождение легенды / The Dark Knight Rises (2012) [IMAX] BDRip 1080p [HEVC] 10 bit от M@kSIMusОбложка Мир Дикого Запада / Westworld (2018) [2 сезон] BDRip 1080p [HEVC] 10 bit от OldGamerОбложка Сумерки: Антология / Twilight: Anthology (2008-2012) BDRip 1080p [HEVC] 10 bit от M@kSIMusОбложка Варкрафт / Warcraft (2016) BDRip 1080p [HEVC] 10 bit от M@kSIMusОбложка Человек на Луне / First Man (2018) [IMAX Edition] BDRip 1080p [HEVC] 10 bit от M@kSIMusОбложка Rammstein - Paris (2017) BDRip 1080p [HEVC] 8 bit от Cthulhu

Авторизация

Смена пароля

captcha

Регистрация

captcha

Мини-чат

(21:53) Kaban: Сообщение удалено (Kaban)
(16:03) Блистательная Атения: Как интересно! :)
(16:03) Блистательная Атения: Никого! :)
(16:04) Блистательная Атения: Олдгеймер! Ау! 😊
  • KAMAZus13
  • Vitoss6
Онлайн: 2
Отправка сообщений доступно только зарегистрированным/авторизованным пользователям.

🔍 Поиск

Мгла / The Mist (2007) BDRip 1080p [HEVC] 10 bit от Mr. Fox

HEVC
10 bit
Обложка Мгла / The Mist (2007) BDRip 1080p [HEVC] 10 bit от Mr. Fox Год: 2007
Страна: США
Жанр: Ужасы, Триллер, Фантастика
Продолжительность: 02:05:59

Режиссер: Фрэнк Дарабонт
В ролях: Томас Джейн, Марша Гей Харден, Лори Холден, Нэйтан Гэмбл, Андре Брогер, Тоби Джонс, Уильям Сэдлер, Джеффри ДеМанн, Фрэнсис Стернхаген, Алекса Давалос

Описание: Маленький городок накрывает сверхъестественный туман, отрезая людей от внешнего мира. Группе героев, оказавшихся в этот момент в супермаркете, приходится вступить в неравный бой с обитающими в тумане монстрами.


7.569129828
7.1
264016


Формат: MKV
Видео: 1920x1036, 7837 Kbps
Аудио1: AC3, 6 ch, 640 Kbps -
Дублированный

Аудио2: AC3, 6 ch, 640 Kbps -
Оригинал

Субтитры: Русские, английские

Как за пару секунд удалить ненужные аудиодорожки и субтитры (Внимание! После удаления вы не сможете поддержать раздачу)

Медиаинфо
General
Unique ID : 7356127618131363045750038819038683077 (0x588BD17DE40253490009CAB4D01DFC5)
Complete name : E:\Torrent\King\2007 Myst BDRip 1080p [HEVC].mkv
Format : Matroska
Format version : Version 4 / Version 2
File size : 8.02 GiB
Duration : 2 h 5 min
Overall bit rate : 9 119 kb/s
Movie name : Myst (2007)
Encoded date : UTC 2019-05-07 03:10:44
Writing application : mkvmerge v28.2.0 ('The Awakening') 64-bit
Writing library : libebml v1.3.6 + libmatroska v1.4.9
Cover : Yes
Attachments : cover.jpg

Video
ID : 1
Format : HEVC
Format/Info : High Efficiency Video Coding
Format profile : Main 10@L4.1@High
Codec ID : V_MPEGH/ISO/HEVC
Duration : 2 h 5 min
Bit rate : 7 837 kb/s
Width : 1 920 pixels
Height : 1 036 pixels
Display aspect ratio : 1.85:1
Frame rate mode : Constant
Frame rate : 23.976 (23976/1000) FPS
Original frame rate : 23.976 (24000/1001) FPS
Color space : YUV
Chroma subsampling : 4:2:0
Bit depth : 10 bits
Bits/(Pixel*Frame) : 0.164
Stream size : 6.90 GiB (86%)
Writing library : x265 3.0_Au+4-dcbec33bfb0f:[Windows][MSVC 1916][64 bit] 10bit
Encoding settings : cpuid=1111039 / frame-threads=3 / numa-pools=12 / wpp / no-pmode / no-pme / no-psnr / no-ssim / log-level=2 / input-csp=1 / input-res=1920x1036 / interlace=0 / total-frames=86361 / level-idc=41 / high-tier=1 / uhd-bd=0 / ref=5 / no-allow-non-conformance / no-repeat-headers / annexb / no-aud / no-hrd / info / hash=0 / no-temporal-layers / open-gop / min-keyint=23 / keyint=240 / gop-lookahead=0 / bframes=16 / b-adapt=2 / b-pyramid / bframe-bias=0 / rc-lookahead=60 / lookahead-slices=4 / scenecut=40 / radl=0 / no-splice / no-intra-refresh / ctu=32 / min-cu-size=8 / rect / amp / max-tu-size=32 / tu-inter-depth=4 / tu-intra-depth=4 / limit-tu=1 / rdoq-level=2 / dynamic-rd=0.00 / no-ssim-rd / signhide / no-tskip / nr-intra=0 / nr-inter=0 / no-constrained-intra / no-strong-intra-smoothing / max-merge=4 / limit-refs=2 / limit-modes / me=3 / subme=7 / merange=57 / temporal-mvp / weightp / weightb / no-analyze-src-pics / deblock=-3:-3 / no-sao / no-sao-non-deblock / rd=6 / no-early-skip / no-rskip / no-fast-intra / no-tskip-fast / no-cu-lossless / no-b-intra / no-splitrd-skip / rdpenalty=0 / psy-rd=2.00 / psy-rdoq=1.00 / no-rd-refine / no-lossless / cbqpoffs=0 / crqpoffs=0 / rc=crf / crf=22.0 / qcomp=0.60 / qpstep=4 / stats-write=0 / stats-read=0 / vbv-maxrate=50000 / vbv-bufsize=50000 / vbv-init=0.9 / crf-max=0.0 / crf-min=0.0 / ipratio=1.40 / pbratio=1.30 / aq-mode=1 / aq-strength=1.00 / no-cutree / zone-count=0 / no-strict-cbr / qg-size=32 / no-rc-grain / qpmax=69 / qpmin=0 / no-const-vbv / sar=1 / overscan=0 / videoformat=5 / range=0 / colorprim=2 / transfer=2 / colormatrix=2 / chromaloc=0 / display-window=0 / max-cll=0,0 / min-luma=0 / max-luma=1023 / log2-max-poc-lsb=8 / vui-timing-info / vui-hrd-info / slices=1 / no-opt-qp-pps / no-opt-ref-list-length-pps / no-multi-pass-opt-rps / scenecut-bias=0.05 / no-opt-cu-delta-qp / no-aq-motion / no-hdr / no-hdr-opt / no-dhdr10-opt / no-idr-recovery-sei / analysis-reuse-level=5 / scale-factor=0 / refine-intra=0 / refine-inter=0 / refine-mv=0 / refine-ctu-distortion=0 / no-limit-sao / ctu-info=0 / no-lowpass-dct / refine-analysis-type=0 / copy-pic=1 / max-ausize-factor=1.0 / no-dynamic-refine / no-single-sei / no-hevc-aq / qp-adaptation-range=1.00
Default : Yes
Forced : No

Audio #1
ID : 2
Format : AC-3
Format/Info : Audio Coding 3
Codec ID : A_AC3
Duration : 2 h 5 min
Bit rate mode : Constant
Bit rate : 640 kb/s
Channel(s) : 6 channels
Channel positions : Front: L C R, Side: L R, LFE
Sampling rate : 48.0 kHz
Frame rate : 31.250 FPS (1536 SPF)
Bit depth : 16 bits
Compression mode : Lossy
Stream size : 576 MiB (7%)
Title : Дубляж
Language : Russian
Service kind : Complete Main
Default : Yes
Forced : No

Audio #2
ID : 3
Format : AC-3
Format/Info : Audio Coding 3
Codec ID : A_AC3
Duration : 2 h 5 min
Bit rate mode : Constant
Bit rate : 640 kb/s
Channel(s) : 6 channels
Channel positions : Front: L C R, Side: L R, LFE
Sampling rate : 48.0 kHz
Frame rate : 31.250 FPS (1536 SPF)
Bit depth : 16 bits
Compression mode : Lossy
Stream size : 577 MiB (7%)
Title : Оригинал
Language : English
Service kind : Complete Main
Default : No
Forced : No

Text #1
ID : 4
Format : UTF-8
Codec ID : S_TEXT/UTF8
Codec ID/Info : UTF-8 Plain Text
Duration : 1 h 59 min
Bit rate : 78 b/s
Count of elements : 1351
Stream size : 68.6 KiB (0%)
Language : Russian
Default : No
Forced : No

Text #2
ID : 5
Format : UTF-8
Codec ID : S_TEXT/UTF8
Codec ID/Info : UTF-8 Plain Text
Duration : 1 h 54 min
Bit rate : 56 b/s
Count of elements : 1750
Stream size : 47.6 KiB (0%)
Language : English
Default : No
Forced : No

Menu
00:00:00.000 : :Chapter 1
00:06:02.653 : :Chapter 2
00:17:34.428 : :Chapter 3
00:22:14.583 : :Chapter 4
00:28:42.220 : :Chapter 5
00:31:46.571 : :Chapter 6
00:38:59.086 : :Chapter 7
00:41:40.956 : :Chapter 8
00:47:43.527 : :Chapter 9
00:54:28.431 : :Chapter 10
01:05:58.579 : :Chapter 11
01:17:13.211 : :Chapter 12
01:25:25.495 : :Chapter 13
01:29:20.730 : :Chapter 14
01:35:28.723 : :Chapter 15
01:41:05.684 : :Chapter 16
01:44:07.491 : :Chapter 17
01:57:23.786 : :Chapter 18
02:05:59.343 : :Chapter 19
Cкриншот1 Мгла / The Mist (2007) BDRip 1080p [HEVC] 10 bit от Mr. Fox
Загружается...
Cкриншот2 Мгла / The Mist (2007) BDRip 1080p [HEVC] 10 bit от Mr. Fox
Загружается...
Cкриншот3 Мгла / The Mist (2007) BDRip 1080p [HEVC] 10 bit от Mr. Fox
Загружается...
Cкриншот4 Мгла / The Mist (2007) BDRip 1080p [HEVC] 10 bit от Mr. Fox
Загружается...
СэмплТоррентМагнетКнопки для благодарностей доступны только зарегистрированным/авторизованным пользователям!

Поблагодарили: 16
375509, alexyak, brukvalub, den233, duke1966, esseker22, igor302, ivs5, Kaban, Kilop77, LastSurviv0r, medved2018, MIGRANT, SaN161NeK, VardO, zerkith
05.06.2019  18:20:17
0
133
0
0
8.02 ГБ

Добавление нового комментария

Добавление комментариев доступно только зарегистрированным/авторизованным пользователям.