Обложка Аквамен / Aquaman (2018) [IMAX] BDRip 1080p [HEVC] 10 bit от Mr. FoxОбложка Человек-паук: Через вселенные / Spider-Man: Into the Spider-Verse (2018) [Локализованная версия] BDRip 1080p [HEVC] 10 bit от M@kSIMusОбложка Богемская рапсодия / Bohemian Rhapsody (2018) BDRip 1080p [HEVC] 10 bit от M@kSIMusОбложка Крутые меры / Bastille Day (2016) BDRip 1080p [HEVC] 10 bit от OldGamerОбложка Клаустрофобы / Escape Room (2019) BDRip 1080p [HEVC] 10 bit от M@kSIMusОбложка Человек на Луне / First Man (2018) [IMAX Edition] BDRip 1080p [HEVC] 10 bit от M@kSIMusОбложка Мир Дикого Запада / Westworld (2018) [2 сезон] BDRip 1080p [HEVC] 10 bit от OldGamerОбложка Мир Юрского периода 2 / Jurassic World: Fallen Kingdom (2018) BDRip 1080p [HEVC] 10 bit от M@kSIMusОбложка Оно / It (2017) BDRip 1080p [HEVC] 10 bit от HANNIBALОбложка Царство небесное / Kingdom of Heaven (2005) [Director's Cut] BDRip 1080p [HEVC] 10 bit от Cthulhu

Авторизация

Смена пароля

captcha

Регистрация

captcha

Мини-чат

(16:15) OldGamer: Сообщение удалено (OldGamer)
(16:16) Kaban: Сообщение удалено (OldGamer)
(16:17) ADVOKAT69: Сообщение удалено (OldGamer)
(16:17) ADVOKAT69: Сообщение удалено (OldGamer)
(16:18) Kaban: Сообщение удалено (OldGamer)
(16:19) Kaban: Сообщение удалено (OldGamer)
(16:21) OldGamer: Пользователь ADVOKAT69 забанен до 22.06.2019 16:21 (мск)
(16:21) OldGamer: Пользователь Kaban забанен до 22.06.2019 16:21 (мск)
(17:53) DSIO: Да уж, сначала Макс, теперь Кабан, почему лучшие уходят первыми?
(18:46) PRO-USTAS: потому что я говорю тут чат не нужен что бы тут сорится чей тут рип луче или хуже
(18:48) PRO-USTAS: просто могли бы сделать так что бы делали фильм но не сорились в чатах чат удалить а зритель найдет то что ему подуше
(18:51) Студень: походу я пропустил что-то интересное
(18:52) PRO-USTAS: тут сорились ADVOKAT69 и Kaban
(18:59) PRO-USTAS: мой вам совет удалите чат что бы больше не сорились между собой кто чей рип луче
(20:10) AlexTwitt: И будут ссориться в комментариях😀
(22:05) Атения: Что бы такое взять? :)
(22:09) Атения: Зря, кстати, не делаете 720p.
(23:30) ko1ob: Атения, мне кажется это логичным. Мой старый комп не тянул даже 264 1080р, не говоря уже про HEVC, поэтому я качал только 720р. А теперь, когда комп тянет 265, то и 1080р уже не проблема. При том, что размер рипов х264-720р и х265-1080р часто сопостовим. смысла в х265-720р практически нет (как мне кажется). Но не боги горшки обжигают. Кодируйте во что вам нужно и выкладывайте для общего пользования. Получите свои плюсы в карму :)
(23:48) Атения: ko1ob, мне не дают здесь выкладывать!
(00:03) Студень: Атения, и слава богу, что не дают
  • sixaxis
Онлайн: 1
Отправка сообщений доступно только зарегистрированным/авторизованным пользователям.

🔍 Поиск

Максимальное ускорение / Maximum Overdrive (1986) BDRip 1080p [HEVC] 10 bit от Mr. Fox

HEVC
10 bit
Обложка Максимальное ускорение / Maximum Overdrive (1986) BDRip 1080p [HEVC] 10 bit от Mr. Fox Год: 1986
Страна: США
Жанр: Ужасы, Фантастика, Боевик, Триллер
Продолжительность: 01:38:06

Режиссер: Стивен Кинг
В ролях: Эмилио Эстевес, Пэт Хингл, Лора Хэррингтон, Ярдли Смит, Джон Шорт, Эллен МакЭлдафф, Дж. К. Куин, Кристофер Мёрни, Холтер Грэм, Фрэнки Фэйзон

Описание: Когда комета Ри-М проходит через орбиту Земли и задевает ее своим хвостом, происходит глобальная катастрофа. Перестают качать насосы, выходят из строя компьютеры, электрические ножи режут домохозяек, а газонокосилки косят людей как траву. Внезапно ожившие машины из лучших друзей человека превращаются в его злейших врагов, жаждущих человеческой крови. Особенно безжалостно ведут себя огромные грузовики, давящие всех на своем пути. Горстка людей во главе с Билли Робинсоном, укрывшись от стаи взбесившихся грузовиков в здании бензозаправочной станции, готовится дать последний бой взбунтовавшимся машинам…


6.0754125
5.4
27576


Формат: MKV
Видео: 1912x816, 9200 Kbps
Аудио1: AC3, 6 ch, 448 Kbps -
Двухголосый (DVD R5)

Аудио2: AC3, 1 ch, 192 Kbps -
Многоголосый (РТР)

Аудио3: AC3, 6 ch, 448 Kbps -
Оригинал

Субтитры: Русские, английские (полные, SDH)

Как за пару секунд удалить ненужные аудиодорожки и субтитры (Внимание! После удаления вы не сможете поддержать раздачу)

Медиаинфо
General
Unique ID : 196815439084514579954754174063579178737 (0x9411465700BDDFE776A0603816FB26F1)
Complete name : E:\Torrent\King\1986 Maximum Overdrive BDRip 1080p [HEVC].mkv
Format : Matroska
Format version : Version 4 / Version 2
File size : 7.05 GiB
Duration : 1 h 38 min
Overall bit rate : 10.3 Mb/s
Movie name : Maximum Overdrive (1986)
Encoded date : UTC 2019-05-11 14:31:31
Writing application : mkvmerge v28.2.0 ('The Awakening') 64-bit
Writing library : libebml v1.3.6 + libmatroska v1.4.9
Cover : Yes
Attachments : cover.jpg

Video
ID : 1
Format : HEVC
Format/Info : High Efficiency Video Coding
Format profile : Main 10@L4.1@High
Codec ID : V_MPEGH/ISO/HEVC
Duration : 1 h 38 min
Bit rate : 9 200 kb/s
Width : 1 912 pixels
Height : 816 pixels
Display aspect ratio : 2.35:1
Frame rate mode : Constant
Frame rate : 23.976 (23976/1000) FPS
Original frame rate : 23.976 (24000/1001) FPS
Color space : YUV
Chroma subsampling : 4:2:0
Bit depth : 10 bits
Bits/(Pixel*Frame) : 0.246
Stream size : 6.30 GiB (89%)
Writing library : x265 3.0_Au+4-dcbec33bfb0f:[Windows][MSVC 1916][64 bit] 10bit
Encoding settings : cpuid=1111039 / frame-threads=3 / numa-pools=12 / wpp / no-pmode / no-pme / no-psnr / no-ssim / log-level=2 / input-csp=1 / input-res=1912x816 / interlace=0 / total-frames=86389 / level-idc=41 / high-tier=1 / uhd-bd=0 / ref=5 / no-allow-non-conformance / no-repeat-headers / annexb / no-aud / no-hrd / info / hash=0 / no-temporal-layers / open-gop / min-keyint=23 / keyint=240 / gop-lookahead=0 / bframes=12 / b-adapt=2 / b-pyramid / bframe-bias=0 / rc-lookahead=60 / lookahead-slices=4 / scenecut=40 / radl=0 / no-splice / no-intra-refresh / ctu=32 / min-cu-size=8 / rect / amp / max-tu-size=32 / tu-inter-depth=4 / tu-intra-depth=4 / limit-tu=1 / rdoq-level=2 / dynamic-rd=0.00 / no-ssim-rd / signhide / no-tskip / nr-intra=0 / nr-inter=0 / no-constrained-intra / no-strong-intra-smoothing / max-merge=4 / limit-refs=2 / limit-modes / me=3 / subme=7 / merange=57 / temporal-mvp / weightp / weightb / no-analyze-src-pics / deblock=-3:-3 / no-sao / no-sao-non-deblock / rd=6 / no-early-skip / no-rskip / no-fast-intra / no-tskip-fast / no-cu-lossless / no-b-intra / no-splitrd-skip / rdpenalty=0 / psy-rd=2.00 / psy-rdoq=1.00 / no-rd-refine / no-lossless / cbqpoffs=0 / crqpoffs=0 / rc=crf / crf=21.0 / qcomp=0.60 / qpstep=4 / stats-write=0 / stats-read=0 / vbv-maxrate=50000 / vbv-bufsize=50000 / vbv-init=0.9 / crf-max=0.0 / crf-min=0.0 / ipratio=1.40 / pbratio=1.30 / aq-mode=1 / aq-strength=1.00 / no-cutree / zone-count=0 / no-strict-cbr / qg-size=32 / no-rc-grain / qpmax=69 / qpmin=0 / no-const-vbv / sar=1 / overscan=0 / videoformat=5 / range=0 / colorprim=2 / transfer=2 / colormatrix=2 / chromaloc=0 / display-window=0 / max-cll=0,0 / min-luma=0 / max-luma=1023 / log2-max-poc-lsb=8 / vui-timing-info / vui-hrd-info / slices=1 / no-opt-qp-pps / no-opt-ref-list-length-pps / no-multi-pass-opt-rps / scenecut-bias=0.05 / no-opt-cu-delta-qp / no-aq-motion / no-hdr / no-hdr-opt / no-dhdr10-opt / no-idr-recovery-sei / analysis-reuse-level=5 / scale-factor=0 / refine-intra=0 / refine-inter=0 / refine-mv=0 / refine-ctu-distortion=0 / no-limit-sao / ctu-info=0 / no-lowpass-dct / refine-analysis-type=0 / copy-pic=1 / max-ausize-factor=1.0 / no-dynamic-refine / no-single-sei / no-hevc-aq / qp-adaptation-range=1.00
Default : Yes
Forced : No

Audio #1
ID : 2
Format : AC-3
Format/Info : Audio Coding 3
Codec ID : A_AC3
Duration : 1 h 38 min
Bit rate mode : Constant
Bit rate : 448 kb/s
Channel(s) : 6 channels
Channel positions : Front: L C R, Side: L R, LFE
Sampling rate : 48.0 kHz
Frame rate : 31.250 FPS (1536 SPF)
Bit depth : 16 bits
Compression mode : Lossy
Stream size : 314 MiB (4%)
Title : DVO (DVD R5)
Language : Russian
Service kind : Complete Main
Default : Yes
Forced : No

Audio #2
ID : 3
Format : AC-3
Format/Info : Audio Coding 3
Codec ID : A_AC3
Duration : 1 h 38 min
Bit rate mode : Constant
Bit rate : 192 kb/s
Channel(s) : 1 channel
Channel positions : Front: C
Sampling rate : 48.0 kHz
Frame rate : 31.250 FPS (1536 SPF)
Bit depth : 16 bits
Compression mode : Lossy
Stream size : 135 MiB (2%)
Title : MVO (тк РТР)
Language : Russian
Service kind : Complete Main
Default : No
Forced : No

Audio #3
ID : 4
Format : AC-3
Format/Info : Audio Coding 3
Codec ID : A_AC3
Duration : 1 h 38 min
Bit rate mode : Constant
Bit rate : 448 kb/s
Channel(s) : 6 channels
Channel positions : Front: L C R, Side: L R, LFE
Sampling rate : 48.0 kHz
Frame rate : 31.250 FPS (1536 SPF)
Bit depth : 16 bits
Compression mode : Lossy
Stream size : 314 MiB (4%)
Title : Eng (DVD R1)
Language : English
Service kind : Complete Main
Default : No
Forced : No

Text #1
ID : 5
Format : UTF-8
Codec ID : S_TEXT/UTF8
Codec ID/Info : UTF-8 Plain Text
Duration : 1 h 34 min
Bit rate : 47 b/s
Count of elements : 671
Stream size : 33.2 KiB (0%)
Title : DVD R5
Language : Russian
Default : No
Forced : No

Text #2
ID : 6
Format : UTF-8
Codec ID : S_TEXT/UTF8
Codec ID/Info : UTF-8 Plain Text
Duration : 1 h 33 min
Bit rate : 32 b/s
Count of elements : 673
Stream size : 21.9 KiB (0%)
Language : English
Default : No
Forced : No

Text #3
ID : 7
Format : UTF-8
Codec ID : S_TEXT/UTF8
Codec ID/Info : UTF-8 Plain Text
Duration : 1 h 36 min
Bit rate : 38 b/s
Count of elements : 849
Stream size : 27.4 KiB (0%)
Title : SDH
Language : English
Default : No
Forced : No

Menu #1
00:00:00.000 : en:1. Main Titles / A Situation Here!
00:07:05.300 : en:2. That's Some Rig
00:11:13.982 : en:3. Short Circuit
00:15:54.228 : en:4. A Close Call
00:19:33.580 : en:5. Is He Dead?
00:24:52.299 : en:6. Mechanical Revelt
00:29:28.541 : en:7. Duncan, Look Out!
00:34:45.291 : en:8. Surrounded
00:41:37.269 : en:9. Bombs Away!
00:45:36.141 : en:10. I'm Warning You!
00:51:18.850 : en:11. Lights Out
00:58:28.647 : en:12. Dead On Arrival?
01:05:09.013 : en:13. A Lesson In Manners
01:08:30.148 : en:14. You Want A War?
01:14:23.100 : en:15. Morse Code
01:16:36.634 : en:16. Risky Business
01:21:05.202 : en:17. The Coffee Break Is Over
01:25:30.634 : en:18. When I Say Run, You Run
01:30:46.416 : en:19. A Perfect Shot
01:35:24.393 : en:20. End Credits

Menu #2
00:00:00.000 : it:1. La cometa Rhe-M
00:12:49.518 : it:2. Le macchine impazziscono
00:23:16.269 : it:3. Viaggio di nozze
00:36:55.379 : it:4. Sotto sequestro
00:47:30.347 : it:5. L'arsenale
00:58:50.652 : it:6. Piano di recupero
01:10:47.368 : it:7. Riforniteci o morirete
01:22:35.450 : it:8. Piano di evasione
Cкриншот1 Максимальное ускорение / Maximum Overdrive (1986) BDRip 1080p [HEVC] 10 bit от Mr. Fox
Загружается...
Cкриншот2 Максимальное ускорение / Maximum Overdrive (1986) BDRip 1080p [HEVC] 10 bit от Mr. Fox
Загружается...
Cкриншот3 Максимальное ускорение / Maximum Overdrive (1986) BDRip 1080p [HEVC] 10 bit от Mr. Fox
Загружается...
Cкриншот4 Максимальное ускорение / Maximum Overdrive (1986) BDRip 1080p [HEVC] 10 bit от Mr. Fox
Загружается...
СэмплТоррентМагнетКнопки для благодарностей доступны только зарегистрированным/авторизованным пользователям!

Поблагодарили: 10
7654321, alexyak, brukvalub, e7e1, inoy, ivs5, LastSurviv0r, OldGamer, SaN161NeK, VIKING
05.06.2019  18:04:41
1
91
4
0
7.05 ГБ

Добавление нового комментария

Добавление комментариев доступно только зарегистрированным/авторизованным пользователям.
Аватар OldGamer
  OldGamer  05.06.2019  19:20:30
Когда-то с превеликим удовольствием смотрел на затёртой видеокассете... надеюсь, и сейчас не разочарует