Обложка Аквамен / Aquaman (2018) [IMAX] BDRip 1080p [HEVC] 10 bit от Mr. FoxОбложка Человек-паук: Через вселенные / Spider-Man: Into the Spider-Verse (2018) [Локализованная версия] BDRip 1080p [HEVC] 10 bit от M@kSIMusОбложка Богемская рапсодия / Bohemian Rhapsody (2018) BDRip 1080p [HEVC] 10 bit от M@kSIMusОбложка Крутые меры / Bastille Day (2016) BDRip 1080p [HEVC] 10 bit от OldGamerОбложка Клаустрофобы / Escape Room (2019) BDRip 1080p [HEVC] 10 bit от M@kSIMusОбложка Мир Дикого Запада / Westworld (2018) [2 сезон] BDRip 1080p [HEVC] 10 bit от OldGamerОбложка Мир Юрского периода 2 / Jurassic World: Fallen Kingdom (2018) BDRip 1080p [HEVC] 10 bit от M@kSIMusОбложка Человек на Луне / First Man (2018) [IMAX Edition] BDRip 1080p [HEVC] 10 bit от M@kSIMusОбложка Оно / It (2017) BDRip 1080p [HEVC] 10 bit от HANNIBALОбложка Царство небесное / Kingdom of Heaven (2005) [Director's Cut] BDRip 1080p [HEVC] 10 bit от Cthulhu

Авторизация

Смена пароля

captcha

Регистрация

captcha

Мини-чат

(16:15) OldGamer: Сообщение удалено (OldGamer)
(16:16) Kaban: Сообщение удалено (OldGamer)
(16:17) ADVOKAT69: Сообщение удалено (OldGamer)
(16:17) ADVOKAT69: Сообщение удалено (OldGamer)
(16:18) Kaban: Сообщение удалено (OldGamer)
(16:19) Kaban: Сообщение удалено (OldGamer)
(16:21) OldGamer: Пользователь ADVOKAT69 забанен до 22.06.2019 16:21 (мск)
(16:21) OldGamer: Пользователь Kaban забанен до 22.06.2019 16:21 (мск)
(17:53) DSIO: Да уж, сначала Макс, теперь Кабан, почему лучшие уходят первыми?
(18:46) PRO-USTAS: потому что я говорю тут чат не нужен что бы тут сорится чей тут рип луче или хуже
(18:48) PRO-USTAS: просто могли бы сделать так что бы делали фильм но не сорились в чатах чат удалить а зритель найдет то что ему подуше
(18:51) Студень: походу я пропустил что-то интересное
(18:52) PRO-USTAS: тут сорились ADVOKAT69 и Kaban
(18:59) PRO-USTAS: мой вам совет удалите чат что бы больше не сорились между собой кто чей рип луче
(20:10) AlexTwitt: И будут ссориться в комментариях😀
(22:05) Атения: Что бы такое взять? :)
(22:09) Атения: Зря, кстати, не делаете 720p.
(23:30) ko1ob: Атения, мне кажется это логичным. Мой старый комп не тянул даже 264 1080р, не говоря уже про HEVC, поэтому я качал только 720р. А теперь, когда комп тянет 265, то и 1080р уже не проблема. При том, что размер рипов х264-720р и х265-1080р часто сопостовим. смысла в х265-720р практически нет (как мне кажется). Но не боги горшки обжигают. Кодируйте во что вам нужно и выкладывайте для общего пользования. Получите свои плюсы в карму :)
(23:48) Атения: ko1ob, мне не дают здесь выкладывать!
(00:03) Студень: Атения, и слава богу, что не дают
  • sixaxis
Онлайн: 1
Отправка сообщений доступно только зарегистрированным/авторизованным пользователям.

🔍 Поиск

Джанго / Django (1966) BDRip 1080p [HEVC] 10 bit от joker63

HEVC
10 bit
Обложка Джанго / Django (1966) BDRip 1080p [HEVC] 10 bit от joker63 Год: 1966
Страна: Италия, Испания
Жанр: Вестерн, Боевик
Продолжительность: 01:31:35

Режиссер: Серджио Корбуччи
В ролях: Франко Неро, Хосе Бодало, Лоредана Нушиак, Анхель Алварез, Джино Перниче, Симон Арриага, Джованни Иван Скратулья, Ремо Де Анджелис, Рафаэль Альбачин, Хосе Каналейяс

Описание: Как всегда, Дикий Запад наполнен бандитами и головорезами. Терроризм процветает на территории небольшого городка, пока в нем не появляется защитник слабых и угнетенных Джанго. Он появляется ниоткуда, притащив за собой на веревке гроб с «секретом». Трудна миссия по защите угнетенных, но, как всегда, выполнима, тем более, если за дело берется Джанго.


7.5195208
7.3
22168


Формат: MKV
Видео: 1736x1080, 6001 Kbps
Аудио1: AC3, 2 ch, 192 Kbps -
Профессиональный многоголосый

Аудио2: AC3, 2 ch, 192 Kbps -
Оригинал

Субтитры: Нет

Как за пару секунд удалить ненужные аудиодорожки и субтитры (Внимание! После удаления вы не сможете поддержать раздачу)

Медиаинфо
Общее
Уникальный идентификатор : 126477838666262114314390063567940241233 (0x5F26BEE4CF85B45ADB2E552DE0CE4751)
Полное имя : E:\Франко Неро\День Кобры Il giorno del Cobra (1980) BDRip 1080p [HEVC] 10 bit.mkv
Формат : Matroska
Версия формата : Version 4
Размер файла : 4,23 Гбайт
Продолжительность : 1 ч. 34 м.
Общий поток : 6387 Кбит/сек
Название фильма : День Кобры_1980_рип от Joker63
Дата кодирования : UTC 2018-08-31 07:26:24
Программа кодирования : mkvmerge v26.0.0 ('In The Game') 64-bit
Библиотека кодирования : libebml v1.3.6 + libmatroska v1.4.9
Обложка : Yes
Attachments : cover.jpg

Видео
Идентификатор : 1
Формат : HEVC
Формат/Информация : High Efficiency Video Coding
Профиль формата : Main 10@L5.1@Main
Идентификатор кодека : V_MPEGH/ISO/HEVC
Продолжительность : 1 ч. 34 м.
Битрейт : 6001 Кбит/сек
Ширина : 1736 пикселей
Высота : 1080 пикселей
Соотношение сторон : 16:10
Режим частоты кадров : Постоянный
Частота кадров : 23,976 (24000/1001) кадра/сек
Цветовое пространство : YUV
Субдискретизация насыщенности : 4:2:0
Битовая глубина : 10 бит
Бит/(Пиксели*Кадры) : 0.133
Размер потока : 3,98 Гбайт (94%)
Заголовок : Il giorno del Cobra (1980)
Библиотека кодирования : x265 2.8+19-bcdc610cf5f0:[Windows][GCC 7.3.0][64 bit] 10bit
Настройки программы : cpuid=1049583 / frame-threads=5 / numa-pools=4 / wpp / no-pmode / no-pme / no-psnr / no-ssim / log-level=3 / input-csp=1 / input-res=1736x1080 / interlace=0 / total-frames=0 / level-idc=51 / high-tier=1 / uhd-bd=0 / ref=5 / allow-non-conformance / no-repeat-headers / annexb / no-aud / no-hrd / info / hash=0 / no-temporal-layers / open-gop / min-keyint=24 / keyint=240 / gop-lookahead=0 / bframes=4 / b-adapt=2 / b-pyramid / bframe-bias=0 / rc-lookahead=20 / lookahead-slices=6 / scenecut=40 / radl=0 / no-intra-refresh / ctu=64 / min-cu-size=8 / no-rect / no-amp / max-tu-size=32 / tu-inter-depth=1 / tu-intra-depth=1 / limit-tu=0 / rdoq-level=0 / dynamic-rd=0.00 / no-ssim-rd / signhide / no-tskip / nr-intra=0 / nr-inter=0 / no-constrained-intra / strong-intra-smoothing / max-merge=2 / limit-refs=3 / no-limit-modes / me=1 / subme=2 / merange=57 / temporal-mvp / weightp / no-weightb / no-analyze-src-pics / deblock=-2:-2 / sao / no-sao-non-deblock / rd=3 / no-early-skip / rskip / no-fast-intra / no-tskip-fast / no-cu-lossless / no-b-intra / no-splitrd-skip / rdpenalty=0 / psy-rd=2.00 / psy-rdoq=0.00 / no-rd-refine / no-lossless / cbqpoffs=0 / crqpoffs=0 / rc=abr / bitrate=6000 / qcomp=0.60 / qpstep=4 / stats-write=0 / stats-read=0 / ipratio=1.40 / pbratio=1.30 / aq-mode=1 / aq-strength=1.00 / cutree / zone-count=0 / no-strict-cbr / qg-size=32 / no-rc-grain / qpmax=69 / qpmin=0 / no-const-vbv / sar=1 / overscan=0 / videoformat=5 / range=0 / colorprim=1 / transfer=1 / colormatrix=1 / chromaloc=0 / display-window=0 / max-cll=0,0 / min-luma=0 / max-luma=1023 / log2-max-poc-lsb=8 / vui-timing-info / vui-hrd-info / slices=1 / no-opt-qp-pps / no-opt-ref-list-length-pps / no-multi-pass-opt-rps / scenecut-bias=0.05 / no-opt-cu-delta-qp / no-aq-motion / no-hdr / no-hdr-opt / no-dhdr10-opt / no-idr-recovery-sei / analysis-reuse-level=5 / scale-factor=0 / refine-intra=0 / refine-inter=0 / refine-mv=0 / no-limit-sao / ctu-info=0 / no-lowpass-dct / refine-mv-type=0 / copy-pic=1 / max-ausize-factor=1.0 / no-dynamic-refine / no-single-sei
Язык : English
Default : Да
Forced : Нет
Цветовой диапазон : Limited
Основные цвета : BT.709
Характеристики трансфера : BT.709
Коэффициенты матрицы : BT.709

Аудио #1
Идентификатор : 2
Формат : AC-3
Формат/Информация : Audio Coding 3
Коммерческое название : Dolby Digital
Идентификатор кодека : A_AC3
Продолжительность : 1 ч. 34 м.
Вид битрейта : Постоянный
Битрейт : 192 Кбит/сек
Каналы : 2 канала
ChannelLayout : L R
Частота : 48,0 КГц
Частота кадров : 31,250 кадров/сек (1536 SPF)
Битовая глубина : 16 бит
Метод сжатия : С потерями
Размер потока : 130 Мбайт (3%)
Заголовок : Профессиональный многоголосый
Язык : Russian
ServiceKind/String : Complete Main
Default : Да
Forced : Нет

Аудио #2
Идентификатор : 3
Формат : AC-3
Формат/Информация : Audio Coding 3
Коммерческое название : Dolby Digital
Идентификатор кодека : A_AC3
Продолжительность : 1 ч. 34 м.
Вид битрейта : Постоянный
Битрейт : 192 Кбит/сек
Каналы : 2 канала
ChannelLayout : L R
Частота : 48,0 КГц
Частота кадров : 31,250 кадров/сек (1536 SPF)
Битовая глубина : 16 бит
Метод сжатия : С потерями
Размер потока : 130 Мбайт (3%)
Заголовок : Original
Язык : English
ServiceKind/String : Complete Main
Default : Нет
Forced : Нет
Cкриншот1 Джанго / Django (1966) BDRip 1080p [HEVC] 10 bit от joker63
Загружается...
Cкриншот2 Джанго / Django (1966) BDRip 1080p [HEVC] 10 bit от joker63
Загружается...
Cкриншот3 Джанго / Django (1966) BDRip 1080p [HEVC] 10 bit от joker63
Загружается...
Cкриншот4 Джанго / Django (1966) BDRip 1080p [HEVC] 10 bit от joker63
Загружается...
СэмплТоррентМагнетКнопки для благодарностей доступны только зарегистрированным/авторизованным пользователям!

Поблагодарили: 7
7654321, ADVOKAT69, and50, brukvalub, ivs5, mvm70, vladd37
05.06.2019  14:23:33
0
42
0
0
5.24 ГБ

Добавление нового комментария

Добавление комментариев доступно только зарегистрированным/авторизованным пользователям.