Обложка Аквамен / Aquaman (2018) [IMAX] BDRip 1080p [HEVC] 10 bit от Mr. FoxОбложка Человек-паук: Через вселенные / Spider-Man: Into the Spider-Verse (2018) [Локализованная версия] BDRip 1080p [HEVC] 10 bit от M@kSIMusОбложка Крутые меры / Bastille Day (2016) BDRip 1080p [HEVC] 10 bit от OldGamerОбложка Богемская рапсодия / Bohemian Rhapsody (2018) BDRip 1080p [HEVC] 10 bit от M@kSIMusОбложка Клаустрофобы / Escape Room (2019) BDRip 1080p [HEVC] 10 bit от M@kSIMusОбложка Мир Юрского периода 2 / Jurassic World: Fallen Kingdom (2018) BDRip 1080p [HEVC] 10 bit от M@kSIMusОбложка Царство небесное / Kingdom of Heaven (2005) [Director's Cut] BDRip 1080p [HEVC] 10 bit от CthulhuОбложка Человек на Луне / First Man (2018) [IMAX Edition] BDRip 1080p [HEVC] 10 bit от M@kSIMusОбложка Оно / It (2017) BDRip 1080p [HEVC] 10 bit от HANNIBALОбложка Мир Дикого Запада / Westworld (2018) [2 сезон] BDRip 1080p [HEVC] 10 bit от OldGamer

Авторизация

Смена пароля

captcha

Регистрация

captcha

Мини-чат

(16:15) OldGamer: Сообщение удалено (OldGamer)
(16:16) Kaban: Сообщение удалено (OldGamer)
(16:17) ADVOKAT69: Сообщение удалено (OldGamer)
(16:17) ADVOKAT69: Сообщение удалено (OldGamer)
(16:18) Kaban: Сообщение удалено (OldGamer)
(16:19) Kaban: Сообщение удалено (OldGamer)
(16:21) OldGamer: Пользователь ADVOKAT69 забанен до 22.06.2019 16:21 (мск)
(16:21) OldGamer: Пользователь Kaban забанен до 22.06.2019 16:21 (мск)
(17:53) DSIO: Да уж, сначала Макс, теперь Кабан, почему лучшие уходят первыми?
(18:46) PRO-USTAS: потому что я говорю тут чат не нужен что бы тут сорится чей тут рип луче или хуже
(18:48) PRO-USTAS: просто могли бы сделать так что бы делали фильм но не сорились в чатах чат удалить а зритель найдет то что ему подуше
(18:51) Студень: походу я пропустил что-то интересное
(18:52) PRO-USTAS: тут сорились ADVOKAT69 и Kaban
(18:59) PRO-USTAS: мой вам совет удалите чат что бы больше не сорились между собой кто чей рип луче
(20:10) AlexTwitt: И будут ссориться в комментариях😀
(22:05) Атения: Что бы такое взять? :)
(22:09) Атения: Зря, кстати, не делаете 720p.
(23:30) ko1ob: Атения, мне кажется это логичным. Мой старый комп не тянул даже 264 1080р, не говоря уже про HEVC, поэтому я качал только 720р. А теперь, когда комп тянет 265, то и 1080р уже не проблема. При том, что размер рипов х264-720р и х265-1080р часто сопостовим. смысла в х265-720р практически нет (как мне кажется). Но не боги горшки обжигают. Кодируйте во что вам нужно и выкладывайте для общего пользования. Получите свои плюсы в карму :)
(23:48) Атения: ko1ob, мне не дают здесь выкладывать!
(00:03) Студень: Атения, и слава богу, что не дают
  • Gampeldor
Онлайн: 1
Отправка сообщений доступно только зарегистрированным/авторизованным пользователям.

🔍 Поиск

Теория заговора / Conspiracy Theory (1997) BDRip 1080p [HEVC] 10 bit от OldGamer

HEVC
10 bit
Обложка Теория заговора / Conspiracy Theory (1997) BDRip 1080p [HEVC] 10 bit от OldGamer Год: 1997
Страна: США
Студия: Warner Brothers
Жанр: Боевик, Триллер, Детектив
Продолжительность: 02:15:17

Режиссер: Ричард Доннер
В ролях: Мэл Гибсон, Джулия Робертс, Патрик Стюарт, Силк Козарт, Стив Кэхэн, Терри Александр, Алекс МакАртур, Род МакЛахлан, Майкл Поттс, Джим Стерлинг

Описание: Джерри Флетчер кругом подозревает заговоры! Он владеет смертельно опасной информацией. Враги предпочли бы видеть Джерри мертвым. В этой ситуации она — единственная, кому он может доверять… Он — таксист и параноик. Она — прокурор, которая отказывается ему верить. Теперь они вместе вынуждены выживать… Одно из его сумасшедших предположений уже подтвердилось!


7.26211229
6.7
87559


Формат: MKV
Видео: 1920x800 (2,40:1), 6862 кбит/сек, 0.186 бит/(Пиксели*Кадры), 23,976 (24000/1001) кадра/сек, HEVC (Main 10@L4.1@High) 10 бит
Аудио1: AC3, 6 ch, 640 Kbps -
Дублированный (Лицензия)

Аудио2: AC3, 2 ch, 256 Kbps -
Многоголосый (Варус)

Аудио3: AC3, 2 ch, 192 Kbps -
Многоголосый (РТР)

Аудио4: AC3, 6 ch, 640 Kbps -
Авторский (Сергей Визгунов)

Аудио5: AC3, 6 ch, 384 Kbps -
Авторский (Андрей Гаврилов)

Аудио6: AC3, 6 ch, 384 Kbps -
Авторский (Юрий Живов)

Аудио7: AC3, 2 ch, 192 Kbps -
Авторский (Александр Кашкин)

Аудио8: AC3, 6 ch, 640 Kbps -
Original

Субтитры: Русские полные (SRT), English full (SRT)

Как за пару секунд удалить ненужные аудиодорожки и субтитры (Внимание! После удаления вы не сможете поддержать раздачу)

Медиаинфо
x265 [info]: frame I: 1740, Avg QP:16.43 kb/s: 19145.74
x265 [info]: frame P: 39867, Avg QP:17.94 kb/s: 13239.82
x265 [info]: frame B: 153017, Avg QP:19.99 kb/s: 5235.22
x265 [info]: Weighted P-Frames: Y:8.0% UV:6.8%
x265 [info]: Weighted B-Frames: Y:7.1% UV:5.9%
x265 [info]: consecutive B-frames: 9.7% 5.0% 6.2% 29.9% 9.5% 27.8% 4.1% 5.7% 0.8% 0.5% 0.2% 0.6%
x265 [info]: encoded 194624 frames in 218326.90s (0.89 fps), 6999.25 kb/s, Avg QP:19.54

Формат : Matroska
Версия формата : Version 4
Размер файла : 9,77 Гбайт
Продолжительность : 2 ч. 15 м.
Общий поток : 10,3 Мбит/сек
Название фильма : Conspiracy Theory (1997) - Release for HDCLUB
Дата кодирования : UTC 2019-06-10 05:12:19
Программа кодирования : mkvmerge v34.0.0 ('Sight and Seen') 64-bit
Библиотека кодирования : libebml v1.3.7 + libmatroska v1.5.0
Обложка : Yes
Attachments : cover.jpg / xlog.txt

Видео
Идентификатор : 1
Формат : HEVC
Формат/Информация : High Efficiency Video Coding
Профиль формата : Main 10@L4.1@High
Идентификатор кодека : V_MPEGH/ISO/HEVC
Продолжительность : 2 ч. 15 м.
Битрейт : 7000 Кбит/сек
Ширина : 1920 пикселей
Высота : 800 пикселей
Соотношение сторон : 2,40:1
Режим частоты кадров : Постоянный
Частота кадров : 23,976 (24000/1001) кадра/сек
Цветовое пространство : YUV
Субдискретизация насыщенности : 4:2:0
Битовая глубина : 10 бит
Бит/(Пиксели*Кадры) : 0.190
Размер потока : 6,61 Гбайт (68%)
Заголовок : Conspiracy Theory / Rip by OldGamer
Библиотека кодирования : x265 2.9+15-81373aab81df:[Windows][GCC 8.2.0][64 bit] 10bit
Настройки программы : cpuid=1111039 / frame-threads=3 / numa-pools=12 / wpp / no-pmode / no-pme / no-psnr / no-ssim / log-level=2 / input-csp=1 / input-res=1920x800 / interlace=0 / total-frames=194624 / level-idc=41 / high-tier=1 / uhd-bd=0 / ref=5 / no-allow-non-conformance / no-repeat-headers / annexb / no-aud / no-hrd / info / hash=0 / no-temporal-layers / open-gop / min-keyint=23 / keyint=240 / gop-lookahead=0 / bframes=11 / b-adapt=2 / b-pyramid / bframe-bias=0 / rc-lookahead=60 / lookahead-slices=0 / scenecut=40 / radl=0 / no-splice / no-intra-refresh / ctu=64 / min-cu-size=8 / rect / amp / max-tu-size=32 / tu-inter-depth=4 / tu-intra-depth=4 / limit-tu=1 / rdoq-level=2 / dynamic-rd=0.00 / no-ssim-rd / signhide / no-tskip / nr-intra=0 / nr-inter=0 / no-constrained-intra / no-strong-intra-smoothing / max-merge=5 / limit-refs=1 / limit-modes / me=3 / subme=7 / merange=57 / temporal-mvp / weightp / weightb / no-analyze-src-pics / deblock=-3:-3 / no-sao / no-sao-non-deblock / rd=6 / no-early-skip / rskip / no-fast-intra / no-tskip-fast / no-cu-lossless / b-intra / no-splitrd-skip / rdpenalty=0 / psy-rd=2.00 / psy-rdoq=1.00 / no-rd-refine / no-lossless / cbqpoffs=0 / crqpoffs=0 / rc=crf / crf=19.0 / qcomp=0.60 / qpstep=4 / stats-write=0 / stats-read=0 / vbv-maxrate=50000 / vbv-bufsize=50000 / vbv-init=0.9 / crf-max=0.0 / crf-min=0.0 / ipratio=1.40 / pbratio=1.30 / aq-mode=2 / aq-strength=0.80 / no-cutree / zone-count=0 / no-strict-cbr / qg-size=32 / no-rc-grain / qpmax=69 / qpmin=0 / no-const-vbv / sar=1 / overscan=0 / videoformat=5 / range=0 / colorprim=2 / transfer=2 / colormatrix=2 / chromaloc=0 / display-window=0 / max-cll=0,0 / min-luma=0 / max-luma=1023 / log2-max-poc-lsb=8 / vui-timing-info / vui-hrd-info / slices=1 / no-opt-qp-pps / no-opt-ref-list-length-pps / no-multi-pass-opt-rps / scenecut-bias=0.05 / no-opt-cu-delta-qp / no-aq-motion / no-hdr / no-hdr-opt / no-dhdr10-opt / no-idr-recovery-sei / analysis-reuse-level=5 / scale-factor=0 / refine-intra=0 / refine-inter=0 / refine-mv=0 / no-limit-sao / ctu-info=0 / no-lowpass-dct / refine-mv-type=0 / copy-pic=1 / max-ausize-factor=1.0 / no-dynamic-refine / no-single-sei
Язык : English
Default : Да
Forced : Нет

Аудио #1
Идентификатор : 2
Формат : AC-3
Формат/Информация : Audio Coding 3
Коммерческое название : Dolby Digital
Идентификатор кодека : A_AC3
Продолжительность : 2 ч. 15 м.
Вид битрейта : Постоянный
Битрейт : 640 Кбит/сек
Каналы : 6 каналов
Channel layout : L R C LFE Ls Rs
Частота : 48,0 КГц
Частота кадров : 31,250 кадров/сек (1536 SPF)
Битовая глубина : 16 бит
Метод сжатия : С потерями
Размер потока : 619 Мбайт (6%)
Заголовок : Dub (Blu-ray)
Язык : Russian
ServiceKind/String : Complete Main
Default : Да
Forced : Нет

Аудио #2
Идентификатор : 3
Формат : AC-3
Формат/Информация : Audio Coding 3
Коммерческое название : Dolby Digital
Идентификатор кодека : A_AC3
Продолжительность : 2 ч. 15 м.
Вид битрейта : Постоянный
Битрейт : 256 Кбит/сек
Каналы : 2 канала
Channel layout : L R
Частота : 48,0 КГц
Частота кадров : 31,250 кадров/сек (1536 SPF)
Битовая глубина : 16 бит
Метод сжатия : С потерями
Размер потока : 248 Мбайт (2%)
Заголовок : MVO (Варус)
Язык : Russian
ServiceKind/String : Complete Main
Default : Нет
Forced : Нет

Аудио #3
Идентификатор : 4
Формат : AC-3
Формат/Информация : Audio Coding 3
Коммерческое название : Dolby Digital
Идентификатор кодека : A_AC3
Продолжительность : 2 ч. 15 м.
Вид битрейта : Постоянный
Битрейт : 192 Кбит/сек
Каналы : 2 канала
Channel layout : L R
Частота : 48,0 КГц
Частота кадров : 31,250 кадров/сек (1536 SPF)
Битовая глубина : 16 бит
Метод сжатия : С потерями
Размер потока : 186 Мбайт (2%)
Заголовок : MVO (РТР)
Язык : Russian
ServiceKind/String : Complete Main
Default : Нет
Forced : Нет

Аудио #4
Идентификатор : 5
Формат : AC-3
Формат/Информация : Audio Coding 3
Коммерческое название : Dolby Digital
Идентификатор кодека : A_AC3
Продолжительность : 2 ч. 15 м.
Вид битрейта : Постоянный
Битрейт : 640 Кбит/сек
Каналы : 6 каналов
Channel layout : L R C LFE Ls Rs
Частота : 48,0 КГц
Частота кадров : 31,250 кадров/сек (1536 SPF)
Битовая глубина : 16 бит
Метод сжатия : С потерями
Размер потока : 620 Мбайт (6%)
Заголовок : AVO (Сергей Визгунов)
Язык : Russian
ServiceKind/String : Complete Main
Default : Нет
Forced : Нет

Аудио #5
Идентификатор : 6
Формат : AC-3
Формат/Информация : Audio Coding 3
Коммерческое название : Dolby Digital
Идентификатор кодека : A_AC3
Продолжительность : 2 ч. 15 м.
Вид битрейта : Постоянный
Битрейт : 384 Кбит/сек
Каналы : 6 каналов
Channel layout : L R C LFE Ls Rs
Частота : 48,0 КГц
Частота кадров : 31,250 кадров/сек (1536 SPF)
Битовая глубина : 16 бит
Метод сжатия : С потерями
Размер потока : 372 Мбайт (4%)
Заголовок : AVO (Андрей Гаврилов)
Язык : Russian
ServiceKind/String : Complete Main
Default : Нет
Forced : Нет

Аудио #6
Идентификатор : 7
Формат : AC-3
Формат/Информация : Audio Coding 3
Коммерческое название : Dolby Digital
Идентификатор кодека : A_AC3
Продолжительность : 2 ч. 15 м.
Вид битрейта : Постоянный
Битрейт : 384 Кбит/сек
Каналы : 6 каналов
Channel layout : L R C LFE Ls Rs
Частота : 48,0 КГц
Частота кадров : 31,250 кадров/сек (1536 SPF)
Битовая глубина : 16 бит
Метод сжатия : С потерями
Размер потока : 372 Мбайт (4%)
Заголовок : AVO (Юрий Живов)
Язык : Russian
ServiceKind/String : Complete Main
Default : Нет
Forced : Нет

Аудио #7
Идентификатор : 8
Формат : AC-3
Формат/Информация : Audio Coding 3
Коммерческое название : Dolby Digital
Идентификатор кодека : A_AC3
Продолжительность : 2 ч. 15 м.
Вид битрейта : Постоянный
Битрейт : 192 Кбит/сек
Каналы : 2 канала
Channel layout : L R
Частота : 48,0 КГц
Частота кадров : 31,250 кадров/сек (1536 SPF)
Битовая глубина : 16 бит
Метод сжатия : С потерями
Размер потока : 186 Мбайт (2%)
Заголовок : AVO (Александр Кашкин)
Язык : Russian
ServiceKind/String : Complete Main
Default : Нет
Forced : Нет

Аудио #8
Идентификатор : 9
Формат : AC-3
Формат/Информация : Audio Coding 3
Коммерческое название : Dolby Digital
Идентификатор кодека : A_AC3
Продолжительность : 2 ч. 15 м.
Вид битрейта : Постоянный
Битрейт : 640 Кбит/сек
Каналы : 6 каналов
Channel layout : L R C LFE Ls Rs
Частота : 48,0 КГц
Частота кадров : 31,250 кадров/сек (1536 SPF)
Битовая глубина : 16 бит
Метод сжатия : С потерями
Размер потока : 619 Мбайт (6%)
Заголовок : Original
Язык : English
ServiceKind/String : Complete Main
Default : Нет
Forced : Нет

Текст #1
Идентификатор : 10
Формат : UTF-8
Идентификатор кодека : S_TEXT/UTF8
Идентификатор кодека/Информация : UTF-8 Plain Text
Продолжительность : 2 ч. 14 м.
Битрейт : 71 бит/сек
ElementCount : 1406
Размер потока : 70,2 Кбайт (0%)
Язык : Russian
Default : Нет
Forced : Нет

Текст #2
Идентификатор : 11
Формат : UTF-8
Идентификатор кодека : S_TEXT/UTF8
Идентификатор кодека/Информация : UTF-8 Plain Text
Продолжительность : 2 ч. 14 м.
Битрейт : 56 бит/сек
ElementCount : 1652
Размер потока : 56,0 Кбайт (0%)
Язык : English
Default : Нет
Forced : Нет

Меню
00:00:00.000 : en:Jerry's Theories (Credits)
00:04:01.824 : en:Call It Geronimo
00:07:01.963 : en:Can't Take His Eyes Off Her
00:11:33.859 : en:The Next Issue
00:16:46.672 : en:Nonappointment with Alice
00:19:48.312 : en:Getting to Know Her Better
00:22:44.863 : en:Kidnapped
00:25:12.928 : en:Who Knows What?
00:28:53.398 : en:Escape By a Nose
00:32:03.671 : en:Remembering Alice
00:34:48.419 : en:Hospital Paranoia
00:39:00.588 : en:Key to Another Escape
00:43:21.181 : en:Something About Jerry
00:47:51.326 : en:A Passenger and a Pursuer
00:51:09.649 : en:Fortress of a Catcher Fan
00:59:28.273 : en:Under Attack
01:03:06.032 : en:"Are You Watching Me?"
01:05:55.660 : en:Her Guardian Angel
01:08:33.692 : en:Swooping in on Jerry
01:14:31.592 : en:Extra Safeguard
01:15:46.250 : en:Excess Baggage
01:20:12.307 : en:A Theory and a Declaration
01:24:34.444 : en:Meeting Henry Finch
01:31:37.533 : en:Riding Toward the Music
01:39:51.276 : en:"I Believe You"
01:45:18.437 : en:See Alice Run/Because He'd Find Me
01:51:17.337 : en:Closing in on Jerry
01:57:33.337 : en:A Kiss Before Dying?
02:01:07.551 : en:Blood and Water
02:02:56.952 : en:"Now You Tell Me"
02:07:04.700 : en:Nothing As It Seems
02:09:50.157 : en:End Credits (Cant Take My Eyes Off You)
Cкриншот1 Теория заговора / Conspiracy Theory (1997) BDRip 1080p [HEVC] 10 bit от OldGamer
Загружается...
Cкриншот2 Теория заговора / Conspiracy Theory (1997) BDRip 1080p [HEVC] 10 bit от OldGamer
Загружается...
Cкриншот3 Теория заговора / Conspiracy Theory (1997) BDRip 1080p [HEVC] 10 bit от OldGamer
Загружается...
Cкриншот4 Теория заговора / Conspiracy Theory (1997) BDRip 1080p [HEVC] 10 bit от OldGamer
Загружается...
СэмплТоррентМагнетКнопки для благодарностей доступны только зарегистрированным/авторизованным пользователям!

Поблагодарили: 14
aacg, alexyak, davidoff_k4, denon480, grudich, Kaban, ko1ob, mvclub, Nuclear70, Remontaz, sabretooth, sergeich, SoulBoy, vladd37
10.06.2019  16:31:21
0
85
2
0
9.77 ГБ

Добавление нового комментария

Добавление комментариев доступно только зарегистрированным/авторизованным пользователям.