Обложка Аквамен / Aquaman (2018) [IMAX] BDRip 1080p [HEVC] 10 bit от Mr. FoxОбложка Человек-паук: Через вселенные / Spider-Man: Into the Spider-Verse (2018) [Локализованная версия] BDRip 1080p [HEVC] 10 bit от M@kSIMusОбложка Клаустрофобы / Escape Room (2019) BDRip 1080p [HEVC] 10 bit от M@kSIMusОбложка Богемская рапсодия / Bohemian Rhapsody (2018) BDRip 1080p [HEVC] 10 bit от M@kSIMusОбложка Мир Дикого Запада / Westworld (2018) [2 сезон] BDRip 1080p [HEVC] 10 bit от OldGamerОбложка Оно / It (2017) BDRip 1080p [HEVC] 10 bit от HANNIBALОбложка Варкрафт / Warcraft (2016) BDRip 1080p [HEVC] 10 bit от M@kSIMusОбложка Rammstein - Paris (2017) BDRip 1080p [HEVC] 8 bit от CthulhuОбложка Человек на Луне / First Man (2018) [IMAX Edition] BDRip 1080p [HEVC] 10 bit от M@kSIMusОбложка Робин Гуд / Robin Hood (2010) [Director's Cut] BDRip 1080p [HEVC] 10 bit от Cthulhu

Авторизация

Смена пароля

captcha

Регистрация

captcha

Мини-чат

(15:07) PRO-USTAS: всем привет мне нужен химик как с ним связаться ?
(15:28) Admin: В Пожеланиях переделал систему нумерации и добавил сортировку по номеру. Так легче отследить последние добавления.
(15:34) ADVOKAT69: PRO-USTAS, В контакте или одноклассниках!
(15:36) PRO-USTAS: скинь в личку
(17:36) PRO-USTAS: химик если ты тут бываешь напиши мне вк или в личку тут
(18:57) ADVOKAT69: PRO-USTAS, я Павлу в контакты написал!
(22:41) ADVOKAT69: PRO-USTAS, в личку скинул сылку!
(00:12) PRO-USTAS: большое спасибо
(09:09) ADVOKAT69: PRO-USTAS, ✋
(11:44) Manson_Fan: пора вводить систему штрафов))) по 300-500 скачиваний а через 5-7 дней на раздаче от силы 5-7 человек
(13:03) OldGamer: Заходите ежедневно :)
(13:51) Adagon: Сообщение удалено (Adagon)
Онлайн: 0
Отправка сообщений доступно только зарегистрированным/авторизованным пользователям.

🔍 Поиск

Омен: Перерождение / The Prodigy (2019) BDRip 1080p [HEVC] 10 bit от HANNIBAL

HEVC
10 bit
Обложка Омен: Перерождение / The Prodigy (2019) BDRip 1080p [HEVC] 10 bit от HANNIBAL Год: 2019
Страна: США, Гонконг
Студия: Orion Pictures, Vinson Films, XYZ Films
Жанр: Ужасы, Триллер
Продолжительность: 01:31:46

Режиссер: Николас МакКарти
В ролях: Тейлор Шиллинг, Джексон Роберт Скотт, Колм Фиор, Питер Муни, Пол Фото, Бриттани Аллен, Паула Бодро, Элиза Мулчерри, Олунике Аделийи, Джанет Лэнд

Описание: У молодой пары рождается долгожданный ребёнок. Вскоре малыш Майлс начинает демонстрировать все признаки вундеркинда, и его определяют в специализированную школу для одарённых детей. Но по достижении восьмилетнего возраста поведение мальчика становится асоциальным и пугающим, и родительская гордость сменяется опасением даже за собственную жизнь — мать Майлса начинает считать, что её сыном управляет нечто злобное.


5.5623494
5.9
10050


Формат: MKV
Видео: 1920x804, 10.5 Mbps
Аудио1: AC3, 6 ch, 384 Kbps - Русский, Дублированный (iTunes)
Аудио2: AC3, 6 ch, 640 Kbps - Английский, Оригинал
Субтитры: нет

Как за пару секунд удалить ненужные аудиодорожки и субтитры (Внимание! После удаления вы не сможете поддержать раздачу)

Медиаинфо
General
Unique ID : 39048758155012747103515493654487585479 (0x1D60846B4B727A9C33FCFA55D9CF52C7)
Complete name : E:\The Prodigy (2019) BDRip 1080p [HEVC] 10bit.mkv
Format : Matroska
Format version : Version 4
File size : 7.40 GiB
Duration : 1 h 31 min
Overall bit rate : 11.6 Mb/s
Movie name : Омен: Перерождение
Encoded date : UTC 2019-05-11 09:21:02
Writing application : mkvmerge v25.0.0 ('Prog Noir') 64-bit
Writing library : libebml v1.3.6 + libmatroska v1.4.9 / Lavf57.71.100
Cover : Yes
Attachments : cover.jpg
ACTORS : Тейлор Шиллинг, Джексон Роберт Скотт,
COUNTRY : США
DATE : 2019
DIRECTOR : Николас МакКарти
ENCODING_INFO : MATROSKA,WEBM > MKV / H264 > X265 CRF 17.5 Пользовательский 2
GENRE : ужасы, триллер
HD_VIDEO : 1
MEDIA_TYPE : 9
ORIGINAL_TITLE : The Prodigy

Video
ID : 1
Format : HEVC
Format/Info : High Efficiency Video Coding
Format profile : Main 10@L4.1@High
Codec ID : V_MPEGH/ISO/HEVC
Duration : 1 h 31 min
Bit rate : 10.5 Mb/s
Width : 1 920 pixels
Height : 804 pixels
Display aspect ratio : 2.40:1
Frame rate mode : Constant
Frame rate : 23.976 (24000/1001) FPS
Color space : YUV
Chroma subsampling : 4:2:0
Bit depth : 10 bits
Bits/(Pixel*Frame) : 0.284
Stream size : 6.75 GiB (91%)
Writing library : x265 2.9+9-f74003e88622:[Windows][GCC 8.2.0][64 bit] 10bit
Encoding settings : cpuid=1111039 / frame-threads=13 / numa-pools=12 / wpp / no-pmode / no-pme / no-psnr / no-ssim / log-level=3 / input-csp=1 / input-res=1920x804 / interlace=0 / total-frames=0 / level-idc=41 / high-tier=1 / uhd-bd=0 / ref=5 / allow-non-conformance / no-repeat-headers / annexb / no-aud / no-hrd / info / hash=0 / no-temporal-layers / open-gop / min-keyint=23 / keyint=240 / gop-lookahead=0 / bframes=8 / b-adapt=2 / b-pyramid / bframe-bias=0 / rc-lookahead=60 / lookahead-slices=4 / scenecut=40 / radl=0 / no-intra-refresh / ctu=64 / min-cu-size=8 / rect / amp / max-tu-size=32 / tu-inter-depth=4 / tu-intra-depth=4 / limit-tu=0 / rdoq-level=2 / dynamic-rd=0.00 / no-ssim-rd / signhide / no-tskip / nr-intra=0 / nr-inter=0 / no-constrained-intra / no-strong-intra-smoothing / max-merge=5 / limit-refs=2 / limit-modes / me=3 / subme=7 / merange=57 / temporal-mvp / weightp / weightb / no-analyze-src-pics / deblock=-3:-3 / no-sao / no-sao-non-deblock / rd=6 / no-early-skip / rskip / no-fast-intra / no-tskip-fast / no-cu-lossless / b-intra / no-splitrd-skip / rdpenalty=0 / psy-rd=2.00 / psy-rdoq=1.00 / no-rd-refine / no-lossless / cbqpoffs=0 / crqpoffs=0 / rc=crf / crf=17.5 / qcomp=0.70 / qpstep=4 / stats-write=0 / stats-read=0 / vbv-maxrate=50000 / vbv-bufsize=50000 / vbv-init=0.9 / crf-max=0.0 / crf-min=0.0 / ipratio=1.40 / pbratio=1.30 / aq-mode=2 / aq-strength=1.00 / no-cutree / zone-count=0 / no-strict-cbr / qg-size=32 / no-rc-grain / qpmax=69 / qpmin=0 / no-const-vbv / sar=1 / overscan=0 / videoformat=5 / range=0 / colorprim=1 / transfer=1 / colormatrix=1 / chromaloc=0 / display-window=0 / max-cll=0,0 / min-luma=0 / max-luma=1023 / log2-max-poc-lsb=8 / vui-timing-info / vui-hrd-info / slices=1 / no-opt-qp-pps / no-opt-ref-list-length-pps / no-multi-pass-opt-rps / scenecut-bias=0.05 / no-opt-cu-delta-qp / aq-motion / no-hdr / no-hdr-opt / no-dhdr10-opt / no-idr-recovery-sei / analysis-reuse-level=5 / scale-factor=0 / refine-intra=0 / refine-inter=0 / refine-mv=0 / no-limit-sao / ctu-info=0 / no-lowpass-dct / refine-mv-type=0 / copy-pic=1 / max-ausize-factor=1.0 / no-dynamic-refine / no-single-sei
Language : English
Default : Yes
Forced : No
Color range : Limited
Color primaries : BT.709
Transfer characteristics : BT.709
Matrix coefficients : BT.709

Audio #1
ID : 2
Format : AC-3
Format/Info : Audio Coding 3
Commercial name : Dolby Digital
Codec ID : A_AC3
Duration : 1 h 31 min
Bit rate mode : Constant
Bit rate : 384 kb/s
Channel(s) : 6 channels
Channel layout : L R C LFE Ls Rs
Sampling rate : 48.0 kHz
Frame rate : 31.250 FPS (1536 SPF)
Bit depth : 16 bits
Compression mode : Lossy
Stream size : 252 MiB (3%)
Title : iTunes
Language : Russian
Service kind : Complete Main
Default : Yes
Forced : No

Audio #2
ID : 3
Format : AC-3
Format/Info : Audio Coding 3
Commercial name : Dolby Digital
Codec ID : A_AC3
Duration : 1 h 31 min
Bit rate mode : Constant
Bit rate : 640 kb/s
Channel(s) : 6 channels
Channel layout : L R C LFE Ls Rs
Sampling rate : 48.0 kHz
Frame rate : 31.250 FPS (1536 SPF)
Bit depth : 16 bits
Compression mode : Lossy
Stream size : 420 MiB (6%)
Title : Original
Language : English
Service kind : Complete Main
Default : No
Forced : No

Menu
00:00:00.000 : :Глава 01
00:04:05.704 : :Глава 02
00:09:53.384 : :Глава 03
00:12:55.441 : :Глава 04
00:18:32.528 : :Глава 05
00:24:20.626 : :Глава 06
00:28:53.774 : :Глава 07
00:33:59.913 : :Глава 08
00:38:33.937 : :Глава 09
00:42:10.027 : :Глава 10
00:46:54.895 : :Глава 11
00:50:15.429 : :Глава 12
00:56:20.919 : :Глава 13
01:01:39.279 : :Глава 14
01:05:14.911 : :Глава 15
01:09:53.523 : :Глава 16
01:13:42.501 : :Глава 17
01:21:23.670 : :Глава 18
01:25:20.907 : :Глава 19
01:26:46.368 : :Глава 20
Cкриншот1 Омен: Перерождение / The Prodigy (2019) BDRip 1080p [HEVC] 10 bit от HANNIBAL
Загружается...
Cкриншот2 Омен: Перерождение / The Prodigy (2019) BDRip 1080p [HEVC] 10 bit от HANNIBAL
Загружается...
Cкриншот3 Омен: Перерождение / The Prodigy (2019) BDRip 1080p [HEVC] 10 bit от HANNIBAL
Загружается...
Cкриншот4 Омен: Перерождение / The Prodigy (2019) BDRip 1080p [HEVC] 10 bit от HANNIBAL
Загружается...
СэмплТоррентМагнетКнопки для благодарностей доступны только зарегистрированным/авторизованным пользователям!

Поблагодарили: 4
375509, Kaban, ops, Pennywise
13.05.2019  14:58:48
0
78
1
0
7.4 ГБ

Добавление нового комментария

Добавление комментариев доступно только зарегистрированным/авторизованным пользователям.