Обложка Аквамен / Aquaman (2018) [IMAX] BDRip 1080p [HEVC] 10 bit от Mr. FoxОбложка Богемская рапсодия / Bohemian Rhapsody (2018) BDRip 1080p [HEVC] 10 bit от M@kSIMusОбложка Человек-паук: Через вселенные / Spider-Man: Into the Spider-Verse (2018) [Локализованная версия] BDRip 1080p [HEVC] 10 bit от M@kSIMusОбложка Оно / It (2017) BDRip 1080p [HEVC] 10 bit от HANNIBALОбложка Сумерки: Антология / Twilight: Anthology (2008-2012) BDRip 1080p [HEVC] 10 bit от M@kSIMusОбложка И целого мира мало / The World Is Not Enough (1999) [50th Anniversary Edition] BDRip 1080p [HEVC] 10 bit от OldGamerОбложка Мир Юрского периода 2 / Jurassic World: Fallen Kingdom (2018) BDRip 1080p [HEVC] 10 bit от M@kSIMusОбложка Варкрафт / Warcraft (2016) BDRip 1080p [HEVC] 10 bit от M@kSIMusОбложка Темный рыцарь: Возрождение легенды / The Dark Knight Rises (2012) [IMAX] BDRip 1080p [HEVC] 10 bit от M@kSIMusОбложка Славные парни / Goodfellas (1990) [25th Anniversary] BDRip 1080p [HEVC] 10 bit от OldGamer

Авторизация

Смена пароля

captcha

Регистрация

captcha

Мини-чат

(19:54) Студень: Сучно тут стало, как на кладбище. Пойду наверно обратно на старый сайт
(00:25) АлександрПетров: Студень, На этом сайте банят не понятно за что, так что ничего не скачать. Да и фильмы тут один сплошной антиквариат.
(21:34) Студень: АлександрПетров, Саша, на этом сайте молчунов не банят. Так что не п...ди качай
(21:59) ko1ob: Студень, 5
(22:01) ko1ob: АлександрПетров, что мешает сделать рип новинки и залить сюда?
(00:40) Shanti: я уже говорил, что этот сайт загнётся. сайт классно сделан, но с таким подходом.. в плане развития, лучше уже вряд ли будет.
(05:07) gregor: Привет, поддайте газку http://hevc-club.video/video-876/
(08:23) TaiLung: Приветствую, скажите пожалуйста, HEVC HDRip`ы почему у нас не актуальны ? Почему то ни на одном российском трекере нету :) Я на американских трекерах видел фильмы размером 500~600 мб, а мультфильмы 400 мб и качество такое же как при h.264 - 745 мб, мне кажется для кого не важно супер качество и хочется иметь коллекцию фильмов, были бы рады такому компактному размеру 😃
(08:34) АлександрПетров: ko1ob, Мешает то, что я не рипер. Студень, а ты просто г....дон который со всеми кусается.
(08:52) OldGamer: TaiLung, если неважно качество и радует компактный размер - делайте себе такие рипы видеокартой, настроек минимум, скорость высокая :)
(08:56) OldGamer: TaiLung, видимо, спрос на такие рипы отсутствует на трекерах, поэтому их и нет
(08:57) OldGamer: TaiLung, ну или как вариант - прозондируйте почву. Скачать иностранный рип, наложить озвучку, выложить на руторе. Посмотреть, что из этого получится.
(09:15) OldGamer: TaiLung, "качество такое же" - сравнивали скриншоты?
  • 375509
  • atanaj
  • mogaleksej
  • sergey1060
Онлайн: 4
Отправка сообщений доступно только зарегистрированным/авторизованным пользователям.

🔍 Поиск

Полицейская академия 3: Переподготовка / Police Academy 3: Back in Training (1986) BDRip 1080p [HEVC] 10 bit от HANNIBAL

HEVC
10 bit
Обложка Полицейская академия 3: Переподготовка / Police Academy 3: Back in Training (1986) BDRip 1080p [HEVC] 10 bit от HANNIBAL Год: 1986
Страна: США
Студия: Warner Bros.
Жанр: Комедия
Продолжительность: 01:23:43

Режиссер: Джерри Пэрис
В ролях: Стив Гуттенберг, Бубба Смит, Дэвид Граф, Майкл Уинслоу, Мэрион Рэмси, Лесли Истербрук, Арт Метрано, Тим Казурински, Боб Голдтуэйт, Джордж Гейнс

Описание: Правительство заявило, что только одна из двух полицейских школ может продолжать свою работу. Начинается жестокое состязание на выживание — ни одна из академий не желает закрываться, в дело идут все средства. Махони, Хайтауэр, Тэклберри, Джонс, Хукс и Кэллагэн под командованием несгибаемого коменданта Лассарда, мобилизуют для спасения своей Альма Матер новую команду безнадежных рекрутов...


7.22719569
5.4
39374


Формат: MKV
Видео: 1912x1080, 10.4 Mb/s
Аудио1: AC3, 2 ch, 192 Kbps -
Дублированный (Варус Видео)

Аудио2: AC3, 2 ch, 192 Kbps -
Двухголосый (НТВ)

Аудио3: AC3, 2 ch, 192 Kbps -
Двухголосый (Universal Channel)

Аудио4: AC3, 1 ch, 192 Kbps -
Одноголосый (Гаврилов)

Аудио5: AC3, 1 ch, 192 Kbps -
Оригинал

Субтитры:

Как за пару секунд удалить ненужные аудиодорожки и субтитры (Внимание! После удаления вы не сможете поддержать раздачу)

Медиаинфо
x265 info: frame I: 1177, Avg QP:17.95 kb/s: 20905.85
x265 info: frame P: 22883, Avg QP:19.55 kb/s: 15788.26
x265 info: frame B: 96389, Avg QP:21.51 kb/s: 9022.90
x265 info: Weighted P-Frames: Y:10.6% UV:8.4%
x265 info: Weighted B-Frames: Y:10.6% UV:6.9%
x265 info: consecutive B-frames: 6.5% 3.3% 5.8% 31.0% 9.7% 24.6% 6.4% 9.2% 3.5%

General
Unique ID : 20506888952753806046132008628516274332 (0xF6D7BAFB877CF3A89843B7042B7C09C)
Complete name : H:\HEVC-CLUB\Police Academy The Complete Collection (1984-1994) [HEVC]\Police Academy 3 Back in Training (1986) BDRip 1080р [HEVC] 10bit.mkv
Format : Matroska
Format version : Version 4
File size : 6.66 GiB
Duration : 1 h 23 min
Overall bit rate : 11.4 Mb/s
Movie name : Полицейская академия 3: Переподготовка / Police Academy 3: Back in Training (1986) BDRemux 1080p (Sinteros)
Encoded date : UTC 2019-05-07 14:59:16
Writing application : mkvmerge v25.0.0 ('Prog Noir') 64-bit
Writing library : libebml v1.3.6 + libmatroska v1.4.9 / Lavf57.71.100
Cover : Yes
Attachments : Cover.jpg / Cover.jpg
ENCODING_INFO : MATROSKA,WEBM > MKV / H264 > X265 CRF 20.0 Пользовательский 2
Language : und

Video
ID : 1
Format : HEVC
Format/Info : High Efficiency Video Coding
Format profile : Main 10@L4.1@High
Codec ID : V_MPEGH/ISO/HEVC
Duration : 1 h 23 min
Bit rate : 10.4 Mb/s
Width : 1 912 pixels
Height : 1 080 pixels
Display aspect ratio : 16:9
Frame rate mode : Constant
Frame rate : 23.976 (24000/1001) FPS
Color space : YUV
Chroma subsampling : 4:2:0
Bit depth : 10 bits
Bits/(Pixel*Frame) : 0.211
Stream size : 6.10 GiB (92%)
Title : MPEG-4 AVC, 1920x1080(16:9), 23,976fps, ~26923 Кbps
Writing library : x265 2.9+9-f74003e88622:[Windows][GCC 8.2.0][64 bit] 10bit
Encoding settings : cpuid=1111039 / frame-threads=13 / numa-pools=12 / wpp / no-pmode / no-pme / no-psnr / no-ssim / log-level=3 / input-csp=1 / input-res=1912x1080 / interlace=0 / total-frames=0 / level-idc=41 / high-tier=1 / uhd-bd=0 / ref=5 / allow-non-conformance / no-repeat-headers / annexb / no-aud / no-hrd / info / hash=0 / no-temporal-layers / open-gop / min-keyint=23 / keyint=240 / gop-lookahead=0 / bframes=8 / b-adapt=2 / b-pyramid / bframe-bias=0 / rc-lookahead=60 / lookahead-slices=4 / scenecut=40 / radl=0 / no-intra-refresh / ctu=64 / min-cu-size=8 / rect / amp / max-tu-size=32 / tu-inter-depth=4 / tu-intra-depth=4 / limit-tu=0 / rdoq-level=2 / dynamic-rd=0.00 / no-ssim-rd / signhide / no-tskip / nr-intra=0 / nr-inter=0 / no-constrained-intra / no-strong-intra-smoothing / max-merge=5 / limit-refs=2 / limit-modes / me=3 / subme=7 / merange=57 / temporal-mvp / weightp / weightb / no-analyze-src-pics / deblock=-3:-3 / no-sao / no-sao-non-deblock / rd=6 / no-early-skip / rskip / no-fast-intra / no-tskip-fast / no-cu-lossless / b-intra / no-splitrd-skip / rdpenalty=0 / psy-rd=2.00 / psy-rdoq=1.00 / no-rd-refine / no-lossless / cbqpoffs=0 / crqpoffs=0 / rc=crf / crf=20.0 / qcomp=0.70 / qpstep=4 / stats-write=0 / stats-read=0 / vbv-maxrate=50000 / vbv-bufsize=50000 / vbv-init=0.9 / crf-max=0.0 / crf-min=0.0 / ipratio=1.40 / pbratio=1.30 / aq-mode=2 / aq-strength=1.00 / no-cutree / zone-count=0 / no-strict-cbr / qg-size=32 / no-rc-grain / qpmax=69 / qpmin=0 / no-const-vbv / sar=1 / overscan=0 / videoformat=5 / range=0 / colorprim=1 / transfer=1 / colormatrix=1 / chromaloc=0 / display-window=0 / max-cll=0,0 / min-luma=0 / max-luma=1023 / log2-max-poc-lsb=8 / vui-timing-info / vui-hrd-info / slices=1 / no-opt-qp-pps / no-opt-ref-list-length-pps / no-multi-pass-opt-rps / scenecut-bias=0.05 / no-opt-cu-delta-qp / aq-motion / no-hdr / no-hdr-opt / no-dhdr10-opt / no-idr-recovery-sei / analysis-reuse-level=5 / scale-factor=0 / refine-intra=0 / refine-inter=0 / refine-mv=0 / no-limit-sao / ctu-info=0 / no-lowpass-dct / refine-mv-type=0 / copy-pic=1 / max-ausize-factor=1.0 / no-dynamic-refine / no-single-sei
Language : English
Default : Yes
Forced : No
Color range : Limited
Color primaries : BT.709
Transfer characteristics : BT.709
Matrix coefficients : BT.709

Audio #1
ID : 2
Format : AC-3
Format/Info : Audio Coding 3
Commercial name : Dolby Digital
Codec ID : A_AC3
Duration : 1 h 23 min
Bit rate mode : Constant
Bit rate : 192 kb/s
Channel(s) : 2 channels
Channel layout : L R
Sampling rate : 48.0 kHz
Frame rate : 31.250 FPS (1536 SPF)
Bit depth : 16 bits
Compression mode : Lossy
Stream size : 115 MiB (2%)
Title : DUB Russian, AC3, 2ch, 48 kHz, 192 kbps, (Дубляж - Варус Видео)
Language : Russian
Service kind : Complete Main
Default : Yes
Forced : No

Audio #2
ID : 3
Format : AC-3
Format/Info : Audio Coding 3
Commercial name : Dolby Digital
Codec ID : A_AC3
Duration : 1 h 23 min
Bit rate mode : Constant
Bit rate : 192 kb/s
Channel(s) : 2 channels
Channel layout : L R
Sampling rate : 48.0 kHz
Frame rate : 31.250 FPS (1536 SPF)
Bit depth : 16 bits
Compression mode : Lossy
Stream size : 115 MiB (2%)
Title : DVO Russian, AC3, 2ch, 48 kHz, 192 kbps, (Двухголосый - НТВ)
Language : Russian
Service kind : Complete Main
Default : No
Forced : No

Audio #3
ID : 4
Format : AC-3
Format/Info : Audio Coding 3
Commercial name : Dolby Digital
Codec ID : A_AC3
Duration : 1 h 23 min
Bit rate mode : Constant
Bit rate : 192 kb/s
Channel(s) : 2 channels
Channel layout : L R
Sampling rate : 48.0 kHz
Frame rate : 31.250 FPS (1536 SPF)
Bit depth : 16 bits
Compression mode : Lossy
Stream size : 115 MiB (2%)
Title : DVO Russian, AC3, 2ch, 48 kHz, 192 kbps, (Двухголосый - Universal Channel)
Language : Russian
Service kind : Complete Main
Default : No
Forced : No

Audio #4
ID : 5
Format : AC-3
Format/Info : Audio Coding 3
Commercial name : Dolby Digital
Codec ID : A_AC3
Duration : 1 h 23 min
Bit rate mode : Constant
Bit rate : 192 kb/s
Channel(s) : 1 channel
Channel layout : C
Sampling rate : 48.0 kHz
Frame rate : 31.250 FPS (1536 SPF)
Bit depth : 16 bits
Compression mode : Lossy
Stream size : 115 MiB (2%)
Service kind : Complete Main
Default : No
Forced : No

Audio #5
ID : 6
Format : AC-3
Format/Info : Audio Coding 3
Commercial name : Dolby Digital
Codec ID : A_AC3
Duration : 1 h 23 min
Bit rate mode : Constant
Bit rate : 192 kb/s
Channel(s) : 1 channel
Channel layout : C
Sampling rate : 48.0 kHz
Frame rate : 31.250 FPS (1536 SPF)
Bit depth : 16 bits
Compression mode : Lossy
Stream size : 115 MiB (2%)
Service kind : Complete Main
Default : No
Forced : No

Menu
00:00:00.000 : :Глава 1
00:08:02.607 : :Глава 2
00:11:19.136 : :Глава 3
00:14:18.983 : :Глава 4
00:20:56.672 : :Глава 5
00:24:20.959 : :Глава 6
00:27:19.554 : :Глава 7
00:31:00.066 : :Глава 8
00:34:15.053 : :Глава 9
00:36:34.108 : :Глава 10
00:38:11.330 : :Глава 11
00:42:34.969 : :Глава 12
00:45:31.854 : :Глава 13
00:47:48.782 : :Глава 14
00:50:57.721 : :Глава 15
00:55:32.037 : :Глава 16
00:57:08.633 : :Глава 17
01:01:58.423 : :Глава 18
01:06:07.755 : :Глава 19
01:11:38.460 : :Глава 20
01:13:57.641 : :Глава 21
01:19:59.544 : :Глава 22
01:23:37.721 : :Глава 23
Cкриншот1 Полицейская академия 3: Переподготовка / Police Academy 3: Back in Training (1986) BDRip 1080p [HEVC] 10 bit от HANNIBAL
Загружается...
Cкриншот2 Полицейская академия 3: Переподготовка / Police Academy 3: Back in Training (1986) BDRip 1080p [HEVC] 10 bit от HANNIBAL
Загружается...
Cкриншот3 Полицейская академия 3: Переподготовка / Police Academy 3: Back in Training (1986) BDRip 1080p [HEVC] 10 bit от HANNIBAL
Загружается...
Cкриншот4 Полицейская академия 3: Переподготовка / Police Academy 3: Back in Training (1986) BDRip 1080p [HEVC] 10 bit от HANNIBAL
Загружается...
СэмплТоррентМагнетКнопки для благодарностей доступны только зарегистрированным/авторизованным пользователям!

Поблагодарили: 13
375509, 7654321, alex_rad, brukvalub, crash, Kaban, kapitan, Leon20052, mafo2, MIGRANT, Nuclear70, pivorogan, Ronin13
07.05.2019  21:18:50
1
68
0
0
6.66 ГБ

Добавление нового комментария

Добавление комментариев доступно только зарегистрированным/авторизованным пользователям.
Аватар mafo2
  mafo2  03.06.2019  14:04:27
👍