Обложка Аквамен / Aquaman (2018) [IMAX] BDRip 1080p [HEVC] 10 bit от Mr. FoxОбложка Богемская рапсодия / Bohemian Rhapsody (2018) BDRip 1080p [HEVC] 10 bit от M@kSIMusОбложка Оно / It (2017) BDRip 1080p [HEVC] 10 bit от HANNIBALОбложка Человек-паук: Через вселенные / Spider-Man: Into the Spider-Verse (2018) [Локализованная версия] BDRip 1080p [HEVC] 10 bit от M@kSIMusОбложка Сумерки: Антология / Twilight: Anthology (2008-2012) BDRip 1080p [HEVC] 10 bit от M@kSIMusОбложка Мир Юрского периода 2 / Jurassic World: Fallen Kingdom (2018) BDRip 1080p [HEVC] 10 bit от M@kSIMusОбложка Темный рыцарь: Возрождение легенды / The Dark Knight Rises (2012) [IMAX] BDRip 1080p [HEVC] 10 bit от M@kSIMusОбложка И целого мира мало / The World Is Not Enough (1999) [50th Anniversary Edition] BDRip 1080p [HEVC] 10 bit от OldGamerОбложка Невидимая сторона / The Blind Side (2009) BDRip 1080p [HEVC] 10 bit от CthulhuОбложка Славные парни / Goodfellas (1990) [25th Anniversary] BDRip 1080p [HEVC] 10 bit от OldGamer

Авторизация

Смена пароля

captcha

Регистрация

captcha

Мини-чат

(19:54) Студень: Сучно тут стало, как на кладбище. Пойду наверно обратно на старый сайт
(00:25) АлександрПетров: Студень, На этом сайте банят не понятно за что, так что ничего не скачать. Да и фильмы тут один сплошной антиквариат.
(21:34) Студень: АлександрПетров, Саша, на этом сайте молчунов не банят. Так что не п...ди качай
(21:59) ko1ob: Студень, 5
(22:01) ko1ob: АлександрПетров, что мешает сделать рип новинки и залить сюда?
(00:40) Shanti: я уже говорил, что этот сайт загнётся. сайт классно сделан, но с таким подходом.. в плане развития, лучше уже вряд ли будет.
(05:07) gregor: Привет, поддайте газку http://hevc-club.video/video-876/
(08:23) TaiLung: Приветствую, скажите пожалуйста, HEVC HDRip`ы почему у нас не актуальны ? Почему то ни на одном российском трекере нету :) Я на американских трекерах видел фильмы размером 500~600 мб, а мультфильмы 400 мб и качество такое же как при h.264 - 745 мб, мне кажется для кого не важно супер качество и хочется иметь коллекцию фильмов, были бы рады такому компактному размеру 😃
(08:34) АлександрПетров: ko1ob, Мешает то, что я не рипер. Студень, а ты просто г....дон который со всеми кусается.
(08:52) OldGamer: TaiLung, если неважно качество и радует компактный размер - делайте себе такие рипы видеокартой, настроек минимум, скорость высокая :)
(08:56) OldGamer: TaiLung, видимо, спрос на такие рипы отсутствует на трекерах, поэтому их и нет
(08:57) OldGamer: TaiLung, ну или как вариант - прозондируйте почву. Скачать иностранный рип, наложить озвучку, выложить на руторе. Посмотреть, что из этого получится.
(09:15) OldGamer: TaiLung, "качество такое же" - сравнивали скриншоты?
  • 375509
  • dolbyk
  • Head1987
Онлайн: 3
Отправка сообщений доступно только зарегистрированным/авторизованным пользователям.

🔍 Поиск

Черный ястреб / Black Hawk Down (2001) [Theatrical Cut] BDRip 1080p [HEVC] 10 bit от HANNIBAL

HEVC
10 bit
Обложка Черный ястреб / Black Hawk Down (2001) [Theatrical Cut] BDRip 1080p [HEVC] 10 bit от HANNIBAL Год: 2001
Страна: США, Великобритания
Жанр: Драма, Военный, История
Продолжительность: 02:24:19

Режиссер: Ридли Скотт
В ролях: Джош Хартнетт, Юэн МакГрегор, Эрик Бана, Уильям Фихтнер, Сэм Шепард, Джейсон Айзекс, Том Сайзмор, Рон Элдард, Том Харди, Николай Костер-Вальдау

Описание: Сомали, 1993 год. Страна вымирает от голода, число жертв превысило триста тысяч человек. Миротворческие силы ООН пытаются восстановить порядок и организовать поставки продовольствия. В помощь им Вашингтон выслал полтысячи человек из элитных подразделений американской армии, знаменитые отряды «Дельта» и армейских рейнджеров. В городе Могадишо хозяйничает и творит беспредел полевой командир Айдид, убивая мирных граждан и отбирая гуманитарную помощь. В определенный момент орлы из Вашингтона решают провести операцию по захвату Айдида в его резиденции. Молодой офицер, только что назначенный взводным; матерый сержант, ведущий колонну машин; казарменный писарь, не нюхавший пороху; экипажи сбитых вертолетов, вынужденных ждать подкрепления и эвакуации; пара солдат, которых забыли взять с собой при смене позиции; генерал, сидящий в штабе и наблюдающий со спутника, как погибают его солдаты…


7.81567085
7.7
342532


Формат: MKV
Видео: 1920x804, 7838 Kbps
Аудио: AC3, 6 ch, 448 Kbps -
Дублированный

Субтитры: нет

Медиаинфо
General
Unique ID : 240942395617507886361271782670996619466 (0xB543D14501D41AABA288C2B385A040CA)
Complete name : E:\Черный ястреб. Black Hawk Down (2001) BDRip 1080p [HEVC] 10 bit HANNIBAL.mkv
Format : Matroska
Format version : Version 4 / Version 2
File size : 8.32 GiB
Duration : 2 h 24 min
Overall bit rate : 8 256 kb/s
Encoded date : UTC 2018-01-25 14:28:18
Writing application : mkvmerge v9.5.0 ('Quiet Fire') 64bit
Writing library : libebml v1.3.4 + libmatroska v1.4.5 / Lavf57.71.100
Cover : Yes
Attachments : cover.jpg
ENCODING_INFO : MPEGTS > MKV / H264 > X265 CBR 8000kbps Medium / AC3 > AC3 CBR 480kbps

Video
ID : 1
Format : HEVC
Format/Info : High Efficiency Video Coding
Format profile : Main 10@L5@Main
Codec ID : V_MPEGH/ISO/HEVC
Duration : 2 h 23 min
Bit rate : 7 838 kb/s
Width : 1 920 pixels
Height : 804 pixels
Display aspect ratio : 2.40:1
Frame rate mode : Constant
Frame rate : 23.976 (24000/1001) FPS
Color space : YUV
Chroma subsampling : 4:2:0
Bit depth : 10 bits
Bits/(Pixel*Frame) : 0.212
Stream size : 7.87 GiB (95%)
Writing library : x265 2.6+27-2f3c4158cf35:[Windows][GCC 7.2.0][64 bit] 10bit
Encoding settings : cpuid=1050111 / frame-threads=5 / numa-pools=4 / wpp / no-pmode / no-pme / no-psnr / no-ssim / log-level=3 / input-csp=1 / input-res=1920x804 / interlace=0 / total-frames=0 / level-idc=50 / high-tier=1 / uhd-bd=0 / ref=3 / allow-non-conformance / no-repeat-headers / annexb / no-aud / no-hrd / info / hash=0 / no-temporal-layers / open-gop / min-keyint=24 / keyint=240 / gop-lookahead=0 / bframes=4 / b-adapt=2 / b-pyramid / bframe-bias=0 / rc-lookahead=20 / lookahead-slices=5 / scenecut=40 / radl=0 / no-intra-refresh / ctu=64 / min-cu-size=8 / no-rect / no-amp / max-tu-size=32 / tu-inter-depth=1 / tu-intra-depth=1 / limit-tu=0 / rdoq-level=0 / dynamic-rd=0.00 / no-ssim-rd / signhide / no-tskip / nr-intra=0 / nr-inter=0 / no-constrained-intra / strong-intra-smoothing / max-merge=2 / limit-refs=3 / no-limit-modes / me=1 / subme=2 / merange=57 / temporal-mvp / weightp / no-weightb / no-analyze-src-pics / deblock=-2:-2 / sao / no-sao-non-deblock / rd=3 / no-early-skip / rskip / no-fast-intra / no-tskip-fast / no-cu-lossless / no-b-intra / no-splitrd-skip / rdpenalty=0 / psy-rd=2.00 / psy-rdoq=0.00 / no-rd-refine / no-lossless / cbqpoffs=0 / crqpoffs=0 / rc=cbr / bitrate=8000 / qcomp=0.60 / qpstep=4 / stats-write=0 / stats-read=0 / vbv-maxrate=8000 / vbv-bufsize=5714 / vbv-init=0.9 / ipratio=1.40 / pbratio=1.30 / aq-mode=1 / aq-strength=1.00 / cutree / zone-count=0 / no-strict-cbr / qg-size=32 / no-rc-grain / qpmax=69 / qpmin=0 / no-const-vbv / sar=1 / overscan=0 / videoformat=5 / range=0 / colorprim=1 / transfer=1 / colormatrix=1 / chromaloc=0 / display-window=0 / max-cll=0,0 / min-luma=0 / max-luma=1023 / log2-max-poc-lsb=8 / vui-timing-info / vui-hrd-info / slices=1 / no-opt-qp-pps / no-opt-ref-list-length-pps / no-multi-pass-opt-rps / scenecut-bias=0.05 / no-opt-cu-delta-qp / no-aq-motion / no-hdr / no-hdr-opt / no-dhdr10-opt / analysis-save=(null) / analysis-load=(null) / analysis-reuse-level=5 / scale-factor=0 / refine-intra=0 / refine-inter=0 / refine-mv=0 / no-limit-sao / ctu-info=0 / no-lowpass-dct / refine-mv-type=0 / copy-pic=1
Default : Yes
Forced : No
Color range : Limited
Color primaries : BT.709
Transfer characteristics : BT.709
Matrix coefficients : BT.709

Audio
ID : 2
Format : AC-3
Format/Info : Audio Coding 3
Codec ID : A_AC3
Duration : 2 h 24 min
Bit rate mode : Constant
Bit rate : 448 kb/s
Channel(s) : 6 channels
Channel positions : Front: L C R, Side: L R, LFE
Sampling rate : 48.0 kHz
Frame rate : 31.250 FPS (1536 SPF)
Bit depth : 16 bits
Compression mode : Lossy
Stream size : 462 MiB (5%)
Service kind : Complete Main
Default : Yes
Forced : No
Cкриншот1 Черный ястреб / Black Hawk Down (2001) [Theatrical Cut] BDRip 1080p [HEVC] 10 bit от HANNIBAL
Загружается...
Cкриншот2 Черный ястреб / Black Hawk Down (2001) [Theatrical Cut] BDRip 1080p [HEVC] 10 bit от HANNIBAL
Загружается...
Cкриншот3 Черный ястреб / Black Hawk Down (2001) [Theatrical Cut] BDRip 1080p [HEVC] 10 bit от HANNIBAL
Загружается...
Cкриншот4 Черный ястреб / Black Hawk Down (2001) [Theatrical Cut] BDRip 1080p [HEVC] 10 bit от HANNIBAL
Загружается...
СэмплТоррентМагнетКнопки для благодарностей доступны только зарегистрированным/авторизованным пользователям!

Поблагодарили: 11
brukvalub, davidoff_k4, Dimetrixdemon, F2002, inoy, Kaban, MIGRANT, mvclub, SaN161NeK, sedoi09, Vitoss6
07.05.2019  14:31:28
3
240
2
0
8.32 ГБ

Добавление нового комментария

Добавление комментариев доступно только зарегистрированным/авторизованным пользователям.
Аватар Admin
  Admin  07.05.2019  19:59:39
У меня на компе этот, так как я предпочитаю театралки. Выложил для тех, кто захочет театралку с дубляжем.
Аватар MakSIMus
  MakSIMus  07.05.2019  15:53:16
Ну и в чём прикол? Олег уже давно на хороших настройках рипует. Смысл заливать старый рип?
Аватар OldGamer
  OldGamer  07.05.2019  15:10:35
да уж