Обложка Аквамен / Aquaman (2018) [IMAX] BDRip 1080p [HEVC] 10 bit от Mr. FoxОбложка Человек-паук: Через вселенные / Spider-Man: Into the Spider-Verse (2018) [Локализованная версия] BDRip 1080p [HEVC] 10 bit от M@kSIMusОбложка Клаустрофобы / Escape Room (2019) BDRip 1080p [HEVC] 10 bit от M@kSIMusОбложка Богемская рапсодия / Bohemian Rhapsody (2018) BDRip 1080p [HEVC] 10 bit от M@kSIMusОбложка Мир Дикого Запада / Westworld (2018) [2 сезон] BDRip 1080p [HEVC] 10 bit от OldGamerОбложка Оно / It (2017) BDRip 1080p [HEVC] 10 bit от HANNIBALОбложка Варкрафт / Warcraft (2016) BDRip 1080p [HEVC] 10 bit от M@kSIMusОбложка Rammstein - Paris (2017) BDRip 1080p [HEVC] 8 bit от CthulhuОбложка Мир Юрского периода 2 / Jurassic World: Fallen Kingdom (2018) BDRip 1080p [HEVC] 10 bit от M@kSIMusОбложка Трансформеры: Антология / Transformers: Anthology (2007-2017) [IMAX] BDRip 1080p [HEVC] 10 bit от M@kSIMus

Авторизация

Смена пароля

captcha

Регистрация

captcha

Мини-чат

(15:07) PRO-USTAS: всем привет мне нужен химик как с ним связаться ?
(15:28) Admin: В Пожеланиях переделал систему нумерации и добавил сортировку по номеру. Так легче отследить последние добавления.
(15:34) ADVOKAT69: PRO-USTAS, В контакте или одноклассниках!
(15:36) PRO-USTAS: скинь в личку
(17:36) PRO-USTAS: химик если ты тут бываешь напиши мне вк или в личку тут
(18:57) ADVOKAT69: PRO-USTAS, я Павлу в контакты написал!
(22:41) ADVOKAT69: PRO-USTAS, в личку скинул сылку!
(00:12) PRO-USTAS: большое спасибо
(09:09) ADVOKAT69: PRO-USTAS, ✋
(11:44) Manson_Fan: пора вводить систему штрафов))) по 300-500 скачиваний а через 5-7 дней на раздаче от силы 5-7 человек
(13:03) OldGamer: Заходите ежедневно :)
(13:51) Adagon: Сообщение удалено (Adagon)
Онлайн: 0
Отправка сообщений доступно только зарегистрированным/авторизованным пользователям.

🔍 Поиск

Чёрный ястреб / Black Hawk Down (2001) [Extended Cut] BDRip 1080p [HEVC] 10 bit от ADVOKAT69

HEVC
10 bit
Обложка Чёрный ястреб / Black Hawk Down (2001) [Extended Cut] BDRip 1080p [HEVC] 10 bit от ADVOKAT69 Год: 2001
Страна: США, Великобритания
Жанр: Драма, Военный, История
Продолжительность: 02:31:50

Режиссер: Ридли Скотт
В ролях: Джош Хартнетт, Эрик Бана, Эван МакГрегор, Том Сайзмор, Уиллиам Фичтнер, Сэм Шепард, Ивэн Бремнер, Чарли Хофхеймер, Том Харди, Том Гири, Джейсон Айзэкс, Брайан ван Холт, Джереми Пивен, Орландо Блум, Ким Коутс

Описание: Сомали, 1993 год. Страна вымирает от голода, число жертв превысило триста тысяч человек. Миротворческие силы ООН пытаются восстановить порядок и организовать поставки продовольствия. В помощь им Вашингтон выслал полтысячи человек из элитных подразделений американской армии, знаменитые отряды «Дельта» и армейских рейнджеров. В городе Могадишо хозяйничает и творит беспредел полевой командир Айдид, убивая мирных граждан и отбирая гуманитарную помощь. В определенный момент орлы из Вашингтона решают провести операцию по захвату Айдида в его резиденции. Молодой офицер, только что назначенный взводным; матерый сержант, ведущий колонну машин; казарменный писарь, не нюхавший пороху; экипажи сбитых вертолетов, вынужденных ждать подкрепления и эвакуации; пара солдат, которых забыли взять с собой при смене позиции; генерал, сидящий в штабе и наблюдающий со спутника, как погибают его солдаты…


7.81666411
7.7
338934


Формат: MKV
Видео: 1920x800, 8411 Kbps (Исходное видео Black.Hawk.Down.2001.EXTENDED.2160p.BluRay.x265.10bit.SDR.DTS-HD.MA.TrueHD.7.1.Atmos)
Аудио1: AC3, 6 ch, 640 Kbps - Русский, Многоголосый (Киномания)
Аудио2: DTS, 6 ch, 1509 Kbps - Английский, Оригинал
Субтитры: Русские полные

Как за пару секунд удалить ненужные аудиодорожки и субтитры (Внимание! После удаления вы не сможете поддержать раздачу)

Медиаинфо
Общее
Уникальный идентификатор : 248893050590214735520416113332226614827 (0xBB3F0ED311AD87FCA43D590AF02BE62B)
Полное имя : G:\Падение Чёрного ястреба [Расширенная версия]SDR4K HEVC 10bit.mkv
Формат : Matroska
Версия формата : Version 4
Размер файла : 10,9 Гбайт
Продолжительность : 2 ч. 31 м.
Общий поток : 10,3 Мбит/сек
Дата кодирования : UTC 2019-05-06 19:23:12
Программа кодирования : mkvmerge v9.2.0 ('Photograph') 64bit
Библиотека кодирования : libebml v1.3.3 + libmatroska v1.4.4 / Lavf58.20.100

Видео
Идентификатор : 1
Формат : HEVC
Формат/Информация : High Efficiency Video Coding
Профиль формата : Main 10@L5.1@High
Идентификатор кодека : V_MPEGH/ISO/HEVC
Продолжительность : 2 ч. 31 м.
Битрейт : 8411 Кбит/сек
Ширина : 1920 пикселей
Высота : 800 пикселей
Соотношение сторон : 2,40:1
Режим частоты кадров : Постоянный
Частота кадров : 23,976 (24000/1001) кадра/сек
Цветовое пространство : YUV
Субдискретизация насыщенности : 4:2:0
Битовая глубина : 10 бит
Бит/(Пиксели*Кадры) : 0.228
Размер потока : 8,92 Гбайт (82%)
Библиотека кодирования : x265 2.5+5-0b3ba15b33ea:[Windows][GCC 7.2.0][64 bit] 10bit
Настройки программы : cpuid=1050111 / frame-threads=2 / numa-pools=4 / wpp / no-pmode / no-pme / no-psnr / no-ssim / log-level=2 / input-csp=1 / input-res=1920x800 / interlace=0 / total-frames=0 / level-idc=51 / high-tier=1 / uhd-bd=0 / ref=3 / no-allow-non-conformance / no-repeat-headers / annexb / no-aud / no-hrd / info / hash=0 / no-temporal-layers / open-gop / min-keyint=23 / keyint=250 / bframes=4 / b-adapt=2 / b-pyramid / bframe-bias=0 / rc-lookahead=20 / lookahead-slices=5 / scenecut=40 / no-intra-refresh / ctu=64 / min-cu-size=8 / no-rect / no-amp / max-tu-size=32 / tu-inter-depth=1 / tu-intra-depth=1 / limit-tu=0 / rdoq-level=0 / dynamic-rd=0.00 / no-ssim-rd / signhide / no-tskip / nr-intra=0 / nr-inter=0 / no-constrained-intra / strong-intra-smoothing / max-merge=2 / limit-refs=3 / no-limit-modes / me=1 / subme=2 / merange=57 / temporal-mvp / weightp / no-weightb / no-analyze-src-pics / deblock=-3:-3 / no-sao / no-sao-non-deblock / rd=3 / no-early-skip / rskip / no-fast-intra / no-tskip-fast / no-cu-lossless / no-b-intra / rdpenalty=0 / psy-rd=2.00 / psy-rdoq=0.00 / no-rd-refine / analysis-reuse-mode=0 / no-lossless / cbqpoffs=0 / crqpoffs=0 / rc=crf / crf=20.0 / qcomp=0.60 / qpstep=4 / stats-write=0 / stats-read=0 / vbv-maxrate=160000 / vbv-bufsize=160000 / vbv-init=0.9 / crf-max=0.0 / crf-min=0.0 / ipratio=1.40 / pbratio=1.30 / aq-mode=1 / aq-strength=1.00 / cutree / zone-count=0 / no-strict-cbr / qg-size=32 / no-rc-grain / qpmax=69 / qpmin=0 / no-const-vbv / sar=1 / overscan=0 / videoformat=5 / range=0 / colorprim=2 / transfer=2 / colormatrix=1 / chromaloc=0 / display-window=0 / max-cll=0,0 / min-luma=0 / max-luma=1023 / log2-max-poc-lsb=8 / vui-timing-info / vui-hrd-info / slices=1 / opt-qp-pps / opt-ref-list-length-pps / no-multi-pass-opt-rps / scenecut-bias=0.05 / no-opt-cu-delta-qp / no-aq-motion / no-hdr / no-hdr-opt / no-dhdr10-opt / analysis-reuse-level=5 / scale-factor=0 / refine-intra=0 / refine-inter=0 / refine-mv=0 / no-limit-sao / ctu-info=0
Default : Да
Forced : Нет
Цветовой диапазон : Limited
Коэффициенты матрицы : BT.709

Аудио #1
Идентификатор : 2
Формат : AC-3
Формат/Информация : Audio Coding 3
Коммерческое название : Dolby Digital
Идентификатор кодека : A_AC3
Продолжительность : 2 ч. 31 м.
Вид битрейта : Постоянный
Битрейт : 384 Кбит/сек
Каналы : 6 каналов
Channel layout : L R C LFE Ls Rs
Частота : 48,0 КГц
Частота кадров : 31,250 кадров/сек (1536 SPF)
Битовая глубина : 16 бит
Метод сжатия : С потерями
Задержка видео : -72 мс.
Размер потока : 417 Мбайт (4%)
Заголовок : Профессиональный (многоголосый, закадровый) Киномпния
ServiceKind/String : Complete Main
Default : Да
Forced : Нет

Аудио #2
Идентификатор : 3
Формат : DTS
Формат/Информация : Digital Theater Systems
Идентификатор кодека : A_DTS
Продолжительность : 2 ч. 31 м.
Вид битрейта : Постоянный
Битрейт : 1509 Кбит/сек
Каналы : 6 каналов
Channel layout : C L R Ls Rs LFE
Частота : 48,0 КГц
Частота кадров : 93,750 кадра/сек (512 SPF)
Битовая глубина : 24 бит
Метод сжатия : С потерями
Задержка видео : -83 мс.
Размер потока : 1,60 Гбайт (15%)
Заголовок : Original (Eng) / DTS / 6 ch / 1509 kbps / 48 kHz
Default : Нет
Forced : Нет

Текст
Идентификатор : 4
Формат : PGS
Режим смешивания : zlib
Идентификатор кодека : S_HDMV/PGS
Идентификатор кодека/Информация : Picture based subtitle format used on BDs/HD-DVDs
Продолжительность : 2 ч. 26 м.
Битрейт : 8838 бит/сек
ElementCount : 3088
Размер потока : 9,23 Мбайт (0%)
Заголовок : Русские субтитры
Default : Да
Forced : Нет

Меню
00:00:00.000 : en:Chapter 01
00:21:48.682 : en:Chapter 02
00:31:39.939 : en:Chapter 03
00:39:19.940 : en:Chapter 04
00:43:25.519 : en:Chapter 05
00:54:04.074 : en:Chapter 06
01:02:18.317 : en:Chapter 07
01:10:22.051 : en:Chapter 08
01:28:36.811 : en:Chapter 09
01:30:26.671 : en:Chapter 10
01:43:36.376 : en:Chapter 11
01:48:49.648 : en:Chapter 12
02:02:18.873 : en:Chapter 13
02:06:20.489 : en:Chapter 14
02:11:28.630 : en:Chapter 15
02:20:13.029 : en:Chapter 16
Cкриншот1 Чёрный ястреб / Black Hawk Down (2001) [Extended Cut] BDRip 1080p [HEVC] 10 bit от ADVOKAT69
Загружается...
Cкриншот2 Чёрный ястреб / Black Hawk Down (2001) [Extended Cut] BDRip 1080p [HEVC] 10 bit от ADVOKAT69
Загружается...
Cкриншот3 Чёрный ястреб / Black Hawk Down (2001) [Extended Cut] BDRip 1080p [HEVC] 10 bit от ADVOKAT69
Загружается...
Cкриншот4 Чёрный ястреб / Black Hawk Down (2001) [Extended Cut] BDRip 1080p [HEVC] 10 bit от ADVOKAT69
Загружается...
СэмплТоррентМагнетКнопки для благодарностей доступны только зарегистрированным/авторизованным пользователям!

Поблагодарили: 17
375509, brukvalub, crash, D16T, Felone, Heineken, inoy, ivs5, ko1ob, mvclub, Nuclear70, prince46rus, sabretooth, VardO, VIKING, Vitoss6, Херсонец
07.05.2019  12:11:44
0
85
0
0
10.94 ГБ

Добавление нового комментария

Добавление комментариев доступно только зарегистрированным/авторизованным пользователям.